<?xml version="1.0" standalone="no"?>
<!DOCTYPE svg PUBLIC "-//W3C//DTD SVG 1.1//EN" "http://www.w3.org/Graphics/SVG/1.1/DTD/svg11.dtd" >
<svg xmlns="http://www.w3.org/2000/svg">
<metadata>
This is a custom SVG webfont generated by Font Squirrel.
Copyright   : Copyright c Gophmann AL 2005 All rights reserved
Designer    : Gophmann AL
Foundry     : Gophmann AL
</metadata>
<defs>
<font id="AlexandraScriptRegular" horiz-adv-x="1399" >
<font-face units-per-em="2048" ascent="1638" descent="-410" />
<missing-glyph horiz-adv-x="576" />
<glyph unicode=" "  horiz-adv-x="576" />
<glyph unicode="&#x09;" horiz-adv-x="576" />
<glyph unicode="&#xa0;" horiz-adv-x="576" />
<glyph unicode="!" horiz-adv-x="1350" d="M115 83q0 36 9 54q56 149 198 149q101 0 101 -97q0 -16 -9 -52q-56 -153 -198 -151q-101 0 -101 97zM558 540q0 14 9 22q92 102 193 230q318 392 752 1102q184 304 194 318q166 229 285 245q115 0 115 -162q-40 -153 -423 -540q-553 -558 -821 -893l-254 -331 q-5 -9 -23 -11q-27 9 -27 20z" />
<glyph unicode="&#x22;" horiz-adv-x="1417" d="M691 1962q0 32 9 43q234 272 369 511q61 110 110 110q25 -5 25 -41q0 -22 -43 -83q-175 -259 -437 -520q-13 -18 -33 -20zM922 1962q0 32 5 43q239 277 367 511q60 110 117 110q22 -5 22 -41q0 -13 -47 -83q-184 -272 -432 -520q-14 -18 -32 -20z" />
<glyph unicode="#" horiz-adv-x="1242" d="M-162 598l526 748q-119 -5 -396 -18q57 51 102 137q70 0 207 -9q110 -5 162 -5l193 277q-162 0 -407 -14q74 66 106 138q83 -5 373 -18l383 553h65l-396 -553h317l383 553h65l-396 -553q115 4 396 18q-36 -52 -106 -138q-295 10 -369 10q-31 -46 -96.5 -136t-96.5 -137 q175 9 405 14q-36 -52 -106 -137q-198 4 -374 13l-506 -743h-65l522 743q-110 5 -315 5l-511 -748h-65zM484 1447q193 0 317 4l198 277h-317z" />
<glyph unicode="$" horiz-adv-x="1329" d="M-439 153l356 506q-119 106 -119 277q0 180 131.5 304t304.5 132q18 0 25 -8q-5 -14 -25 -14q-176 -27 -290.5 -156.5t-109.5 -261.5q4 -158 105 -241l576 821q-27 92 -27 207q0 198 161 350t366 165l207 300h63q-129 -176 -212 -300q79 0 153 -36l230 336h60l-254 -358 q133 -84 135 -241q0 -157 -85.5 -276.5t-177.5 -137.5q-97 0 -97 79q0 78 156.5 119t156.5 229q0 124 -110 198l-498 -713q52 -141 50 -277q0 -238 -176.5 -411t-435.5 -173h-38l-279 -419h-65l294 423q-74 22 -137 56l-329 -479h-65zM-27 664q56 -36 146 -52l475 682 q-9 31 -31.5 87.5t-31.5 83.5zM171 608h13q180 0 316.5 124.5t136.5 318.5q0 105 -25 198zM646 1834q0 -45 9 -120l165 242l166 238q-142 -23 -241 -127.5t-99 -232.5zM664 1658q13 -70 60 -180l480 689q-61 31 -144 31h-14q-56 -74 -382 -540z" />
<glyph unicode="%" horiz-adv-x="2389" d="M92 -79l1724 2199q-347 -374 -642 -448q-157 -264 -373 -455q-239 -211 -414 -213q-221 0 -221 258q0 56 10 110q51 304 384 616t583 312q189 0 180 -230q-5 -153 -119 -346q198 60 459 299q207 184 333 360q18 -9 40 -9q38 0 56 13l-1908 -2466q-4 14 -36 14 q-26 0 -56 -14zM286 1271q0 -225 124 -225q114 0 321 184.5t360 423.5q-22 -5 -58 -5q-239 0 -232 250q5 137 92 243q-207 -153 -391.5 -415t-215.5 -456zM844 1890q0 -198 189 -198q22 0 87 9q79 137 97 180q41 101 45 203q5 170 -110 168q-128 0 -218 -117t-90 -245z M884 254q0 45 9 106q45 295 387 610t596 315q172 0 169 -194q0 -36 -9 -97q-40 -276 -363 -639.5t-561 -363.5q-226 0 -228 263zM1004 259q0 -111 15 -153q23 -74 111 -74q180 0 483 350q324 365 369 669q0 193 -101 193q-211 0 -523 -354t-354 -631z" />
<glyph unicode="&#x26;" horiz-adv-x="3030" d="M230 540q22 686 996 1035q457 167 630 223q167 299 485.5 554.5t502.5 255.5q115 0 115 -146q-45 -180 -475 -426q-304 -175 -590 -281q-188 -326 -198 -612q-13 -443 203 -787q686 501 727 861q0 194 -160 194q-101 0 -195.5 -58.5t-132.5 -121.5q60 69 126 69 q78 0 76 -103q-14 -79 -80 -141t-132 -62q-114 0 -110 122q5 106 150 218.5t298 112.5q202 0 202 -234q-44 -378 -742 -900q250 -374 598 -374q378 0 637 315q9 9 23 9q18 -9 18 -13q0 -2 -9 -20q-83 -115 -248 -212q-207 -119 -421 -119q-447 0 -695 355 q-524 -360 -911 -360q-308 0 -503 172t-185 474zM466 387q-5 -198 112 -323t349 -125q387 0 880 351q-198 318 -198 686q0 401 225 761q-545 -198 -932 -549q-427 -396 -436 -801zM1922 1816q355 128 641 308q335 212 339 364q5 75 -78 75q-185 0 -493 -273 q-286 -254 -409 -474z" />
<glyph unicode="'" horiz-adv-x="1188" d="M691 1962q0 32 9 43q220 254 364 511q61 110 115 110q25 -5 25 -41q0 -13 -48 -83q-184 -272 -432 -520q-13 -18 -33 -20z" />
<glyph unicode="(" horiz-adv-x="1338" d="M0 -524q374 2308 2432 3215q61 0 61 -18t-36 -31q-866 -360 -1604 -1389q-695 -963 -788 -1777q-4 -41 -38 -43q-27 0 -27 43z" />
<glyph unicode=")" horiz-adv-x="1161" d="M-346 -572q0 18 29 32q751 392 1341 1274q646 962 677 1939q0 41 31 41q28 0 28 -36q-66 -2235 -2055 -3268q-51 0 -51 18z" />
<glyph unicode="*" horiz-adv-x="1791" d="M691 2151q0 65 79 65q258 5 438 23q-132 153 -245 267q-27 28 -27 66q0 60 63 58q45 -9 70 -54q83 -184 162 -328l180 351q22 56 97 56q36 -13 36 -56q0 -32 -18 -50q-172 -175 -273 -306q153 32 435 122q101 0 105 -52q0 -65 -92 -70q-245 -4 -452 -22q79 -97 245 -273 q32 -31 32 -62q0 -28 -28.5 -44.5t-37.5 -16.5q-45 9 -70 61q-74 162 -159 326l-185 -387q-27 -61 -74 -61q-14 0 -36 12.5t-22 52.5q0 32 26 65q176 194 273 327q-185 -45 -425 -129q-97 0 -97 59z" />
<glyph unicode="+" horiz-adv-x="2621" d="M691 738v110h738v738h110v-738h738v-110h-738v-738h-110v738h-738z" />
<glyph unicode="," horiz-adv-x="353" d="M-180 -263q0 9 18 13q331 124 400 338q-36 -88 -123 -88q-75 0 -75 88q0 70 61 129.5t119 59.5q88 0 88 -119q-13 -149 -184 -282q-142 -110 -282 -153q-22 9 -22 14z" />
<glyph unicode="-" d="M277 709q45 61 166 144q158 110 252 110q79 0 217.5 -78.5t221.5 -78.5q119 0 252 112q16 -2 16 -29q-221 -194 -356 -194q-88 0 -233 72t-228 72q-137 0 -281 -144q-27 0 -27 14z" />
<glyph unicode="." horiz-adv-x="344" d="M22 88q0 13 10 49q51 137 180 140q87 0 87 -97q0 -11 -9 -47q-52 -133 -180 -133q-88 0 -88 88z" />
<glyph unicode="/" horiz-adv-x="1030" d="M162 -9l1948 2585h75l-1947 -2585h-76z" />
<glyph unicode="0" horiz-adv-x="1381" d="M0 443q0 414 382 779q352 337 826 461q23 0 23 -11q0 -9 -18 -14q-489 -180 -813 -639q-285 -405 -281 -769q0 -216 198 -218q259 0 669.5 452t451.5 810v78q0 203 -144 203q-225 0 -533.5 -368t-308.5 -671q0 -14 -13 -16q-14 4 -16 16q0 317 302.5 692.5t568.5 375.5 q222 -2 209 -333q-18 -387 -437.5 -829t-748.5 -442q-313 0 -317 443z" />
<glyph unicode="1" horiz-adv-x="1381" d="M0 382q536 410 792 628q443 369 747 700q23 0 27 -4l-1228 -1702q-36 23 -93 23q-115 0 -213 -67l1116 1307l-1042 -862q-9 0 -106 -23z" />
<glyph unicode="2" horiz-adv-x="1750" d="M0 32q0 18 18 65q74 175 328 317l779 400q434 268 432 576q0 216 -239 219q-36 0 -56 -9q45 -70 48 -144q0 -259 -210 -493q-189 -221 -358 -221q-148 0 -148 198q0 212 187 412t432 266q-65 56 -167 54q-88 0 -162 -45q-18 -9 -22 -9q-5 0 -14 9q0 74 198 74 q124 0 198 -74q18 4 79 4q180 0 292.5 -96.5t108.5 -263.5q-5 -229 -250 -396q-158 -110 -538 -254q-428 -157 -576 -239q-254 -137 -333 -321q137 198 365 198q157 0 341.5 -74.5t265.5 -74.5q153 0 185 110q4 14 13 14q18 0 20 -22q-18 -66 -117 -129q-119 -83 -279 -83 q-148 0 -328 64t-277 64q-133 0 -176 -106q-8 -18 -22 -18q-18 0 -18 28zM628 922q0 -152 119 -152q153 0 343 228t190 458q0 83 -45 139q-193 -36 -400 -267.5t-207 -405.5z" />
<glyph unicode="3" horiz-adv-x="1518" d="M0 322q0 207 171 369q162 141 396 184q13 0 13 -4q0 -5 -8 -5q-198 -60 -352 -216q-175 -171 -175 -360q0 -254 259 -254q250 0 517 268q250 254 248 448q0 123 -65 155q-111 -14 -183 -14q-133 0 -135 70q0 61 106 56q115 -4 223 -74q110 27 243 171q157 171 157 344 q0 162 -193 162h-34q-22 -4 -27 -4q45 -36 47 -128q0 -149 -136 -283t-262 -134q-115 0 -115 153q0 110 118.5 235t293.5 170q-56 18 -117 18q-36 0 -133 -31q-22 0 -22 9q0 4 9 13q65 32 150 32q75 0 149 -36q27 9 70 9q353 0 353 -313q0 -158 -198 -281 q-153 -97 -326 -129q153 -119 150 -355q0 -254 -299 -425q-254 -142 -533 -142q-360 0 -360 322zM724 958q0 -36 97 -36q106 0 151 14q-115 52 -176 50q-74 0 -72 -28zM724 1208q0 -114 86 -117q119 0 244 133t125 266q0 92 -45 123q-133 -27 -271.5 -156t-138.5 -249z" />
<glyph unicode="4" horiz-adv-x="1197" d="M-171 567q0 9 9 18q857 594 1278 1143q9 18 18 18q4 0 4 -9q-4 -207 -409 -540l-862 -621q119 65 299 65q129 0 378 -43q23 28 72 79l712 831q22 36 49 36q0 -14 -23 -46l-659 -922q57 -9 106 -9q149 0 193 65q84 97 126 97q23 0 23 -29q0 -32 -65 -68q-92 -60 -115 -83 q-70 -70 -70 -167q0 -31 5 -40q0 -9 -9 -16q-18 0 -18 66q0 96 97 193q-102 -65 -318 -65l-373 -529q-32 31 -101 31q-111 0 -203 -74q299 318 506 583q-65 5 -201 32t-226 27q-115 0 -189 -36q-32 0 -34 13z" />
<glyph unicode="5" horiz-adv-x="1334" d="M-162 295q0 238 202 405q158 128 374 166q9 0 9 -9q-207 -51 -370 -232.5t-168 -361.5q-9 -234 239 -236q245 0 535 290q304 309 317 637q10 212 -206 212q-239 0 -453 -230q-9 -4 -22 -4q-18 0 -18 22q0 9 9 22l510 687q10 9 18 9q10 -9 12 -32l-122 -150 q128 152 268 150q79 0 212.5 -59.5t221.5 -59.5q128 0 174 101q4 9 20 9q9 0 9 -18q-9 -31 -47 -69q-75 -66 -72 -66q-84 -92 -84 -189q0 -13 -16 -13q-13 0 -13 13q0 124 113 227q-106 -87 -246 -87q-70 0 -173 43.5t-196 43.5q-148 0 -211 -83q-84 -105 -313 -423 q211 180 419 178q342 0 326 -400q-14 -356 -349 -590q-299 -202 -623 -202q-286 0 -286 299z" />
<glyph unicode="6" horiz-adv-x="1611" d="M133 457q4 724 1429 1345q22 0 24 -9q-6 -4 -16 -13q-524 -272 -924 -711q-414 -461 -421 -815q0 -245 185 -245q245 0 571 369q313 356 319 580q0 176 -152 176q-246 0 -492 -288t-296 -569q0 -14 -9 -14q-13 5 -13 23q40 294 278 576q259 299 536 299q216 0 212 -263 q-10 -356 -349 -648q-313 -268 -605 -268q-282 0 -277 475z" />
<glyph unicode="7" horiz-adv-x="1381" d="M0 -128q682 690 1566 1694q-142 -110 -392 -110q-78 0 -172.5 30t-175.5 30q-133 0 -320 -206q-4 -14 -18 -16q-13 0 -13 20q0 9 13 18q176 176 338 387q4 9 18 9q18 0 18 -14q-61 -78 -185 -224q176 152 365 150q65 0 191 -37t227 -37q92 0 135 43q23 22 58 66t55 64.5 t56 20.5q18 0 20 -18q-2 0 -11 -28q-36 -44 -142 -114l-1249 -1622q-18 4 -60 4q-167 0 -322 -110z" />
<glyph unicode="8" horiz-adv-x="1381" d="M0 342q0 238 277 450q115 88 409 236q-45 106 -45 189q0 171 156.5 310.5t340.5 139.5q246 0 286 -189q102 84 115 97q83 79 124 157q4 5 13 5q12 -5 12 -13q-61 -115 -259 -277q0 -221 -129 -351q-22 0 -24 11q0 -9 63 99t63 223q-180 -153 -484 -322q124 -211 124 -457 q-36 -286 -295 -484q-221 -170 -416 -170q-142 0 -236.5 92t-94.5 254zM65 277q0 -111 73.5 -180.5t192.5 -69.5q180 0 346.5 150.5t166.5 362.5q0 158 -144 450q-234 -119 -414 -304q-221 -220 -221 -409zM835 1350q0 -97 63 -212q330 190 492 318q-18 184 -260 184 q-115 0 -205 -90t-90 -200z" />
<glyph unicode="9" horiz-adv-x="1377" d="M-405 -457q0 14 9 18q664 410 1109 936q471 554 479 981q5 230 -206 232q-230 0 -548.5 -371t-318.5 -662q23 -166 198 -166q225 0 457 328q216 313 230 608q0 13 15 13q9 -4 9 -13q0 -309 -218 -626q-230 -337 -493 -337q-216 0 -247 250q-5 36 -5 76q0 364 286 648 t635 284q308 0 299 -480q-18 -821 -1667 -1728q-23 0 -23 9z" />
<glyph unicode=":" horiz-adv-x="648" d="M22 88q0 13 10 49q51 137 180 140q87 0 87 -97q0 -11 -9 -47q-52 -133 -180 -133q-88 0 -88 88zM374 598q0 23 8 52q46 138 180 138q88 0 88 -93q0 -18 -9 -45q-45 -137 -180 -139q-87 0 -87 87z" />
<glyph unicode=";" horiz-adv-x="648" d="M-180 -263q0 9 18 13q331 124 400 338q-36 -88 -123 -88q-75 0 -75 88q0 70 61 129.5t119 59.5q88 0 88 -119q-13 -149 -184 -282q-142 -110 -282 -153q-22 9 -22 14zM374 598q0 23 8 52q46 138 180 138q88 0 88 -93q0 -18 -9 -45q-45 -137 -180 -139q-87 0 -87 87z" />
<glyph unicode="&#x3c;" horiz-adv-x="2736" d="M691 718v144l1586 738v-110l-1503 -698l1503 -695v-111z" />
<glyph unicode="=" horiz-adv-x="2736" d="M691 410v121h1586v-121h-1586zM691 1055v119h1586v-119h-1586z" />
<glyph unicode="&#x3e;" horiz-adv-x="2736" d="M691 -14v111l1503 695l-1503 698v110l1586 -738v-144z" />
<glyph unicode="?" horiz-adv-x="1878" d="M115 83q0 36 9 54q56 149 198 149q101 0 101 -97q0 -16 -9 -52q-56 -153 -198 -151q-101 0 -101 97zM544 632q0 79 185 252q110 106 520 338q493 276 691 461q276 254 272 538q0 110 -81 184.5t-214 74.5q-281 -5 -558 -216q-234 -180 -290 -347q65 88 175 88 q120 0 115 -119q-5 -88 -83.5 -158t-155.5 -79q-137 0 -139 140q-5 225 331.5 487t660.5 266q221 5 350 -98.5t134 -287.5q5 -259 -365 -516q-157 -110 -782 -436q-568 -300 -610 -466q-5 -18 -5 -52q0 -45 23 -58q-9 -52 -97 -52q-74 0 -77 56z" />
<glyph unicode="@" horiz-adv-x="2947" d="M576 1249q0 497 448 879q423 370 929 370q355 0 567 -198q198 -185 198 -471q0 -308 -216 -589q-236 -300 -536 -300q-128 0 -215.5 83.5t-87.5 238.5q0 27 9 92q-234 -414 -414 -414q-207 0 -194 309q14 317 282 589q249 254 488 254q124 0 124 -162q36 70 60 111l9 13 l9 20q27 -13 84 -15q51 0 92 15q-149 -254 -365 -702q-51 -101 -49 -188q0 -203 184 -203q234 0 421 204.5t232 533.5q9 65 11 101q0 264 -171 439q-189 198 -531 198q-414 0 -774 -286q-387 -308 -470 -774q-18 -101 -18 -180q0 -308 193 -488q207 -203 608 -205 q216 0 439 79q148 52 303 144q133 79 135 79q14 0 14 -20q0 -14 -25 -32q-409 -295 -875 -295q-444 0 -686 245q-212 212 -212 525zM1156 1134q-8 -153 106 -153q158 0 365 369q27 52 211 378q43 70 88 207q4 119 -106 119q-153 0 -401.5 -341t-262.5 -579z" />
<glyph unicode="A" horiz-adv-x="3699" d="M0 1161q0 434 325 747t818 313q414 0 617 -313q206 -45 344.5 -189t138.5 -347q0 -87 -22 -188h493q980 1275 2171 1286q65 0 65 -8l-29 -21q-493 -299 -1170 -1161q-655 -826 -655 -1086q0 -162 135 -162q185 0 625 580l23 -22q-427 -590 -653 -590q-180 0 -180 212 q0 276 248 695q65 105 162 236h-342q-45 -61 -133 -162q-894 -1021 -1824 -1021h-5q-304 0 -540 188q-198 167 -248 367q-364 212 -364 646zM40 1143q0 -369 311 -576q-23 115 -25 193q0 444 320 784q360 382 940 382q36 0 110 -9q-180 229 -553 229q-461 0 -782 -297 t-321 -706zM369 770q0 -142 23 -221q184 -137 566 -139q378 0 725 193q369 211 479 540h-240l36 41h218q22 78 22 198q0 355 -400 452q45 -102 45 -234q-5 -225 -137 -412q-154 -207 -406 -270q-51 0 -56 14q0 26 22.5 28t69.5 12q208 65 337 245t134 392q0 123 -61 238 q-92 9 -146 9q-502 0 -876 -348q-355 -331 -355 -738zM410 493q60 -189 249 -331q216 -166 489 -166q470 0 852 321q189 167 520 610l158 216h-471q-110 -347 -497 -567q-364 -207 -752 -207q-342 0 -548 124zM3148 1184h340q290 373 728 769q392 351 630 484 q-452 0 -787 -198q-259 -158 -506 -479z" />
<glyph unicode="B" horiz-adv-x="4099" d="M0 1100q0 434 325 748t818 314q281 0 488 -171q212 -184 212 -452q0 -221 -137 -409q-154 -208 -406 -277q-51 0 -56 18q0 27 25 29t67 14q208 60 339.5 241t131.5 393q0 245 -196 392.5t-468 147.5q-461 0 -782 -297t-321 -709q0 -369 311 -576q-23 115 -25 194 q0 443 320 783q360 382 940 382q268 0 462.5 -151.5t194.5 -399.5q0 -439 -432 -738q-391 -268 -853 -268q-342 0 -548 126q60 -189 249 -333q216 -166 489 -166q470 0 834 281q221 176 529 598q470 646 779 928q571 524 1286 681l120 23q18 0 18 -14q0 -18 -11.5 -18 t-42.5 -4q-498 -97 -900 -493q-189 -189 -414 -515l-360 -522q-331 -444 -829.5 -712.5t-1004.5 -268.5q-304 0 -540 189q-198 166 -248 369q-364 211 -364 643zM369 709q0 -142 23 -221q184 -137 566 -137q457 0 831 257q414 292 414 715q0 203 -166.5 339t-436.5 136 q-502 0 -876 -351q-355 -331 -355 -738zM2203 1870q0 238 254 490q270 266 576 266h5q238 0 312 -151q295 79 558 79q318 0 524 -126q241 -139 241 -395v-10q-4 -255 -319 -437q-264 -157 -498 -157q295 -116 295 -472v-21q-4 -281 -308 -605q-316 -340 -713 -340h-16 q-124 0 -207 83q-97 88 -97 239q0 229 217 503.5t494 375.5q75 28 239 70q45 0 52 -22q0 -27 -48 -27q-101 -5 -229 -57q-291 -110 -497 -396q-185 -258 -185 -447q0 -137 88 -221q74 -65 164 -65q268 0 513 241q387 382 396 810v10q0 268 -220 332h-144q-158 0 -158 54 q0 45 79 47q92 0 231 -65q212 0 455 189q281 220 281 493q0 152 -137 249q-167 119 -488 119q-263 0 -545 -83q18 -40 18 -119q0 -295 -286 -598q-267 -286 -465 -286q-203 0 -203 207q0 245 256.5 498t619.5 337q-66 132 -266 132q-295 0 -558 -258q-245 -239 -245 -466 q0 -18 -18 -18t-18 18zM2470 1618q0 -167 156 -167q198 0 461 290.5t263 548.5q0 88 -22 124q-331 -83 -594.5 -325t-263.5 -471z" />
<glyph unicode="C" horiz-adv-x="2279" d="M-230 1627q0 290 410 529.5t950 239.5q510 0 1064 -198q589 268 893 268q207 0 207 -158q0 -294 -668 -620q-637 -318 -1359 -430l-365 -410q-286 -369 -286 -610q0 -152 140 -265v36q-4 27 -4 61q0 414 360 792q378 396 836 396q167 0 268.5 -85.5t101.5 -222.5 q0 -406 -581 -792q-74 -226 -229 -383q-185 -180 -401 -180q-304 0 -347 331q-83 40 -152 148q-111 167 -111 414q0 185 111 419q87 189 188 310h-78q-56 -4 -81 -4q-867 0 -867 414zM-189 1618q0 -369 817 -369q92 0 193 13q189 254 608 531q369 245 699 369 q-409 151 -885 151h-12q-628 0 -1033 -207q-387 -198 -387 -488zM796 32q0 -66 5 -84q56 -22 149 -22q198 0 452 126q202 101 326 216q45 148 45 290q0 198 -81 349q9 27 22 29q5 0 14 -9q88 -153 88 -365q0 -101 -32 -249q480 382 480 637q0 267 -316 267q-434 0 -810 -447 q-342 -401 -342 -738zM806 -88q31 -290 301 -290q175 0 340.5 147.5t235.5 363.5q-388 -243 -732 -243h-6q-92 0 -139 22zM1314 1314q677 106 1271 423q565 308 621 563q0 132 -114 132q-172 0 -437 -92q-234 -83 -383 -173q172 -61 340 -171q23 -18 23 -48q-27 0 -50 14 q-119 88 -364 171q-153 -79 -445.5 -341t-461.5 -478z" />
<glyph unicode="D" horiz-adv-x="3325" d="M-92 65q0 83 154 145t408 62q239 0 700 -114q250 132 968 1142q418 586 1160 972q-87 88 -276 165q-254 101 -538 101q-277 0 -461 -50q166 -128 166 -429q0 -581 -447 -1035q-396 -405 -756 -408q-354 0 -354 508v6q0 548 547 985q419 326 774 387q-124 101 -367 101 q-488 0 -940 -457.5t-452 -975.5q0 -313 157 -520q0 -36 -20 -38q-23 0 -32 25q-146 235 -146 529v8q0 576 463 1029q446 432 965 432h5q246 0 405 -119q250 56 493 56q313 0 585 -115q175 -79 272 -167q369 190 691 221q27 0 27 -18t-18 -18q-119 -13 -331 -83 q-225 -70 -333 -133q255 -254 255 -673q0 -612 -527 -1111q-567 -531 -1359 -531q-225 0 -686 117q-498 -142 -822 -144q-330 0 -330 148zM-52 61q0 -106 329 -106q418 0 699 128q-418 119 -659 119q-171 0 -270 -43.5t-99 -97.5zM700 972q0 -128 76.5 -225t204.5 -97 q331 0 750.5 495t419.5 939q0 276 -164 396q-414 -88 -831 -532q-456 -488 -456 -976zM1240 133q506 -133 668 -133q387 0 792 304q356 276 600 684.5t244 717.5q0 346 -198 528q-239 -128 -581 -630q-465 -682 -526 -751q-428 -493 -999 -720z" />
<glyph unicode="E" horiz-adv-x="2353" d="M-230 1912q0 250 309 424q337 188 871 188q337 0 695 -83q40 -9 400 -115q291 97 623 97q538 0 538 -198q0 -216 -589 -423q-401 -137 -857 -216q40 -65 148 -96q137 13 322 13q405 0 405 -70q0 -65 -233 -65h-28q-216 4 -470 79q-502 -45 -931 -414t-429 -747 q0 -259 203 -326q0 483 340 875q385 441 995 441h6q153 0 251 -84.5t98 -233.5q0 -418 -489 -756q-461 -317 -949 -317q-128 0 -207 23q18 -304 194 -493q13 -23 13 -47q-36 0 -49 16q-185 211 -203 537q-149 45 -290 185q-194 198 -194 461q0 378 529 641q428 212 1037 275 q-83 36 -146 87q-691 -92 -970 -92q-414 0 -673 117q-272 119 -270 317zM-189 1908q0 -166 229 -277q250 -115 678 -115q474 0 927 88q-133 115 -133 257q0 310 466 443q-516 137 -974 137q-545 0 -862 -133q-331 -141 -331 -400zM788 -56q96 -27 216 -27q434 0 886 295 q502 329 502 740v6q0 124 -88 200.5t-216 76.5q-497 0 -922 -501q-378 -444 -378 -790zM1742 1667q0 -31 4 -49q479 83 904 252q484 193 484 360q0 60 -92 106.5t-263 46.5q-313 0 -536 -131q180 -60 299 -146q28 -18 30 -47q-36 0 -52 11q-97 74 -317 160 q-162 -84 -295 -225q-166 -176 -166 -338zM1991 1460q137 -45 345 -49q39 -1 72 -1q177 0 177 23q0 36 -267 36q-208 0 -327 -9z" />
<glyph unicode="F" horiz-adv-x="3008" d="M0 1179q0 405 392 720q409 331 985 331q234 0 470 -54q277 198 594 234q-31 96 -123 175q-124 106 -295 106q-185 0 -335 -128q-133 -115 -190 -268q-4 -18 -29 -18q-18 0 -18 36q57 149 185 263q169 151 381 151h6q193 0 326 -119q106 -92 135 -194q137 23 313 23 q216 0 739 -133t708 -133q400 0 695 212q36 0 38 -14q0 -4 -9 -13q-400 -272 -976 -272q-300 0 -761 132.5t-628 132.5q-65 0 -101 -5q18 -56 18 -173q0 -175 -45 -328q157 -137 239 -295q0 -40 -18 -40q-23 0 -28 18q-78 157 -206 272q-52 -185 -172 -347q93 -133 93 -290 q0 -65 -23 -142h252q567 797 1355 972q9 -4 20 -13q0 -14 -11 -16q-396 -115 -639 -400q-106 -120 -347 -543h421l-34 -47h-414q-31 -52 -97 -151q-294 -423 -800 -688q-485 -257 -939 -257h-7q-452 0 -692 282q-194 216 -194 497q-234 263 -234 524zM36 1170 q0 -281 202 -461q0 391 338 720q364 360 884 360h23q18 -5 25 -5q83 187 285 349q-184 41 -396 43q-524 0 -942.5 -305t-418.5 -701zM277 616q9 -258 202 -454q234 -250 641 -250q365 0 640 180q198 128 429 414q317 392 392 466h-237q-110 -272 -440 -466 q-356 -202 -784 -202q-272 0 -535 114q-203 93 -308 198zM277 673q79 -93 267 -189q273 -133 572 -133q439 0 774 198q299 175 405 423h-452l38 47h432q23 54 23 133q0 148 -77 254q-225 -276 -491 -276q-137 0 -231.5 92t-98.5 247v24q0 108 40 226q-470 -9 -823 -299 q-378 -304 -378 -747zM1478 1469q0 -133 83.5 -218t206.5 -85q246 0 462 276q-225 264 -709 282q-41 -124 -43 -255zM1548 1784q497 -22 720 -294q104 146 160 335q-239 211 -585 295q-203 -142 -295 -336zM1899 2156q313 -88 542 -286q43 148 43 301q0 106 -22 173 q-291 -8 -563 -188z" />
<glyph unicode="G" horiz-adv-x="2805" d="M4 374q10 396 337 679t815 297q17 1 35 1q97 0 215 -19q32 101 120 207q-844 88 -844 479q0 268 364 475q351 193 752 193q641 0 1042 -312q409 164 642 164h6q263 0 263 -137q0 -263 -687 -567q-650 -295 -1106 -295q-97 -97 -234 -295q119 -56 206 -189 q97 -148 97 -303q0 -138 -49 -241q216 83 520 346q276 234 438 453q395 528 497 528h1q31 0 31 -31q0 -70 -331 -369q-202 -180 -268 -326q-60 -129 -134 -408q-149 -531 -442 -814q-443 -423 -1271 -426q-443 0 -720 223q-296 240 -296 652q0 17 1 35zM52 369 q-1 -20 -1 -39q0 -360 249 -581q262 -233 719 -233q581 0 1065 520q263 281 782 1148q-470 -563 -918 -723q-101 -157 -292 -240.5t-389 -83.5q-309 0 -475 144q-14 23 -14 50q10 9 18 11q14 0 30 -16q135 -146 433 -146h8q409 0 614 259q-70 -14 -135 -16q-414 0 -414 592 q0 110 45 234q-89 23 -191 23q-19 0 -38 -1q-466 -13 -774.5 -268.5t-321.5 -633.5zM718 2018q0 -234 346 -355q246 -88 488 -88q365 450 1236 781q-352 247 -962 247h-15q-405 0 -738 -171q-355 -180 -355 -414zM1483 729q0 -268 267 -268q93 0 162 32q70 105 70 259 q0 294 -310 432q-189 -255 -189 -455zM1991 1575q435 9 1062.5 309.5t627.5 511.5q0 110 -185 110q-294 0 -602 -180q141 -101 220 -252q0 -36 -4 -42q-28 0 -41 27q-61 128 -216 245q-383 -194 -862 -729z" />
<glyph unicode="H" horiz-adv-x="4050" d="M0 1120q0 414 299 722.5t765 337.5q293 354 998 354h8q392 0 837 -185q331 -137 594 -326q365 511 531 511q32 0 32 -32q0 -61 -160 -198l-214 -171q-70 -61 -137 -142q65 -45 153 -126q4 -9 4 -22q0 -18 -16 -18q-4 0 -22 9q-79 88 -146 124q-115 -142 -259 -464 q-180 -405 -259 -540h835q405 682 623 945q545 668 1060 668q160 0 160 -101q0 -128 -124 -130q-88 0 -88 74q0 27 26 52.5t26 35.5q0 26 -47 26q-493 0 -954 -756l-387 -690q-225 -387 -462 -612q-312 -295 -774 -470q46 0 141.5 -7t144.5 -7q295 0 590 202 q229 162 407 396l27 -22q-493 -608 -1033 -610q-36 0 -135 8t-164 8q-52 0 -83 -4q-23 0 -23 13q0 18 9 20.5t45 10.5q536 142 988 903h-830q-27 -52 -61 -86q-254 -378 -718 -632q-506 -272 -1051 -272q-303 0 -540 189q-202 166 -252 369q-364 211 -364 645zM40 1100 q0 -369 311 -576q-23 115 -25 194q0 304 167 582q175 295 488 450q-23 70 -23 144q0 111 57 208q-414 -46 -694.5 -335t-280.5 -667zM369 729q0 -142 23 -223q184 -137 566 -137q457 0 831 259q409 290 409 713v5q-193 -36 -378 -36h-27q-128 -338 -493 -439q-51 0 -56 18 q0 27 25 30t67 13q282 78 414 378q-553 26 -735 362q-291 -153 -468.5 -415.5t-177.5 -527.5zM410 452q60 -189 249 -333q213 -164 483 -164h6q474 0 830 261q276 207 718 794l728 907q-571 -427 -1181 -563v-22q0 -439 -432 -738q-391 -268 -853 -268q-355 0 -548 126z M1004 1894q0 -74 20 -126q245 115 562 118q36 0 110 -10q-188 230 -553 230h-74q-65 -101 -65 -212zM1055 1692q176 -308 709 -338q38 97 43 212v13q0 109 -61 223q-70 14 -146 14q-286 0 -545 -124zM1138 2180h5q414 0 617 -315q434 -97 479 -468q607 133 1244 599 q-638 441 -1374 441h-7q-682 0 -964 -257zM1798 1793q45 -97 45 -236q0 -106 -32 -203h45q185 0 342 32q-31 317 -400 407z" />
<glyph unicode="I" horiz-adv-x="2920" d="M-14 1091v11q0 432 316 736q320 308 810 308q418 0 620 -312q212 -45 352.5 -188t140.5 -346q0 -443 -423 -738q-382 -267 -844 -267q-337 0 -553 123q65 -188 254 -330q221 -167 497 -167q406 0 749 251t737 874q-149 102 -149 304q0 540 594 848q493 254 1271 300 q18 0 25 -14q0 -14 -9 -14q-475 -175 -821 -650l-511 -816q234 18 450 209q194 171 214 299q0 14 -10 25t-10 20q0 27 24 34q41 0 41 -55v-10q-9 -154 -216 -334q-239 -206 -522 -234q-351 -492 -885 -792q-501 -281 -967 -281q-304 0 -545 189q-202 167 -256 369 q-369 212 -374 648zM27 1069q0 -365 319 -576q-22 115 -24 193q0 448 310 783q347 383 925 383q31 0 115 -9q-189 229 -560 231q-457 0 -771 -295.5t-314 -709.5zM387 475q185 -137 567 -137q457 0 826 256q405 289 405 708v8q0 355 -412 450q52 -111 52 -234 q0 -226 -133 -410q-148 -207 -403 -272q-51 0 -54 13q0 27 22.5 29t70.5 12q202 65 329 245t127 391q0 133 -65 239q-92 9 -149 11q-501 0 -866 -351q-344 -329 -344 -733q0 -88 27 -225zM2538 1346q0 -176 117 -273q695 1103 1658 1402q-607 -45 -1161 -360 q-612 -351 -614 -769z" />
<glyph unicode="J" horiz-adv-x="1602" d="M-1368 -1116q22 356 594 688q493 282 1100 406l689 985q-171 133 -171 317v7q0 553 774 855q553 216 1420 277q22 0 22 -18q0 -14 -9 -18q-576 -124 -1055 -637q-234 -245 -628 -848q234 18 457 218q202 176 220 304q0 13 -6.5 24.5t-6.5 20.5q0 27 22 33q38 0 38 -56v-9 q-8 -141 -227 -333q-238 -216 -524 -243q-254 -382 -567 -801q245 52 423 124q347 148 558 400l25 -22q-338 -400 -1042 -549q-1182 -1395 -1874 -1395h-2q-111 0 -175 76q-56 66 -56 165q0 14 1 29zM-1323 -1116q-1 -14 -1 -27q0 -203 190 -203q497 0 1429 1281 q-479 -133 -954 -392q-651 -351 -664 -659zM884 1276q0 -185 153 -286q749 1089 1883 1393q-677 -61 -1293 -342q-747 -338 -743 -765z" />
<glyph unicode="K" horiz-adv-x="3874" d="M0 1112q0 414 299 720t765 335q293 353 998 353h8q392 0 837 -184q331 -133 601 -322q355 506 524 506q32 0 32 -32q0 -60 -151 -188l-207 -167q-70 -56 -153 -155q61 -41 153 -126q4 -9 4 -18q0 -14 -9 -14q-13 0 -25 9q-87 79 -146 119q-119 -152 -290 -537 q-189 -419 -315 -605q-254 -374 -718 -626q-511 -277 -1051 -277q-303 0 -540 189q-202 167 -252 369q-364 212 -364 651zM40 1087q0 -369 311 -576q-23 115 -25 193q0 304 167 581q175 295 488 452q-23 79 -23 144q0 110 57 207q-414 -45 -694.5 -334t-280.5 -667zM369 713 q0 -141 23 -220q188 -137 566 -137q457 4 831 260q409 288 409 712v4q-193 -36 -378 -38h-27q-128 -342 -493 -432q-51 0 -56 13q0 27 22.5 29t69.5 14q286 92 414 376q-553 27 -735 364q-291 -153 -468.5 -412.5t-177.5 -532.5zM410 439q60 -185 249 -329 q216 -166 489 -166q474 0 830 263q276 203 718 787l715 896q-563 -418 -1168 -549v-23q0 -443 -432 -738q-391 -267 -853 -267q-342 0 -548 126zM1004 1881q0 -70 20 -126q245 115 562 115q74 0 110 -9q-180 229 -553 231h-74q-65 -101 -65 -211zM1055 1683 q171 -304 709 -342q38 97 43 211v14q0 113 -61 227q-92 9 -146 9q-282 0 -545 -119zM1138 2171h5q414 0 617 -319q434 -97 479 -470q576 130 1239 600q-696 450 -1370 450h-6q-678 0 -964 -261zM1798 1780q45 -97 45 -232q0 -110 -32 -207h45q149 0 342 31q-31 318 -400 408 zM3179 281q0 216 185 448l245 270q88 97 97 113q60 78 58 137v11q0 97 -88 137q-92 -22 -202 -25q-162 0 -160 70q0 56 106 56q148 0 261 -69q157 61 347 207q8 4 326 272l513 436q342 268 551 268q176 0 176 -106q0 -87 -97 -101q-75 0 -75 61q0 22 24 45t24 43 q0 31 -56 31q-176 0 -450 -249l-471 -450q-369 -313 -774 -475q149 -101 147 -237q0 -166 -180 -378q-106 -110 -304 -353q-124 -171 -124 -277q0 -132 133 -134q202 0 619 548l26 -22q-427 -558 -645 -558q-212 0 -212 281z" />
<glyph unicode="L" horiz-adv-x="2722" d="M92 202q0 -110 145 -172t357 -62q263 0 747 138q427 -138 743 -138q337 0 800 590l-26 22q-406 -535 -748 -535q-184 0 -589 171q268 110 594 396q313 277 511 558q461 234 870 554q525 404 527 645q0 160 -181 160h-4q-170 0 -470 -185q-202 -123 -326 -229 q-704 369 -1332 369q-567 0 -993.5 -274.5t-426.5 -623.5q0 -337 318 -544q285 -185 659 -185q452 0 889 133q-162 -245 -280 -396q-224 -281 -398 -364q-576 202 -958 204q-428 0 -428 -232zM128 202q2 154 236 154q365 0 921 -228q-405 -124 -657 -124q-234 0 -378 66 q-120 60 -122 132zM331 1586q0 356 447 581q406 207 936 207q738 0 1299 -282q-360 -272 -819 -1041q-342 -158 -918 -158q-318 0 -594 153q-351 194 -351 540zM2664 1240l470 769q97 -51 194 -115q27 0 27 14q0 9 -9 18q-79 56 -189 115q115 171 322 311.5t359 140.5 q111 0 111 -115q0 -189 -389.5 -534.5t-895.5 -603.5z" />
<glyph unicode="M" horiz-adv-x="4362" d="M0 1138q0 435 325 747.5t818 312.5q281 0 488 -171q212 -184 212 -452q0 -225 -137 -414q-154 -207 -406 -272q-51 0 -56 18q0 22 22.5 25.5t69.5 12.5q208 65 339.5 244t131.5 391q0 245 -203 402q-189 142 -461 142q-461 0 -782 -299t-321 -709q0 -364 311 -572 q-23 115 -25 190q0 443 320 782q360 383 940 383q268 0 462.5 -152t194.5 -401q0 -439 -432 -738q-388 -266 -846 -266h-7q-350 0 -548 128q60 -189 249 -333q213 -164 483 -164h6q501 0 944 383q203 180 493 571q347 470 954 943q651 506 1065 587q22 0 26 -11q0 -5 -8 -14 q-304 -184 -545 -528q-119 -167 -371 -633q-221 -405 -725 -949q255 198 599 535l576 563q272 263 623 538q515 409 839 548l32 -13q-6 -13 -20 -23l-54 -42q-176 -124 -525 -470q-391 -388 -711 -774q-598 -730 -598 -990q0 -162 137 -162q198 0 614 548l27 -22 q-427 -558 -646 -558q-184 0 -184 212q0 290 297 706q254 351 703 789.5t858 738.5q-594 -331 -1368 -1060l-697 -677q-506 -475 -823 -669q-32 0 -34 12q4 13 16 18q378 250 1064 1428q346 594 819 907q-475 -141 -889 -645l-619 -833q-355 -423 -855 -702 q-531 -290 -1010 -290q-299 0 -536 189q-202 166 -252 364q-364 212 -364 650zM369 742q0 -137 23 -222q188 -138 566 -138q457 5 831 264q409 286 409 713q0 203 -164 339t-434 136q-502 0 -876 -351q-355 -338 -355 -741z" />
<glyph unicode="N" horiz-adv-x="3730" d="M0 1130q0 434 325 746.5t818 312.5q281 0 488 -171q212 -184 212 -452q0 -220 -137 -410q-154 -206 -406 -276q-51 0 -56 18q0 27 25 30.5t67 11.5q208 61 339.5 242.5t131.5 392.5q0 245 -196 392.5t-468 147.5q-461 0 -782 -297t-321 -706q0 -370 311 -576 q-23 114 -25 193q0 443 320 783q360 382 940 382q268 0 462.5 -151.5t194.5 -401.5q0 -439 -432 -738q-387 -265 -843 -265h-10q-355 0 -548 123q60 -189 249 -333q213 -164 483 -164h6q519 0 958 378q148 128 488 560q462 585 700 817q515 502 1107 718q9 4 31.5 12t33.5 8 q14 0 14 -20q-290 -185 -518 -669l-382 -893q-250 -524 -572 -778q295 225 774 805q97 110 770 959q621 783 1050 785q136 -2 136 -108q0 -101 -115 -119q-101 0 -101 65q0 27 24.5 50.5t24.5 32.5q0 18 -45 18q-119 0 -342 -162q-290 -207 -585 -585l-761 -958 q-422 -502 -690 -718q-189 -153 -308 -218q-32 0 -34 11q0 5 9 13q303 212 571 750l430 949q263 531 572 734q-277 -93 -558 -360q-172 -162 -378 -461l-304 -460q-369 -548 -945 -882q-545 -312 -1051 -312q-304 0 -536 189q-202 166 -252 369q-364 211 -364 646zM369 738 q0 -142 23 -227q202 -133 566 -133q457 0 831 259q409 290 409 713q0 202 -164 338.5t-434 136.5q-502 0 -876 -351q-355 -331 -355 -736z" />
<glyph unicode="O" horiz-adv-x="2317" d="M0 1359q0 641 540 1019q472 336 1135 336h8q414 0 414 -111q-9 -9 -18 -9q-5 0 -34 9q-123 70 -373 70q-563 0 -1074 -369q-553 -405 -553 -950q0 -434 347 -677q18 410 409 875q360 435 872 736.5t899 301.5q110 0 166 -48q23 5 90 7q272 0 272 -343v-12 q-4 -295 -234 -704q-220 -392 -576 -761q-792 -821 -1455 -821q-221 0 -342 189q-106 171 -106 452v79q-387 211 -387 731zM524 295q0 -149 79 -239q88 -106 245 -108q549 0 1303 761q383 382 628 789q259 428 267 727v13q0 282 -222 282h-32q-22 -4 -31 -4q49 -50 49 -180 v-10q0 -474 -580 -1055q-290 -290 -621 -488q-347 -207 -610 -239q0 -114 52 -206q9 -28 9 -34q0 -9 -14 -18q-27 0 -42 31q-46 106 -46 223h-60q-45 -4 -63 -4q-162 0 -263 22q-46 -119 -48 -263zM585 594q83 -22 245 -22q92 0 124 4q14 612 718 1310q567 555 1024 648 q-57 26 -124 29q-475 0 -1182 -761q-650 -700 -805 -1208zM994 580q239 23 574.5 223.5t638.5 506.5q567 564 567 1016q0 138 -52 180q-479 -96 -1026 -650q-686 -690 -702 -1276z" />
<glyph unicode="P" horiz-adv-x="3638" d="M0 1125q0 434 325 747t818 313q419 0 617 -320q206 -45 344.5 -188t138.5 -345q0 -439 -432 -738q-391 -268 -853 -268q-350 0 -548 131q60 -189 249 -333q212 -164 479 -164h10q470 0 834 278q225 176 529 597q434 594 707 861q510 493 1118 682q-185 120 -457 120 q-277 0 -515 -75q22 -56 22 -119q0 -295 -286 -603q-272 -286 -470 -286q-202 0 -202 215v10q4 246 276 484q259 230 610 322q-65 119 -263 121q-299 0 -553 -245q-239 -225 -259 -470q0 -18 -18 -18q-23 0 -23 22q9 239 264 484q272 259 584 259q246 0 304 -142 q216 77 501 77h15q308 0 553 -129q88 23 157 36q46 9 120 25q18 0 22 -14q-4 -13 -17.5 -16.5t-36.5 -7.5q-70 -14 -198 -50q279 -183 279 -506v-11q-4 -338 -349 -590q-321 -238 -686 -238q-373 0 -407 331l-317 -462q-331 -448 -829.5 -716.5t-1004.5 -268.5 q-304 0 -540 193q-198 162 -248 365q-364 211 -364 650zM40 1100q0 -364 311 -569q-23 115 -25 187q0 443 320 785q360 383 940 383q74 0 110 -5q-188 229 -553 229q-461 0 -782 -299t-321 -711zM369 729q0 -142 23 -223q188 -137 566 -137q457 5 831 263q409 286 409 714 q0 162 -105.5 283t-294.5 169q45 -110 45 -236q-5 -226 -137 -414q-154 -208 -406 -273q-51 0 -56 14q0 27 22.5 30t69.5 13q208 65 337 243.5t134 390.5q0 124 -61 241q-70 13 -146 13q-502 0 -876 -351q-355 -337 -355 -740zM2470 1631q0 -180 156 -180q189 0 456.5 292.5 t267.5 546.5q0 84 -22 120q-338 -88 -590 -304q-268 -234 -268 -475zM3332 1406q27 -337 369 -337q299 0 576 263q291 279 295 626v10q0 231 -189 381q-337 -124 -623 -409q-176 -176 -428 -534z" />
<glyph unicode="Q" horiz-adv-x="2389" d="M0 263q0 75 90 125.5t227 50.5q245 0 554 -101q175 -57 400 -158q448 153 981 760q567 646 567 1096q0 439 -362 439q-45 0 -74 -5q92 -101 92 -308q0 -400 -281 -816q-250 -370 -620 -618.5t-656 -248.5q-302 0 -302 485v35q14 520 519 979t1178 520q-106 128 -452 128 q-484 0 -947 -437q-480 -452 -496 -981q0 -9 16 -108q0 -36 -24 -36q-23 0 -28 36q-4 23 -4 92q0 502 452 975q466 493 1017 493q342 0 513 -158q27 4 81 4q194 0 311 -128q128 -142 128 -400q0 -585 -572 -1164q-474 -474 -990 -656q342 -142 484 -144q300 0 727 566 l29 -22q-211 -272 -333 -382q-229 -212 -452 -212q-162 0 -358 58q-79 28 -245 79q-304 -110 -626 -110q-216 0 -380 81t-164 191zM32 259q0 -88 157 -164.5t360 -76.5q263 0 581 101l-430 167q-290 96 -480 96q-188 0 -188 -123zM691 778q0 -263 241 -263q373 0 934.5 619 t561.5 1028q0 203 -84 304q-501 -106 -1077 -708t-576 -980z" />
<glyph unicode="R" horiz-adv-x="3980" d="M0 1138q0 435 325 747.5t818 312.5q419 0 617 -317q206 -41 344.5 -185t138.5 -350q0 -435 -432 -734q-388 -270 -846 -270h-7q-350 0 -548 128q60 -189 249 -333q213 -164 483 -164h6q470 0 830 286q225 171 533 594q448 607 729 875q520 497 1166 686 q-180 124 -532 124q-193 0 -506 -76q18 -41 18 -122q0 -295 -286 -598q-267 -286 -465 -286q-203 0 -203 207q0 245 254.5 498t621.5 337q-66 132 -266 132q-295 0 -558 -256q-245 -239 -245 -466q0 -18 -18 -18t-18 18q0 238 254 488q272 268 581 268q245 0 312 -158 q239 75 520 75q396 0 605 -149q32 9 105 26t111 22q18 0 23 -14q-5 -14 -14 -15t-40 -5q-52 -9 -153 -36q162 -133 162 -351q0 -291 -329 -464q-254 -133 -515 -135q137 -83 137 -304q0 -157 -106 -294l-378 -466q-105 -142 -105 -238q0 -124 135 -126q193 0 607 548l27 -22 q-427 -558 -646 -558q-198 0 -198 308q0 198 180 421l291 349q97 124 97 222q0 106 -88 156q-36 -5 -128 -5q-158 0 -158 61q0 45 79 45q87 0 216 -63q207 0 465 198q286 225 286 484q0 124 -101 211q-365 -119 -677 -434q-194 -193 -419 -520l-355 -515 q-331 -443 -829.5 -713t-1004.5 -270q-304 0 -540 189q-198 166 -248 369q-364 211 -364 645zM40 1116q0 -364 311 -572q-23 115 -25 190q0 447 320 787q360 383 940 383q36 0 110 -10q-188 230 -553 230q-461 0 -782 -299t-321 -709zM369 747q0 -142 23 -227 q202 -133 566 -133q457 0 831 259q409 286 409 713q0 355 -400 452q45 -101 45 -236q-5 -225 -137 -409q-154 -208 -406 -277q-51 0 -56 18q0 18 92 38q208 65 337 244t134 391q0 123 -61 240q-70 14 -146 14q-502 0 -876 -351q-355 -338 -355 -736zM2470 1654 q0 -164 151 -164h5q198 0 461 286.5t263 549.5q0 88 -22 126q-326 -83 -592 -324.5t-266 -473.5z" />
<glyph unicode="S" horiz-adv-x="2695" d="M0 686q0 322 250 628q-88 137 -88 290q0 326 308 585q338 277 840 277q427 0 695 -194q238 -180 238 -434q0 -211 -141 -387q105 -148 105 -321q268 96 435 188q188 414 468 732q317 360 562 360q130 0 130 -120q0 -157 -355 -479q-295 -277 -484 -373 q-141 -637 -493 -981q-263 -259 -710 -421q-419 -151 -822 -151h-11q-383 0 -655 223t-272 578zM40 668q0 -294 241 -510q255 -234 646 -237q576 0 1046 410q414 364 635 927q-203 -102 -401 -171q-22 -295 -342 -543q-342 -263 -783 -263q-438 0 -648 225q-4 14 -6 48 q22 0 42 -10q225 -216 617 -218q457 0 778 272q273 230 302 475q-536 -171 -927 -171q-356 0 -628 117q-216 93 -308 212q-264 -245 -264 -563zM198 1600q0 -153 79 -259q119 128 303 229q342 190 748 190q524 0 746 -270q120 150 120 348q0 216 -236 374q-250 162 -648 162 q-502 0 -826 -264q-286 -224 -286 -510zM331 1258q272 -300 969 -300q388 0 871 158q0 176 -97 299q-224 -245 -540 -249h-56q-45 4 -45 31q5 18 32 20q4 0 36.5 -4.5t50.5 -4.5q291 14 498 243q-194 234 -612 237q-374 0 -709 -158q-259 -119 -398 -272zM2972 1490 q259 152 507.5 412t248.5 388q0 84 -88 84q-157 0 -346 -194q-259 -258 -322 -690z" />
<glyph unicode="T" horiz-adv-x="2832" d="M0 1170q0 400 392 716q409 330 985 330q268 0 488 -65q291 221 637 268q-36 97 -124 175q-124 106 -294 106q-185 0 -338 -128q-133 -115 -189 -268q-5 -18 -27 -18q-18 0 -18 32q56 148 184 263q170 151 382 151h6q193 0 326 -120q96 -83 132 -189q115 23 293 23 q189 0 624.5 -110.5t633.5 -110.5q400 0 695 212q36 0 36 -14q0 -4 -9 -13q-401 -268 -977 -268q-299 0 -654.5 107t-519.5 107h-101q18 -92 18 -176q0 -202 -65 -387q128 -128 198 -259q0 -40 -18 -40q-23 0 -28 18q-60 133 -166 234q-70 -189 -194 -335q75 -124 75 -263 q0 -318 -369 -581q-383 -277 -894 -277q-272 0 -535 115q-203 92 -308 198q9 -259 202 -455q234 -245 641 -245q748 0 1452 1042q286 419 700 761q382 317 668 396q18 -18 18 -14q0 -4 -9 -14q-342 -141 -558 -382q-142 -162 -291 -452q-166 -338 -234 -434 q-294 -424 -800 -687q-483 -256 -936 -256h-10q-447 0 -692 279q-194 220 -194 499q-119 153 -128 169q-106 166 -106 360zM36 1161q0 -286 202 -466q0 392 338 720q367 358 878 358h6q66 0 92 -5q79 185 268 347q-216 52 -423 52q-524 0 -942.5 -305t-418.5 -701zM277 659 q74 -92 267 -184q273 -133 572 -133q524 0 893 274q327 246 327 522q0 120 -59 230q-207 -230 -448 -230q-137 0 -231.5 92.5t-99.5 247.5v23q0 104 32 209q-502 0 -862 -277q-391 -299 -391 -774zM1539 1478q5 -137 86 -222.5t204 -85.5q216 2 423 232q-202 281 -682 304 q-31 -102 -31 -228zM1595 1768q493 -36 691 -321q115 135 184 333q-234 229 -605 322q-184 -138 -270 -334zM1917 2138q331 -97 567 -318q58 189 58 360q0 106 -22 176q-308 -9 -603 -218z" />
<glyph unicode="U" horiz-adv-x="2538" d="M0 1420q0 448 331 857q360 443 843 450h17q222 0 339 -128q83 18 180 18q502 0 502 -489v-8q-5 -338 -387 -743l-471 -502q-422 -439 -427 -659v-12q0 -168 142 -168q189 0 461 286q331 346 770 870l1050 1296q27 -22 120 -22q96 0 152 22q-879 -1010 -1451 -1750 q-259 -338 -263 -518v-9q0 -175 151 -175q198 0 614 544l27 -22q-428 -558 -646 -558q-234 0 -234 304q0 162 88 324q32 65 180 261q-299 -356 -508 -567q-318 -322 -511 -322q-212 0 -212 314v12q5 428 374 835l461 506q238 259 295 333q128 167 128 286q0 304 -401 304 q-60 -5 -162 -18q97 -115 97 -282q0 -479 -400 -926q-369 -410 -669 -410q-276 0 -281 369v9q0 392 358 768q362 380 833 490q-107 106 -302 106h-14q-447 -14 -790.5 -422.5t-343.5 -853.5q0 -153 57 -272q9 -18 9 -28q0 -13 -14 -24q-92 0 -92 324zM351 1276 q5 -286 234 -286q290 0 650 425q378 448 378 875q0 176 -97 273q-364 -70 -767 -512q-398 -437 -398 -767v-8z" />
<glyph unicode="V" horiz-adv-x="2007" d="M0 1328q0 447 331 857q360 443 843 450h14q224 0 342 -129q83 18 180 18q502 0 502 -489v-8q-5 -337 -387 -742l-461 -479q-424 -444 -428 -658v-9q0 -171 146 -171q167 0 452 309q414 443 1562 1777q194 225 338 351q281 250 483 255h5q162 0 162 -122q0 -124 -135 -142 q-93 0 -101 79q0 41 37 71t37 35q0 18 -61 18q-263 -45 -751 -612q-982 -1139 -1530 -1719q-318 -338 -502 -338q-212 0 -212 317v12q5 434 374 832l452 484q238 259 295 333q128 166 128 286q0 304 -401 304q-78 0 -162 -18q97 -115 97 -282q0 -479 -400 -927 q-369 -409 -669 -409q-276 0 -281 369v9q0 391 358 767q362 380 833 491q-106 105 -298 105h-18q-447 -13 -796 -427q-338 -396 -338 -844q0 -158 57 -277q9 -18 9 -27q0 -13 -14 -24q-92 0 -92 324zM351 1184q5 -286 234 -286q290 0 650 425q378 448 378 875q0 176 -97 272 q-364 -70 -767 -512q-398 -437 -398 -766v-8z" />
<glyph unicode="W" horiz-adv-x="2832" d="M0 1267q0 439 362 844t808 405q176 0 308 -75q97 36 223 39q254 0 396 -146q134 -137 133 -377v-31q-18 -475 -686 -1134q-304 -304 -1013 -853q700 387 1355 1015l740 765q558 563 866 761q36 0 38 -14q0 -4 -9 -20q-249 -171 -517 -617q-153 -259 -475 -911 q-281 -576 -805 -970q404 167 940 707q225 225 765 853q365 422 709 708q448 374 708 374q131 0 131 -102q0 -114 -115 -119h-11q-85 0 -85 59q0 27 22 50.5t22 32.5q0 23 -40 23q-176 0 -558 -318q-360 -299 -729 -722q-589 -682 -875 -963q-590 -563 -977 -641 q-13 0 -27 9q0 4 9 13q268 171 507 531q148 221 386 695q331 660 743 1110q-239 -194 -682 -648l-655 -678q-220 -216 -627 -526q-511 -387 -837 -529q-14 5 -34 18q4 14 19 20.5t55 38.5q444 360 941 1014q580 774 589 1193v9q0 290 -312 292q-70 0 -198 -33 q159 -122 159 -369v-9q0 -401 -361 -834t-690 -433q-294 0 -294 439q0 427 416 805q331 304 700 414q-124 56 -264 56q-414 0 -771.5 -384.5t-357.5 -827.5q0 -70 3.5 -97t21.5 -88q0 -31 -14 -31q-27 0 -34 31q-22 61 -22 176zM382 1116q0 -299 239 -302q322 0 668 444 q338 427 338 783q0 259 -153 369q-322 -88 -691 -488q-401 -439 -401 -806z" />
<glyph unicode="X" horiz-adv-x="2985" d="M-9 673q0 61 9 137q40 351 299 646q234 268 540 373q171 360 533 617q388 272 799 276h20q267 0 426 -128q13 0 56 5h49q180 0 306 -101q151 -122 151 -361v-9q0 -312 -207 -625q290 331 902 727q718 466 1121 466q167 0 167 -115q-14 -124 -172 -124q-87 0 -87 77 q4 36 50.5 66t46.5 35q0 18 -32 20h-22q-14 -5 -30 -5q-418 -40 -1122 -535q-673 -466 -936 -844l-329 -470q-216 -322 -216 -576q0 -193 180 -193q211 0 625 548l30 -22q-428 -558 -668 -558q-327 0 -329 396q0 225 108 461q-931 -913 -1555 -913q-326 0 -519.5 201 t-193.5 528zM56 659q0 -299 172 -488t481 -189q391 0 997 466q342 268 638 585l388 553q245 376 285 621q0 365 -299 365h-45q-27 -5 -38 -5q101 -101 103 -263v-10q0 -439 -452 -917q-423 -452 -853 -547q-175 -238 -429 -387q-66 -45 -142 -74q-56 0 -61 9q0 32 43 40 q65 14 101 34q254 138 432 369q-65 -9 -88 -11q-303 0 -303 434q26 282 245 572q-83 9 -124 9q-115 -5 -241 -41q-60 -142 -74 -268q0 -128 9 -184q0 -36 -27 -38q-22 0 -27 26t-5 188q14 128 68 256q-322 -137 -538 -448.5t-216 -656.5zM889 1838q97 27 227 27 q52 0 142 -18q229 299 587 505t727 233q-144 111 -384 111h-17q-364 -5 -737.5 -256t-544.5 -602zM1064 1055q5 -211 236 -211q52 0 106 13q174 261 174 511q0 272 -212 396q-304 -405 -304 -701v-8zM1390 1798q230 -133 232 -430q0 -250 -162 -493q378 125 809 625 q427 496 427 794v6q0 162 -102 263q-672 -79 -1204 -765z" />
<glyph unicode="Y" horiz-adv-x="2423" d="M0 1433q0 443 342 815q356 391 824 398h13q215 0 347 -130q83 18 184 18q497 0 497 -481v-17q-9 -346 -351 -731l-634 -614q-342 -331 -347 -533v-9q0 -167 149 -167q225 0 533 299q520 507 918 986q133 234 326.5 481.5t312.5 330.5q27 18 83 18q18 -13 21 -31 q0 -18 -30 -75q-148 -234 -672 -742q-300 -410 -617 -1197q401 198 655 528l27 -18q-273 -378 -700 -558q-203 -488 -513 -825q-245 -268 -520.5 -426.5t-491.5 -158.5q-180 0 -180 175q0 225 242 457q304 290 1283 747q439 783 695 1157q-351 -419 -796 -858 q-338 -326 -581 -328q-213 0 -213 304v20q8 322 346 731q4 9 621 659q337 356 342 545v12q0 144 -119 222q-110 69 -286 69q-61 -4 -162 -18q97 -96 97 -281q0 -465 -396 -918q-374 -418 -673 -418q-281 0 -281 369q0 400 360 776t835 490q-119 106 -307 106h-17 q-444 -13 -785 -374.5t-341 -804.5q0 -175 52 -259q0 -22 -4 -49q-27 0 -48 31q-40 120 -40 277zM216 -1231q0 -137 130 -137q338 0 770 484q340 373 556 801q-599 -313 -846 -475q-608 -396 -610 -673zM346 1192q0 -285 239 -285q277 0 637 425q387 448 387 875 q0 171 -93 273q-368 -70 -771 -508q-399 -434 -399 -773v-7z" />
<glyph unicode="Z" horiz-adv-x="2225" d="M-1037 -1604v6q0 439 706 810q374 194 1161 442q18 83 18 148q0 234 -148 351q-61 -23 -243 -25q-221 0 -223 102q0 74 166 74q180 0 318 -110q535 105 1051.5 685.5t516.5 1082.5q0 405 -396 407q-22 0 -70 -9q106 -106 124 -290q9 -88 9 -117q0 -515 -437.5 -1029 t-820.5 -514q-344 0 -344 477v6q0 489 455 954q443 448 949 536q-133 119 -392 119h-17q-439 -9 -826 -422t-387 -896q0 -75 4.5 -108.5t24.5 -99.5q0 -36 -14 -36q-22 0 -34.5 37.5t-16.5 86.5q-9 74 -9 115q0 470 373 900q392 448 885 455h15q275 0 437 -147q45 9 96 9 q586 0 586 -607q0 -669 -669 -1152q-470 -338 -1055 -475q137 -115 137 -360q0 -56 -9 -128q308 88 637 243q549 259 839 663l27 -22q-290 -405 -853 -682q-326 -162 -659 -250q-31 -530 -483 -980q-493 -498 -1157 -498q-115 0 -193.5 69t-78.5 179zM-976 -1600 q0 -202 202 -202q338 0 853 405q583 461 735 1001q-1793 -603 -1790 -1204zM448 682q31 -239 252 -239q342 0 773 594t431 1029q-23 202 -120 290q-443 -124 -889.5 -692t-446.5 -982z" />
<glyph unicode="[" horiz-adv-x="1073" d="M-691 -479q1143 1433 2318 3183h483l-51 -62h-270l-2212 -3060h387l-52 -61h-603z" />
<glyph unicode="\" horiz-adv-x="1597" d="M-92 2635h83q319 -723 1309 -2635q-13 14 -38 14q-22 0 -45 -14l-623 1222q-382 751 -686 1413z" />
<glyph unicode="]" horiz-adv-x="1953" d="M-230 -479l54 61h342l2217 3064h-324l47 58h540q-1087 -1372 -2320 -3183h-556z" />
<glyph unicode="^" horiz-adv-x="2763" d="M972 788l848 1631h66l846 -1631h-133l-747 1437l-740 -1437h-140z" />
<glyph unicode="_" horiz-adv-x="2911" d="M0 -162h2912v-45h-2912v45z" />
<glyph unicode="`" horiz-adv-x="1548" d="M691 1483q4 31 47 33q32 -8 57.5 -47.5t176.5 -158.5q119 -93 119 -180q-4 -10 -13 -10q-115 79 -349 282q-36 36 -38 81z" />
<glyph unicode="a" horiz-adv-x="1118" d="M0 180v8q0 313 317 590q291 259 554 259q115 0 115 -135l87 117q36 -13 88 -15q56 0 101 15q-180 -211 -612 -799q-45 -60 -47 -123q0 -65 70 -65q189 0 585 548l27 -22q-414 -558 -621 -558q-120 0 -120 142q0 92 36 175l-175 -175q-162 -142 -263 -142q-142 0 -142 180 zM70 110q4 -74 78 -74q149 0 419 328q221 268 313 392q74 101 74 171q0 77 -75 77h-4q-162 0 -483.5 -348t-321.5 -546z" />
<glyph unicode="b" horiz-adv-x="1026" d="M4 171q0 180 154 387l-25 22l1080 1416q155 0 216 36l-1170 -1557q-189 -259 -189 -360q0 -83 63 -83q110 0 306 198q101 105 225 249q27 230 198 428q110 128 193 130q45 0 45 -43q0 -56 -45 -128q-123 -198 -346 -432q31 -96 126 -96q133 0 331 242l26 -22 q-220 -259 -357 -259q-115 0 -158 101q-79 -92 -207 -211q-207 -189 -342 -189q-124 0 -124 171z" />
<glyph unicode="c" horiz-adv-x="783" d="M45 272q0 286 297 538q268 225 488 227q110 0 110 -105q0 -88 -59.5 -162.5t-124.5 -74.5q-79 0 -79 75q0 69 101.5 124.5t101.5 77.5q0 32 -50 32q-157 0 -412.5 -299.5t-255.5 -506.5q0 -166 137 -166q198 0 619 548l27 -22q-427 -558 -655 -558q-245 0 -245 272z" />
<glyph unicode="d" horiz-adv-x="1131" d="M9 180v10q0 320 308 593q286 254 549 254q120 0 120 -144l839 1103q155 0 216 36q-761 -950 -1386 -1820q-41 -61 -43 -115q0 -65 74 -65q194 0 585 548l29 -22q-422 -558 -623 -558q-128 0 -128 148q0 61 36 169q-281 -317 -427 -317q-70 0 -109.5 57.5t-39.5 122.5z M83 119q0 -83 75 -83q148 0 414 328l308 392q74 97 74 176q0 78 -83 78q-162 0 -475 -342t-313 -549z" />
<glyph unicode="e" horiz-adv-x="735" d="M9 230q0 285 313 558q286 249 492 249q93 0 93 -83q0 -171 -639 -448q-167 -225 -167 -335q0 -137 133 -139q216 0 637 548l27 -22q-428 -558 -664 -558q-225 0 -225 230zM299 554q563 272 563 409q0 45 -52 47q-83 0 -261 -171q-153 -148 -250 -285z" />
<glyph unicode="f" horiz-adv-x="603" d="M-1004 -1082l1065 1510q-45 56 -47 139q0 101 78 101q61 0 61 -96l700 940q544 695 709 695q74 0 74 -79q-5 -166 -259 -474q-355 -428 -810 -704l-396 -586q52 -36 142 -38q220 0 425 254l22 -22q-198 -263 -452 -263q-106 0 -155 43l-927 -1389q-14 9 -74 9 q-97 0 -156 -40zM608 1024q382 234 742 659q241 279 245 450q0 41 -43 43q-96 0 -474 -518z" />
<glyph unicode="g" horiz-adv-x="1161" d="M-621 -990q0 180 271 444.5t676 444.5l264 418q-318 -317 -448 -317q-133 0 -133 176v10q0 320 313 597q294 254 562 254q110 0 110 -135l75 108h4l5 9q36 -13 92 -15q70 0 97 15l-756 -1059q225 83 391 211q212 167 398 409l23 -22q-171 -234 -396 -416 q-198 -158 -452 -239l-263 -400q-185 -281 -383 -450t-326 -169q-124 0 -124 126zM-572 -999q0 -74 75 -74q87 0 220 119q162 146 572 796q-360 -166 -613.5 -423.5t-253.5 -417.5zM79 101q9 -65 79 -65q69 0 208.5 118t254.5 264q157 203 249.5 332.5t92.5 185.5 q0 74 -88 74q-162 0 -479 -362t-317 -547z" />
<glyph unicode="h" horiz-adv-x="999" d="M-234 18q216 259 396 540l-29 22l1080 1416q18 -9 58 -9q106 9 158 45l-1065 -1350q295 355 502 355q138 0 138 -144q0 -153 -147 -313q-61 -69 -281 -294q-110 -115 -110 -189q0 -65 65 -65q193 0 607 548l28 -22q-444 -558 -642 -558q-114 0 -114 142q0 184 139 342 l265 290q102 106 104 171q0 54 -52 54h-4q-102 0 -264 -133q-141 -119 -247 -268l-412 -580q-22 14 -76 14q-52 0 -97 -14z" />
<glyph unicode="i" horiz-adv-x="528" d="M-61 133q0 207 180 429l369 457q27 -13 92 -15q70 0 102 15q-322 -369 -599 -738q-92 -123 -92 -184q0 -65 65 -65q180 0 608 548l27 -22q-453 -558 -646 -558q-106 0 -106 133zM835 1433q0 57 50.5 105t113.5 48q70 0 70 -70v-8q0 -52 -50.5 -103t-120.5 -51 q-64 0 -64 65q0 7 1 14z" />
<glyph unicode="j" horiz-adv-x="506" d="M-1328 -990q0 194 347 484q317 276 625 391q106 167 392 563q313 434 434 571q36 -13 97 -15q61 2 106 15q-167 -171 -831 -1059q212 74 392 211q230 175 407 409l27 -22q-202 -259 -415 -419.5t-447 -235.5q-198 -277 -276 -400q-189 -273 -414 -453 q-207 -166 -329 -166q-115 0 -115 126zM-1276 -1015q0 -58 57 -58h6q93 0 232 119q160 142 599 783q-295 -124 -586 -383q-308 -276 -308 -461zM814 1447q0 56 52 106.5t110 50.5q70 0 70 -78q0 -57 -48 -107.5t-118 -50.5q-66 0 -66 79z" />
<glyph unicode="k" horiz-adv-x="985" d="M-234 18q202 238 396 540l-29 22l1080 1416q27 -14 63 -14h6q75 0 147 50l-1073 -1368q350 373 566 373q149 0 147 -135q0 -148 -207 -265q-133 -79 -254 -106q51 -36 51 -113q0 -56 -51 -114q-75 -66 -124.5 -121t-49.5 -95q0 -56 72 -56q198 0 619 548l23 -22 q-428 -558 -646 -558q-158 0 -156 153q0 88 69 161t113 112.5t44 70.5q0 14 -10 23q-74 -27 -148 -27q-70 0 -68 38q0 41 115 41q52 0 119 -23q106 41 212 133q142 124 144 245q0 63 -61 63h-4q-83 0 -246.5 -119t-255.5 -243q-106 -142 -430 -610q-22 14 -81 14 q-45 0 -92 -14z" />
<glyph unicode="l" horiz-adv-x="661" d="M9 189q0 162 153 369l-25 22l1080 1416q23 -14 63 -14h6q76 0 147 50l-1170 -1557q-180 -250 -180 -327q0 -110 111 -112q184 0 607 544l29 -22q-443 -558 -646 -558q-175 0 -175 189z" />
<glyph unicode="m" horiz-adv-x="1860" d="M0 18l439 544q238 300 238 383q0 59 -57 59h-4q-101 0 -454 -446l-29 22l249 304q149 153 239 153q115 0 117 -148q0 -106 -56 -207q330 355 488 355q119 0 119 -148q0 -97 -58 -207q308 355 488 355q137 0 137 -139q0 -149 -142 -318q-22 -26 -281 -294 q-110 -115 -110 -189q0 -65 63 -65q194 0 610 548l27 -22q-428 -558 -641 -558q-120 0 -120 142q0 180 144 342l266 290q106 110 108 171q0 54 -57 54h-4q-180 0 -484 -371q-153 -185 -475 -610q-26 14 -83 14q-69 0 -119 -14l418 536q255 321 255 386q0 64 -57 64h-4 q-171 0 -479 -376l-493 -610q-27 14 -74 14q-70 0 -124 -14z" />
<glyph unicode="n" horiz-adv-x="1311" d="M0 18l439 544q238 300 238 383q0 59 -57 59h-4q-101 0 -454 -446l-29 22l249 304q149 153 239 153q115 0 117 -148q0 -106 -56 -207q330 355 492 355q138 0 140 -144q0 -157 -145 -311l-285 -296q-110 -115 -110 -189q0 -65 70 -65q189 0 603 548l27 -22 q-428 -558 -639 -558q-115 0 -117 142q0 175 144 342q132 153 263 290q106 110 106 171q0 54 -57 54h-4q-176 0 -479 -371l-493 -610q-27 14 -74 14q-70 0 -124 -14z" />
<glyph unicode="o" horiz-adv-x="920" d="M-4 189q0 295 299 581q281 272 531 272q114 0 114 -128q0 -185 -240 -514q13 -13 60 -13q138 0 295 193l27 -22q-162 -207 -330 -207q-23 0 -79 18q-299 -369 -531 -369q-146 0 -146 182v7zM61 119q0 -87 87 -87q194 0 480 364q-32 32 -34 79q0 133 110 133q27 0 52 -23 q142 223 142 333q0 86 -74 86h-3q-153 0 -454.5 -363.5t-305.5 -521.5z" />
<glyph unicode="p" horiz-adv-x="1100" d="M-945 -950q211 264 1107 1508l-29 22l483 608q97 0 176 61q-207 -245 -484 -617q419 405 614 405q133 0 133 -180q0 -249 -272 -526q-250 -255 -432 -291q221 10 465 156t419 384l27 -22q-427 -558 -1042 -558q-168 0 -168 134q0 55 18 86q-158 -211 -822 -1170 q-22 14 -78 14q-70 0 -115 -14zM198 36q166 0 477 351t311 545q0 67 -68 67h-4q-162 0 -486 -322q-336 -329 -336 -541q0 -100 106 -100z" />
<glyph unicode="q" horiz-adv-x="1104" d="M-351 -1100q0 263 412 787l475 599l-176 -162q-148 -124 -241 -124q-128 0 -128 180q0 317 335 598q304 259 572 259q110 0 112 -119q52 65 81 106q27 -14 106 -14q67 0 108 14l-882 -1064q216 60 416 211q234 180 405 414l27 -23q-202 -263 -409 -420 q-185 -138 -434 -221q0 -290 -142 -580q-115 -230 -279.5 -387.5t-265.5 -157.5q-92 0 -92 104zM-313 -1096q0 -74 54 -74q198 0 475 529q176 337 176 562l-374 -436q-331 -419 -331 -581zM61 110q0 -74 72 -74q153 0 443 346l308 374q88 115 88 180q0 74 -83 74 q-167 0 -497.5 -360t-330.5 -540z" />
<glyph unicode="r" horiz-adv-x="985" d="M0 18l439 544q238 309 238 383q0 59 -57 59h-4q-101 0 -454 -446l-29 22l249 304q149 153 239 153q115 0 117 -148q0 -115 -110 -313q74 56 198 166q18 97 98 196t154 99q40 0 42 -43q0 -114 -263 -281q-31 -45 -31 -128q0 -137 110 -137q74 0 184 132l28 -22 q-115 -142 -212 -144q-148 0 -148 176q0 18 13 87q-74 -56 -243 -216q-158 -175 -360 -443q-18 14 -92 14q-66 0 -106 -14z" />
<glyph unicode="s" horiz-adv-x="648" d="M-216 171q0 142 124 142q78 0 78 -68q0 -61 -57 -84.5t-57 -63.5q0 -65 101 -65q153 0 272 152q101 129 137 318q18 180 88 466l-308 -410l-29 22q128 180 355 453q36 101 115 178.5t135 77.5q27 0 27 -22q-5 -106 -216 -234q-45 -65 -47 -149q0 -52 26 -178t26 -204 q0 -230 -216 -378q-180 -124 -370 -124q-184 0 -184 171z" />
<glyph unicode="t" horiz-adv-x="625" d="M-52 180q0 166 205 418q31 36 308 388h-223l30 33h220l356 446q22 -14 70 -14q80 0 164 70q-41 -45 -410 -502h225l-22 -33h-230l-488 -617q-119 -153 -121 -241q0 -96 92 -96q207 0 636 548l28 -22q-439 -558 -673 -558q-167 0 -167 180z" />
<glyph unicode="u" horiz-adv-x="1289" d="M133 580q351 457 488 457q142 0 144 -144q0 -157 -145 -311l-282 -296q-111 -115 -113 -189q0 -65 70 -65q166 0 558 488l400 499q27 -13 88 -15q70 0 101 15l-594 -738q-92 -119 -92 -184t65 -65q189 0 603 548l27 -22q-427 -558 -645 -558q-102 0 -102 133 q0 105 43 205q-290 -338 -461 -338q-115 0 -115 142q0 184 142 342l263 290q106 115 106 176q0 54 -57 54h-4q-119 0 -459 -446z" />
<glyph unicode="v" horiz-adv-x="1174" d="M137 580q351 457 491 457q128 0 128 -144q0 -171 -124 -317l-268 -295q-101 -115 -101 -184q0 -65 68 -65q119 0 319 202q128 128 282 320v18q-5 13 -5 18q0 114 126 274t205 160q31 0 31 -38q0 -124 -308 -462q35 -72 115 -72h4q106 0 210 128l26 -22 q-110 -137 -240 -140q-102 0 -142 79q-198 -225 -299 -317q-198 -180 -329 -180q-124 0 -124 153q0 171 120 322q92 115 272 295q88 105 88 175q0 59 -57 59h-4q-115 0 -455 -446z" />
<glyph unicode="w" horiz-adv-x="1741" d="M133 580q351 457 488 457t139 -148q0 -162 -139 -313l-261 -295q-101 -115 -101 -180q0 -69 79 -69q141 0 497 438l445 549q27 -13 92 -15q61 0 118 15l-597 -715q-92 -106 -92 -185q0 -87 97 -87q119 0 319 202q101 101 281 315q-4 9 -4 41q0 114 126 274t205 160 q31 0 31 -38q0 -124 -308 -462q21 -72 114 -72h5q106 0 209 128l28 -22q-115 -137 -241 -140q-101 0 -142 79q-185 -207 -304 -317q-198 -180 -324 -180q-180 0 -180 171q0 79 29 133q-276 -304 -404 -304q-142 0 -144 158q0 175 128 326q31 36 276 290q88 92 88 176 q0 54 -65 54h-5q-114 0 -454 -446z" />
<glyph unicode="x" horiz-adv-x="1127" d="M-27 88q0 70 48.5 125t102.5 55q74 0 74 -74q0 -79 -56 -124q101 31 351 382q69 97 101 146q119 185 119 286q0 120 -85 120q-120 0 -466 -446l-29 22q342 457 495 457q155 0 155 -225v-6q0 -115 -49 -216q330 452 528 452q84 0 84 -84q0 -60 -51 -106t-107 -46 q-70 0 -68 65q0 45 41 87q-171 -56 -423 -434l-135 -211q-59 -90 -59 -171v-5q0 -105 106 -105q185 0 612 548l23 -22q-428 -558 -639 -558q-189 0 -189 216q0 92 63 223q-171 -255 -300 -369q-83 -74 -164 -74q-83 0 -83 92z" />
<glyph unicode="y" horiz-adv-x="1325" d="M-536 -990q0 189 347 484q326 276 637 391q128 207 299 453q-304 -338 -461 -338q-115 0 -115 142q0 184 134 337l271 295q101 106 101 176q0 54 -57 54h-4q-123 0 -454 -446l-29 22q351 457 488 457q142 0 144 -144q0 -148 -149 -313l-278 -294q-111 -115 -113 -185 q0 -69 70 -69q97 0 285 180q162 152 273 308q245 351 364 499h194q-221 -263 -774 -1064q216 61 418 216q230 175 405 409l30 -22q-203 -259 -413.5 -415.5t-468.5 -239.5l-300 -400q-202 -273 -407 -446t-319 -173q-115 0 -118 126zM-484 -1010q0 -63 60 -63h6 q92 0 229 119q221 194 607 783q-294 -124 -589 -383q-313 -276 -313 -456z" />
<glyph unicode="z" horiz-adv-x="870" d="M-796 -972q4 180 238 414q259 259 706 470q-4 106 -78 162q-74 -36 -153 -38q-83 0 -83 43q0 63 107 63h7q61 0 126 -32q138 36 336 241q238 245 272 502q0 146 -72 146h-2q-93 0 -234 -160q-46 -56 -212 -281l-29 22q193 259 231 300q142 162 244 162q220 0 222 -246 q-22 -254 -324 -479q-202 -153 -409 -229q74 -45 83 -158q119 52 418 236q216 167 406 414l29 -22q-207 -263 -412 -416q-175 -133 -437 -248q0 -423 -303 -756q-273 -294 -531 -294q-146 0 -146 168v16zM-752 -972v-11q0 -137 102 -137q166 0 434 285q364 394 364 716 q-308 -158 -544 -351q-351 -277 -356 -502z" />
<glyph unicode="{" horiz-adv-x="1206" d="M-230 -268q0 167 138 365l378 540q137 198 137 326t-137 157q355 32 664 480l368 533q406 589 925 589q27 0 29 -18q-2 -18 -29 -18q-216 0 -409 -170q-115 -102 -295 -360l-347 -493q-308 -443 -787 -551q137 -66 139 -259q0 -129 -92 -263l-407 -586 q-153 -220 -151 -346q0 -124 142 -124q22 0 25 -18q-5 -13 -29 -13q-264 0 -262 229z" />
<glyph unicode="|" horiz-adv-x="1689" d="M918 -9q14 923 14 1411q0 427 -14 1174q14 -13 40 -13q28 0 41 13l-18 -1276q0 -175 18 -1309h-81z" />
<glyph unicode="}" horiz-adv-x="1689" d="M-74 -484q0 18 29 18q211 5 396 185q106 101 290 369l331 488q290 428 747 544q-142 66 -144 266q0 124 79 254l351 581q137 229 137 351q0 124 -146 124q-23 8 -23 13q5 13 23 13q268 0 268 -229q-3 -157 -122 -355l-322 -538q-119 -198 -119 -324q0 -133 137 -156 q-337 -40 -625 -474l-356 -527q-409 -607 -897 -625q-32 0 -34 22z" />
<glyph unicode="~" horiz-adv-x="1980" d="M220 659q0 5 10 14q202 141 465 141q167 0 441.5 -79.5t420.5 -79.5q225 0 409 175q16 -2 16 -20q-70 -79 -202 -151q-185 -97 -383 -97q-115 0 -391.5 90t-429.5 90q-189 0 -331 -92q-22 0 -25 9z" />
<glyph unicode="&#xa1;" horiz-adv-x="1764" d="M0 101q0 14 9 52q41 153 425 538q549 558 815 895q74 88 254 331q5 9 23 9q26 0 26 -18q0 -4 -8 -22l-190 -232q-355 -439 -756 -1100q-170 -282 -193 -316q-167 -234 -281 -247q-124 0 -124 110zM1692 2259q0 36 9 54q52 149 193 149q102 0 102 -97q0 -39 -9 -57 q-57 -148 -198 -146q-97 0 -97 97z" />
<glyph unicode="&#xa2;" horiz-adv-x="1233" d="M0 400l313 453q-207 56 -207 326q0 342 364 664q338 295 608 295q60 0 106 -36l222 317h59l-257 -353q14 -28 14 -57q0 -110 -76.5 -204.5t-159.5 -94.5q-5 0 -10 4h-13l-576 -830q9 -4 31 -4q250 0 774 682l34 -23q-544 -695 -816 -695h-46l-303 -444h-61zM245 1087 q0 -149 97 -189l585 839q-31 23 -34 65q0 74 93 133l139 83l23 32v9q0 51 -66 51q-202 0 -515 -364q-322 -378 -322 -659z" />
<glyph unicode="&#xa3;" horiz-adv-x="2502" d="M-646 250q0 132 175.5 238t382.5 106q347 0 709 -198q254 184 535 562h-695l36 46h691q83 110 176 267q-230 -92 -466 -92q-212 0 -354 110q-157 115 -157 311q0 207 200.5 367.5t458.5 188.5q45 0 50 -18q0 -28 -45 -28q-234 -8 -414 -158t-180 -357q0 -180 151 -285 q123 -88 285 -88q255 0 509 110q272 414 576 700q360 337 616 337q189 0 185 -162q-5 -193 -396 -461q-273 -184 -628 -344q-106 -212 -277 -398h660l-32 -46h-668q-304 -321 -770 -584q401 -208 626 -208q263 0 474 268q5 9 21 9q13 -4 13 -25q-337 -422 -682 -422 q-303 0 -686 238q-360 -234 -684 -234q-166 0 -281 66.5t-115 183.5zM-598 254q-5 -216 373 -218q283 2 621 227q-374 234 -594 234q-171 0 -285.5 -77.5t-114.5 -165.5zM1780 1451q268 111 560 322q364 268 374 439q4 124 -111 124q-245 0 -475 -300q-119 -157 -348 -585z " />
<glyph unicode="&#xa5;" horiz-adv-x="2587" d="M0 1433q0 443 342 815q356 391 824 398q224 4 360 -130q83 18 184 18q245 0 415 -181.5t175 -448.5q4 -484 -255 -918q263 391 392 566q580 797 1055 797q135 0 135 -101q0 -115 -115 -120q-101 -4 -101 66q0 27 24.5 50.5t24.5 32.5q0 18 -44 18q-129 0 -347 -157 q-295 -212 -581 -612q-272 -383 -360 -532h642l-32 -44h-632l-171 -282h664l-27 -47h-664q-230 -401 -558 -666q-374 -295 -729 -297q-180 0 -312.5 72t-166.5 196q0 128 70 144q78 0 78 -79q5 -290 351 -290q567 0 1042 920h-641l31 47h633q92 153 146 282h-648l31 44h641 q149 313 174 396q106 291 106 558q0 277 -129 426q-119 132 -317 132q-79 0 -162 -18q97 -96 97 -281q0 -465 -396 -918q-374 -418 -673 -418q-281 0 -281 369q0 400 360 776t835 490q-124 111 -324 106q-444 -13 -785 -374.5t-341 -804.5q0 -175 52 -259q0 -13 -4 -49 q-27 0 -48 31q-40 120 -40 277zM346 1192q0 -285 239 -285q277 0 637 425q387 448 387 875q0 171 -93 273q-368 -70 -771 -508t-399 -780z" />
<glyph unicode="&#xa7;" horiz-adv-x="1482" d="M-230 -331q0 180 128.5 301.5t299.5 130.5q18 0 22 -13q-4 -14 -18 -14q-170 -22 -280.5 -149t-110.5 -263q0 -137 87.5 -224.5t249.5 -87.5q176 0 311 120t135 314q0 128 -73 319.5t-73 348.5q0 194 172 343.5t379 149.5q74 0 126 -18q-70 167 -70 331 q0 189 173.5 340.5t380.5 151.5q141 0 238 -81t97 -213q0 -153 -85.5 -272.5t-170.5 -132.5q-97 0 -97 74q0 79 156.5 119.5t151.5 229.5q0 96 -83.5 168t-202.5 72q-162 0 -281 -105.5t-119 -244.5q0 -154 70.5 -346t70.5 -327q0 -263 -216 -432q-184 -142 -386 -144 q-23 0 -39 4q36 -137 39 -234q0 -234 -176 -402.5t-428 -168.5q-166 0 -272 99t-106 256zM608 549q0 -133 33 -232q27 -79 59 -159q18 -5 56 -5q176 0 308.5 121.5t132.5 315.5q0 132 -54 290q-61 27 -133 27q-166 0 -284 -108t-118 -250z" />
<glyph unicode="&#xa8;" horiz-adv-x="906" d="M148 1197q0 56 51 104.5t114 48.5q74 0 69 -79q0 -56 -50.5 -105.5t-119.5 -49.5q-70 0 -64 81zM531 1197q0 56 50.5 104.5t113.5 48.5q70 0 70 -79q0 -56 -50.5 -105.5t-116.5 -49.5q-74 0 -67 81z" />
<glyph unicode="&#xa9;" horiz-adv-x="3251" d="M691 1192q0 480 340.5 822t824.5 342q480 0 823 -342t343 -822q0 -483 -343 -824t-823 -341q-484 0 -824.5 341t-340.5 824zM774 1192q0 -447 318.5 -764.5t763.5 -317.5q448 0 764 317.5t316 764.5q0 448 -316 764t-764 316t-765 -316t-317 -764zM1222 1179 q0 326 229 540q212 193 479 193q255 0 435 -78q-14 -180 -29 -180q8 0 -14 4q0 5 -4 14l-5 24q-9 57 -92 97q-101 57 -243 54q-254 0 -408 -211q-128 -189 -128 -444q0 -245 133 -422q149 -203 387 -203q110 0 236 65q149 74 167 174q0 26 18 29q13 0 13 -9q0 13 -18 -218 q-202 -106 -474 -106q-304 0 -493 175.5t-189 501.5z" />
<glyph unicode="&#xaa;" horiz-adv-x="1156" d="M0 0l52 52h850l-49 -52h-853zM180 299q0 234 248 448q224 198 425 198q83 0 92 -83l49 70q36 -10 70 -10q27 0 92 10q-170 -185 -483 -606q-36 -52 -36 -88t40 -36q149 0 448 406l31 -23q-330 -423 -483 -423q-93 0 -93 110q0 52 18 106q-202 -216 -312 -216 q-106 0 -106 137zM245 254q0 -52 45 -52q106 0 313 241q162 189 241 291q63 87 63 123q0 52 -54 50q-115 0 -361.5 -255.5t-246.5 -397.5z" />
<glyph unicode="&#xab;" horiz-adv-x="1422" d="M346 704q322 74 691 430q9 9 18 14v-28q-202 -267 -493 -429q18 -45 18 -147q0 -119 -40 -263q-4 -18 -20 -18q-9 5 -9 27q13 52 13 106q0 234 -178 308zM709 704q321 74 693 430q13 14 22 14v-28q-216 -272 -497 -429q18 -45 18 -147q0 -105 -38 -263q-5 -18 -18 -18 q-9 0 -9 27q9 66 9 106q0 234 -180 308z" />
<glyph unicode="&#xac;" horiz-adv-x="3456" />
<glyph unicode="&#xad;" d="M277 709q45 61 166 144q158 110 252 110q79 0 217.5 -78.5t221.5 -78.5q119 0 252 112q16 -2 16 -29q-221 -194 -356 -194q-88 0 -233 72t-228 72q-137 0 -281 -144q-27 0 -27 14z" />
<glyph unicode="&#xae;" horiz-adv-x="1469" d="M322 1742q0 285 201 485.5t487 200.5q290 0 490.5 -200.5t200.5 -485.5q0 -286 -200.5 -486.5t-490.5 -200.5q-286 0 -487 200.5t-201 486.5zM392 1742q0 -264 182 -447t436 -183q264 0 442.5 183t178.5 447q0 263 -180 447.5t-441 184.5q-254 0 -436 -184.5t-182 -447.5 zM734 2110v32h299q229 0 229 -202q0 -149 -150 -185q148 -245 234 -331h31v-34h-128q-88 97 -225 342h-97v-141q0 -115 6.5 -141t42.5 -26h48v-34h-264v34h46q26 0 29 23v493q0 170 -57 170h-44zM927 1764h63q176 0 176 166q0 176 -180 176q-61 0 -59 -27v-315z" />
<glyph unicode="&#xaf;" horiz-adv-x="999" d="M115 1235q31 41 79 119q123 -13 326 -13q236 0 364 13q-31 -36 -74 -119q-124 14 -340 14q-258 0 -355 -14z" />
<glyph unicode="&#x2c9;" horiz-adv-x="999" d="M115 1235q31 41 79 119q123 -13 326 -13q236 0 364 13q-31 -36 -74 -119q-124 14 -340 14q-258 0 -355 -14z" />
<glyph unicode="&#xb0;" horiz-adv-x="414" d="M184 1982q0 23 14 63q65 189 272 189q128 0 128 -119q0 -97 -90 -175.5t-191 -78.5q-133 0 -133 121zM245 1987q0 -79 86 -79q65 0 139 66.5t74 131.5q0 83 -83 83q-79 0 -147.5 -65t-68.5 -137z" />
<glyph unicode="&#xb1;" horiz-adv-x="2763" d="M976 0v115h1587v-115h-1587zM976 884v110h738v592h111v-592h738v-110h-738v-594h-111v594h-738z" />
<glyph unicode="&#xb4;" horiz-adv-x="906" d="M153 1148q189 119 396 335q31 36 72 43q52 0 56 -28q0 -44 -49 -83q-180 -133 -466 -290q-9 0 -9 23z" />
<glyph unicode="&#xb5;" horiz-adv-x="1048" />
<glyph unicode="&#xb6;" horiz-adv-x="2137" d="M806 1622q0 203 173 350.5t445 147.5h714l-10 -41h-180l-265 -1937q0 -106 110 -106h106l-9 -36h-315l295 2079h-261q-216 -1391 -304 -2079h-263l9 36h101q79 0 88 79l171 1213q-93 -66 -268 -66q-153 0 -245 103.5t-92 256.5zM918 1622q0 176 133 304q157 153 409 153 h61l-101 -702q-97 -74 -254 -72q-250 0 -248 317z" />
<glyph unicode="&#xb7;" horiz-adv-x="810" d="M461 770q0 56 50.5 104t116.5 48q72 0 67 -78q0 -56 -50.5 -107t-120.5 -51t-63 84z" />
<glyph unicode="&#x2219;" horiz-adv-x="810" d="M461 770q0 56 50.5 104t116.5 48q72 0 67 -78q0 -56 -50.5 -107t-120.5 -51t-63 84z" />
<glyph unicode="&#xb8;" horiz-adv-x="774" d="M-180 -382l18 26q74 -13 148 -13q75 0 157 30.5t91 84.5q0 83 -160 83l156 175h51l-115 -123q180 -3 180 -126q-36 -162 -350 -160q-120 0 -176 23z" />
<glyph unicode="&#xba;" horiz-adv-x="1017" d="M0 0l52 52h758l-50 -52h-760zM202 308q0 221 221 434q207 203 398 203q93 0 93 -101q0 -133 -176 -374q18 -9 36 -9q92 0 216 147l29 -23q-115 -162 -249 -162q-32 0 -61 11q-212 -268 -392 -268q-115 0 -115 142zM263 259q0 -57 54 -57q158 0 347 259q-18 27 -18 59 q0 106 88 108q8 0 36 -16q101 162 101 236q0 56 -57 54q-105 0 -325.5 -266.5t-225.5 -376.5z" />
<glyph unicode="&#xbb;" horiz-adv-x="1215" d="M137 290v23q216 281 500 434q-18 52 -25 146q0 61 43 259q4 22 18 22q9 0 9 -26q-9 -66 -9 -106q0 -234 175 -308q-322 -79 -686 -435q-14 -9 -25 -9zM502 290v23q207 272 497 434q-18 45 -18 146q0 124 43 259q4 22 13 22t9 -26q-9 -66 -9 -106q0 -234 180 -308 q-326 -79 -693 -435q-9 -9 -22 -9z" />
<glyph unicode="&#xbf;" horiz-adv-x="2155" d="M45 369q-5 259 365 515q152 106 787 439q558 290 605 470q9 23 9 50q-4 51 -27 56q5 52 97 49q72 3 81 -49q0 -88 -182 -254q-124 -115 -522 -335q-502 -282 -696 -462q-276 -254 -272 -544q0 -106 81 -179t214 -73q281 4 558 216q234 180 295 344q-66 -88 -176 -88 q-119 0 -114 122q0 88 78.5 158.5t155.5 70.5q141 5 144 -133q4 -224 -334.5 -490t-655.5 -270q-216 -4 -350 101.5t-141 285.5zM2084 2336q0 36 8 56q46 153 194 150q101 0 101 -96q0 -36 -9 -54q-56 -149 -198 -149q-96 0 -96 93z" />
<glyph unicode="&#xf7;" horiz-adv-x="2506" d="M576 738v110h1586v-110h-1586zM1217 137q0 61 46.5 105t104.5 44q61 0 107 -44t46 -105t-46 -103.5t-107 -42.5t-106 44t-45 102zM1217 1447q0 61 46.5 104.5t104.5 43.5q61 0 107 -43.5t46 -104.5t-46 -104t-107 -43t-106 43t-45 104z" />
<glyph unicode="&#x192;" horiz-adv-x="740" d="M-830 -360q0 92 63 166.5t126 83.5q92 0 92 -70q0 -61 -112.5 -97t-112.5 -101q0 -92 133 -92q346 0 1107 1165q128 198 198 291h-295l27 33h290q282 374 567 630q338 304 540 304q169 0 169 -137q0 -102 -62 -171.5t-132 -78.5q-92 0 -92 65q0 57 116 99.5t116 107.5 q0 84 -110 84q-180 0 -421 -259q-189 -198 -493 -644h295l-31 -33h-286q-74 -115 -203 -300q-346 -502 -686 -823q-378 -360 -619 -360q-166 0 -184 137z" />
<glyph unicode="&#x2c6;" horiz-adv-x="906" d="M65 1130q0 8 18 13q421 142 651 317q-57 -101 -66 -308q0 -27 -9 -27q-4 0 -13 23q-18 51 -48 157q-69 -41 -250.5 -106t-259.5 -74q-18 0 -23 5z" />
<glyph unicode="&#x2c7;" horiz-adv-x="677" d="M346 1096q115 128 115 425q5 18 14 27q9 0 13 -14q23 -101 23 -166q0 -61 -14 -124q203 128 518 259q9 -2 9 -20q-448 -230 -637 -387h-41z" />
<glyph unicode="&#x2d8;" horiz-adv-x="879" d="M115 1276q0 31 22 74q5 9 75 79h42q-18 -18 -44 -53t-26 -58q0 -78 133 -78q268 0 407 189h41q-175 -263 -493 -263q-157 0 -157 110z" />
<glyph unicode="&#x2d9;" horiz-adv-x="972" d="M576 1433q0 57 50.5 105t115.5 48q72 0 68 -78q0 -52 -50.5 -103t-118.5 -51q-69 0 -65 79z" />
<glyph unicode="&#x2da;" horiz-adv-x="906" d="M342 1226q0 36 9 54q61 153 216 153q106 0 106 -97q0 -33 -14 -60q-56 -149 -211 -146q-106 0 -106 96zM387 1231q9 -61 70 -61q110 0 155 110q9 23 9 48q0 65 -63 62q-115 0 -162 -114q-9 -36 -9 -45z" />
<glyph unicode="&#x2db;" horiz-adv-x="823" d="M230 -338q0 97 130 210q101 88 207 132l27 -4q-277 -180 -277 -317q0 -83 93 -83q69 0 134 40q-51 -52 -65 -79q-45 -31 -157 -31q-92 9 -92 132z" />
<glyph unicode="&#x2dc;" horiz-adv-x="906" d="M133 1204q202 157 259 155q40 0 114 -48.5t106 -48.5q52 0 176 92q22 -13 18 -13q-162 -162 -252 -162q-46 0 -118 48.5t-98 48.5q-70 0 -196 -97q-9 0 -9 25z" />
<glyph unicode="&#x2dd;" horiz-adv-x="956" d="M207 1253q0 14 23 27q211 128 278.5 304t132.5 176q45 2 45 -77q0 -153 -436 -443q-41 0 -43 13zM479 1249q0 4 129.5 112t174.5 230q65 171 131 169q44 2 44 -77q0 -153 -438 -443q-41 0 -41 9z" />
<glyph unicode="&#x394;" horiz-adv-x="335" d="M0 299q315 414 922 695l-56 -58q-553 -290 -839 -655z" />
<glyph unicode="&#x2206;" horiz-adv-x="335" d="M0 299q315 414 922 695l-56 -58q-553 -290 -839 -655z" />
<glyph unicode="&#x3a9;" horiz-adv-x="722" d="M142 -45q4 13 20 18q268 61 695 607l27 -22q-443 -562 -718 -623q-22 0 -24 20z" />
<glyph unicode="&#x2126;" horiz-adv-x="722" d="M142 -45q4 13 20 18q268 61 695 607l27 -22q-443 -562 -718 -623q-22 0 -24 20z" />
<glyph unicode="&#x410;" horiz-adv-x="3699" d="M0 1161q0 434 325 747t818 313q414 0 617 -313q206 -45 344.5 -189t138.5 -347q0 -87 -22 -188h493q980 1275 2171 1286q65 0 65 -8l-29 -21q-493 -299 -1170 -1161q-655 -826 -655 -1086q0 -162 135 -162q185 0 625 580l23 -22q-427 -590 -653 -590q-180 0 -180 212 q0 276 248 695q65 105 162 236h-342q-45 -61 -133 -162q-897 -1024 -1829 -1021q-304 0 -540 188q-198 167 -248 367q-364 212 -364 646zM40 1143q0 -369 311 -576q-23 115 -25 193q0 444 320 784q360 382 940 382q36 0 110 -9q-180 229 -553 229q-461 0 -782 -297 t-321 -706zM369 770q0 -142 23 -221q184 -137 566 -139q378 0 725 193q369 211 479 540h-240l36 41h218q22 78 22 198q0 355 -400 452q45 -102 45 -234q-5 -225 -137 -412q-154 -207 -406 -270q-51 0 -56 14q0 26 22.5 28.5t69.5 11.5q208 65 337 245t134 392q0 123 -61 238 q-92 9 -146 9q-502 0 -876 -348q-355 -331 -355 -738zM410 493q60 -189 249 -331q216 -166 489 -166q470 0 852 321q189 167 520 610l158 216h-471q-110 -347 -497 -567q-364 -207 -752 -207q-342 0 -548 124zM3148 1184h340q290 373 728 769q392 351 630 484 q-452 0 -787 -198q-259 -158 -506 -479z" />
<glyph unicode="&#x411;" horiz-adv-x="4045" d="M0 1170q0 405 392 716q404 330 985 330q259 0 488 -65q286 216 637 268q-36 101 -124 175q-128 106 -294 106q-190 0 -338 -128q-137 -120 -189 -268q-5 -18 -27 -18q-18 0 -18 32q56 148 184 263q172 153 388 151q193 0 326 -120q96 -83 132 -189q129 23 293 23 q185 0 621 -110q220 -57 378 -81.5t259 -29.5q115 -4 241 33t244 94.5t221.5 121.5t177.5 120q36 0 36 -13q0 -5 -9 -14q-101 -69 -226 -143.5t-274.5 -138.5t-315 -103.5t-350.5 -39.5q-294 0 -654 106t-520 108h-101q9 -45 13.5 -90t4.5 -86q0 -193 -65 -387 q132 -133 198 -259q0 -40 -18 -40q-23 0 -28 18q-65 128 -166 234q-74 -194 -194 -335q75 -119 75 -263q0 -318 -369 -581q-383 -277 -894 -277q-276 0 -535 115q-203 88 -308 198q4 -254 202 -455q234 -245 641 -245q748 0 1452 1042q281 419 700 761q382 317 668 396 q4 -5 4 -7.5t5 -6.5q0 -4 4 -4q0 -5 -4 -10q-171 -74 -312 -168.5t-246 -213.5q-70 -74 -136.5 -175.5t-129.5 -231.5q83 40 179 66t188 36t166.5 0t105.5 -28q322 -101 351 -520q-4 -281 -308 -605q-326 -346 -729 -340q-124 0 -207 84q-97 87 -97 238q0 230 216 502 q212 272 493 378q83 27 241 70q40 0 49 -23q0 -27 -45 -27q-96 -4 -232 -56q-285 -110 -497 -396q-184 -254 -184 -448q0 -137 87 -220q79 -66 167 -66q272 0 511 241q387 383 396 810q-52 299 -221 342q-79 41 -171 43t-186.5 -18t-174.5 -55t-131 -67l-134 -268 q-56 -105 -92 -152q-299 -424 -800 -687q-493 -259 -946 -256q-452 0 -692 279q-194 220 -194 499l-92 119q-32 41 -36 50q-106 171 -106 360zM36 1161q0 -286 202 -466q0 396 338 720q364 360 884 358q74 0 92 -5q75 180 268 347q-225 52 -423 52q-524 0 -945 -306 q-414 -304 -416 -700zM277 659q36 -45 103.5 -92t163.5 -92q277 -133 572 -133q524 0 893 274q327 246 327 522q0 124 -59 230q-207 -230 -448 -230q-137 0 -231.5 92.5t-99.5 247.5q-4 61 5 116t27 116q-502 0 -862 -277q-391 -295 -391 -774zM1539 1478q5 -137 86 -222.5 t204 -85.5q216 2 423 232q-198 281 -682 304q-31 -97 -31 -228zM1595 1768q489 -31 691 -321q115 130 184 333q-238 234 -605 322q-180 -133 -270 -334zM1917 2138q331 -97 567 -318q58 180 58 360q0 97 -22 176q-304 -5 -603 -218zM3953 2084q5 0 5 4z" />
<glyph unicode="&#x412;" horiz-adv-x="4099" d="M0 1100q0 434 325 748t818 314q281 0 488 -171q212 -184 212 -452q0 -221 -137 -409q-154 -208 -406 -277q-51 0 -56 18q0 27 25 29t67 14q208 60 339.5 241t131.5 393q0 245 -196 392.5t-468 147.5q-461 0 -782 -297t-321 -709q0 -369 311 -576q-23 115 -25 194 q0 443 320 783q360 382 940 382q268 0 462.5 -151.5t194.5 -399.5q0 -439 -432 -738q-391 -268 -853 -268q-342 0 -548 126q60 -189 249 -333q216 -166 489 -166q470 0 834 281q221 176 529 598q470 646 779 928q571 524 1286 681l120 23q18 0 18 -14q0 -18 -11.5 -18 t-42.5 -4q-498 -97 -900 -493q-189 -189 -414 -515l-360 -522q-331 -444 -829.5 -712.5t-1004.5 -268.5q-304 0 -540 189q-198 166 -248 369q-364 211 -364 643zM369 709q0 -142 23 -221q184 -137 566 -137q457 0 831 257q414 292 414 715q0 203 -166.5 339t-436.5 136 q-502 0 -876 -351q-355 -331 -355 -738zM2203 1870q0 238 254 490q272 268 581 266q238 0 312 -151q295 79 558 79q318 0 524 -126q246 -142 241 -405q-4 -255 -319 -437q-264 -157 -498 -157q304 -119 295 -493q-4 -281 -308 -605q-322 -347 -729 -340q-124 0 -207 83 q-97 88 -97 239q0 229 217 503.5t494 375.5q75 28 239 70q45 0 52 -22q0 -27 -48 -27q-101 -5 -229 -57q-291 -110 -497 -396q-185 -258 -185 -447q0 -137 88 -221q74 -65 164 -65q268 0 513 241q387 382 396 810q4 276 -220 342h-144q-158 0 -158 54q0 45 79 47 q92 0 231 -65q212 0 455 189q281 220 281 493q0 152 -137 249q-167 119 -488 119q-263 0 -545 -83q18 -40 18 -119q0 -295 -286 -598q-267 -286 -465 -286q-203 0 -203 207q0 245 256.5 498t619.5 337q-66 132 -266 132q-295 0 -558 -258q-245 -239 -245 -466q0 -18 -18 -18 t-18 18zM2470 1618q0 -167 156 -167q198 0 461 290.5t263 548.5q0 88 -22 124q-331 -83 -594.5 -325t-263.5 -471z" />
<glyph unicode="&#x413;" horiz-adv-x="2832" d="M0 1170q0 400 392 716q409 330 985 330q268 0 488 -65q291 221 637 268q-36 97 -124 175q-124 106 -294 106q-185 0 -338 -128q-133 -115 -189 -268q-5 -18 -27 -18q-18 0 -18 32q56 148 184 263q172 153 388 151q193 0 326 -120q96 -83 132 -189q115 23 293 23 q189 0 624.5 -110.5t633.5 -110.5q400 0 695 212q36 0 36 -14q0 -4 -9 -13q-401 -268 -977 -268q-299 0 -654.5 107t-519.5 107h-101q18 -92 18 -176q0 -202 -65 -387q128 -128 198 -259q0 -40 -18 -40q-23 0 -28 18q-60 133 -166 234q-70 -189 -194 -335q75 -124 75 -263 q0 -318 -369 -581q-383 -277 -894 -277q-272 0 -535 115q-203 92 -308 198q9 -259 202 -455q234 -245 641 -245q748 0 1452 1042q286 419 700 761q382 317 668 396q18 -18 18 -14q0 -4 -9 -14q-342 -141 -558 -382q-142 -162 -291 -452q-166 -338 -234 -434 q-294 -424 -800 -687q-489 -259 -946 -256q-447 0 -692 279q-194 220 -194 499q-119 153 -128 169q-106 166 -106 360zM36 1161q0 -286 202 -466q0 392 338 720q369 360 884 358q66 0 92 -5q79 185 268 347q-216 52 -423 52q-524 0 -942.5 -305t-418.5 -701zM277 659 q74 -92 267 -184q273 -133 572 -133q524 0 893 274q327 246 327 522q0 120 -59 230q-207 -230 -448 -230q-137 0 -231.5 92.5t-99.5 247.5q-4 115 32 232q-502 0 -862 -277q-391 -299 -391 -774zM1539 1478q5 -137 86 -222.5t204 -85.5q216 2 423 232q-202 281 -682 304 q-31 -102 -31 -228zM1595 1768q493 -36 691 -321q115 135 184 333q-234 229 -605 322q-184 -138 -270 -334zM1917 2138q331 -97 567 -318q58 189 58 360q0 106 -22 176q-308 -9 -603 -218z" />
<glyph unicode="&#x414;" horiz-adv-x="3325" d="M-92 65q0 83 154 145t408 62q239 0 700 -114q250 132 968 1142q418 586 1160 972q-87 88 -276 165q-254 101 -538 101q-277 0 -461 -50q166 -128 166 -429q0 -581 -447 -1035q-396 -405 -756 -408q-356 0 -354 514q0 548 547 985q419 326 774 387q-124 101 -367 101 q-488 0 -940 -457.5t-452 -975.5q0 -313 157 -520q0 -36 -20 -38q-23 0 -32 25q-148 238 -146 537q0 576 463 1029q448 434 970 432q246 0 405 -119q250 56 493 56q313 0 585 -115q175 -79 272 -167q369 190 691 221q27 0 27 -18t-18 -18q-119 -13 -331 -83 q-225 -70 -333 -133q255 -254 255 -673q0 -612 -527 -1111q-567 -531 -1359 -531q-225 0 -686 117q-498 -142 -822 -144q-330 0 -330 148zM-52 61q0 -106 329 -106q418 0 699 128q-418 119 -659 119q-171 0 -270 -43.5t-99 -97.5zM700 972q0 -128 76.5 -225t204.5 -97 q331 0 750.5 495t419.5 939q0 276 -164 396q-414 -88 -831 -532q-456 -488 -456 -976zM1240 133q506 -133 668 -133q387 0 792 304q356 276 600 684.5t244 717.5q0 346 -198 528q-239 -128 -581 -630q-465 -682 -526 -751q-428 -493 -999 -720z" />
<glyph unicode="&#x415;" horiz-adv-x="2353" d="M-230 1912q0 250 309 424q337 188 871 188q337 0 695 -83q40 -9 400 -115q291 97 623 97q538 0 538 -198q0 -216 -589 -423q-401 -137 -857 -216q40 -65 148 -96q137 13 322 13q405 0 405 -70q0 -69 -261 -65q-216 4 -470 79q-502 -45 -931 -414t-429 -747 q0 -259 203 -326q0 483 340 875q387 443 1001 441q153 0 251 -84.5t98 -233.5q0 -418 -489 -756q-461 -317 -949 -317q-128 0 -207 23q18 -304 194 -493q13 -23 13 -47q-36 0 -49 16q-185 211 -203 537q-149 45 -290 185q-194 198 -194 461q0 378 529 641q428 212 1037 275 q-83 36 -146 87q-691 -92 -970 -92q-414 0 -673 117q-272 119 -270 317zM-189 1908q0 -166 229 -277q250 -115 678 -115q474 0 927 88q-133 115 -133 257q0 310 466 443q-516 137 -974 137q-545 0 -862 -133q-331 -141 -331 -400zM788 -56q96 -27 216 -27q434 0 886 295 q506 332 502 746q0 124 -88 200.5t-216 76.5q-497 0 -922 -501q-378 -444 -378 -790zM1742 1667q0 -31 4 -49q479 83 904 252q484 193 484 360q0 60 -92 106.5t-263 46.5q-313 0 -536 -131q180 -60 299 -146q28 -18 30 -47q-36 0 -52 11q-97 74 -317 160q-162 -84 -295 -225 q-166 -176 -166 -338zM1991 1460q137 -45 345 -49q249 -5 249 22q0 36 -267 36q-208 0 -327 -9z" />
<glyph unicode="&#x416;" horiz-adv-x="4446" d="M153 655q0 346 221 673q141 211 325.5 345t434.5 161q52 9 142 0q96 -9 173 -48.5t127.5 -101.5t81 -136t38.5 -146q28 -246 -101 -509q-61 -119 -171 -257.5t-232 -225.5q-26 -32 -59 -52l-69 -41q-56 -9 -65 0q0 41 38 47q75 23 97 46q119 83 213.5 188.5t173.5 231.5 q31 56 59.5 127t46.5 146.5t24.5 152t2.5 141.5q-36 273 -257 367q-18 14 -60.5 21.5t-83 10t-78 0t-45.5 -2.5q-259 -45 -452.5 -209t-313.5 -400q-180 -338 -139 -678q18 -148 78.5 -265t155.5 -197t221 -115t278 -17q216 27 438 163.5t422 314t366 366.5l273 322 q97 124 191.5 262t172 281t130.5 290.5t66 295.5q0 365 -299 365h-45q-18 -5 -38 -5q101 -101 103 -263q5 -439 -452 -927q-212 -225 -449 -370t-460 -186q-31 -4 -54 -7.5t-34 -3.5q-303 0 -303 434q13 142 89.5 302t182.5 301q229 299 585 502q360 207 729 236 q-149 115 -401 111q-369 -10 -738 -259q-373 -250 -544 -599q-32 -60 -60 -159t-37 -163q0 -65 2 -111t7 -73q0 -36 -27 -38q-14 0 -18 3t-9 23.5t-5 61.5v126q52 294 213 527t417 411q388 268 799 276q277 5 446 -128h21q12 0 35 5h49q185 0 306 -101q79 -66 119.5 -178.5 t49.5 -231.5q14 -299 -121 -569t-412 -579q-212 -238 -435.5 -432.5t-443 -333t-428.5 -216t-399 -82.5q-330 -9 -545 149.5t-251 489.5q-4 27 -4 64t-5 76zM1064 1055q5 -211 236 -211q23 0 51 2t55 11q434 142 862 641q434 502 428 802q0 162 -102 263 q-337 -36 -647.5 -244.5t-578.5 -554.5q-313 -410 -304 -709zM2437 0q0 4 9 14q263 170 508 530q74 111 171 283t216 413q338 664 743 1109q-120 -97 -291 -258t-393 -390l-328 -340l-325 -337l-29 31l369 383l373 382q282 282 495.5 471t371.5 290q36 0 36 -14l-9 -18 q-250 -175 -516 -619q-78 -128 -195 -354l-279 -557q-286 -576 -806 -967q405 166 938 704q57 56 160 173l231 251q127 134 267.5 267t273.5 220l-65 -76q-137 -111 -271 -249l-256 -272l-222 -252q-102 -118 -172 -186q-594 -567 -976 -641q-9 0 -29 9zM3562 396 q0 115 36 217.5t88 221.5q132 220 322 434t415 410.5t477 366.5t510 304t511 224t485 122q83 8 123.5 -23t40.5 -92q-14 -124 -169 -124q-87 0 -87 77q4 36 50 66t46 35q0 18 -34 20h-22q-9 -5 -27 -5q-225 -22 -460 -124.5t-463.5 -254t-445.5 -340.5t-406 -387 t-345.5 -392t-266.5 -351q-216 -326 -216 -576q0 -193 180 -193q211 0 625 548l27 -22q-427 -558 -666 -558q-326 0 -328 396z" />
<glyph unicode="&#x417;" horiz-adv-x="2225" d="M-1037 -1604q-5 443 706 816q374 194 1161 442q18 83 18 148q0 234 -148 351q-61 -23 -243 -25q-221 0 -223 102q0 74 166 74q180 0 318 -110q535 105 1051.5 685.5t516.5 1082.5q0 405 -396 407q-22 0 -70 -9q106 -106 124 -290q9 -88 9 -117q0 -515 -437.5 -1029 t-820.5 -514q-346 0 -344 483q0 489 455 954q443 448 949 536q-137 123 -409 119q-439 -9 -826 -422t-387 -896q0 -75 4.5 -108.5t24.5 -99.5q0 -36 -14 -36q-22 0 -34.5 37.5t-16.5 86.5q-9 74 -9 115q0 470 373 900q392 448 885 455q285 4 452 -147q45 9 96 9 q586 0 586 -607q0 -669 -669 -1152q-470 -338 -1055 -475q137 -115 137 -360q0 -56 -9 -128q308 88 637 243q549 259 839 663l27 -22q-290 -405 -853 -682q-326 -162 -659 -250q-31 -530 -483 -980q-493 -498 -1157 -498q-115 0 -193.5 69t-78.5 179zM-976 -1600 q0 -202 202 -202q338 0 853 405q583 461 735 1001q-1793 -603 -1790 -1204zM448 682q31 -239 252 -239q342 0 773 594t431 1029q-23 202 -120 290q-443 -124 -889.5 -692t-446.5 -982z" />
<glyph unicode="&#x418;" horiz-adv-x="2538" d="M0 1420q0 448 331 857q360 443 843 450q234 5 356 -128q83 18 180 18q506 0 502 -497q-5 -338 -387 -743l-471 -502q-422 -439 -427 -659q-5 -180 142 -180q189 0 461 286q331 346 770 870l1050 1296q27 -22 120 -22q96 0 152 22q-879 -1010 -1451 -1750 q-259 -338 -263 -518q-4 -184 151 -184q198 0 614 544l27 -22q-428 -558 -646 -558q-234 0 -234 304q0 162 88 324q32 65 180 261q-299 -356 -508 -567q-318 -322 -511 -322q-216 0 -212 326q5 428 374 835l461 506q238 259 295 333q128 167 128 286q0 304 -401 304 q-60 -5 -162 -18q97 -115 97 -282q0 -479 -400 -926q-369 -410 -669 -410q-276 0 -281 369q-4 396 358 776.5t833 490.5q-111 110 -316 106q-447 -14 -790.5 -422.5t-343.5 -853.5q0 -153 57 -272q9 -18 9 -28q0 -13 -14 -24q-92 0 -92 324zM351 1276q5 -286 234 -286 q290 0 650 425q378 448 378 875q0 176 -97 273q-364 -70 -767 -512t-398 -775z" />
<glyph unicode="&#x419;" horiz-adv-x="2538" d="M0 1420q0 448 331 857q360 448 843 450q234 5 356 -128q74 18 180 18q506 0 502 -497q-5 -331 -387 -743l-200 -216l-271 -286q-418 -434 -427 -659q-9 -180 142 -180q189 0 461 286l358 392l412 478l424 528l626 768q32 -22 120 -22q92 0 152 22l-802 -941l-649 -809 q-259 -342 -263 -518q-4 -184 151 -184q198 0 614 544l27 -22q-428 -558 -646 -558q-234 0 -234 304q0 166 88 324q32 60 180 261l-274 -319q-126 -142 -234 -248q-318 -322 -511 -322q-221 0 -212 326q5 423 374 835l461 506l192 212q74 83 103 121q128 162 128 286 q0 304 -401 304q-31 -5 -70.5 -7t-91.5 -11q97 -120 97 -282q0 -479 -400 -926q-369 -410 -669 -410q-272 0 -281 369q-4 391 356 774q369 383 835 493q-115 110 -316 106q-447 -14 -792 -424q-342 -409 -342 -852q0 -158 57 -272l9 -28q0 -18 -14 -24q-92 0 -92 324z M351 1276q9 -286 234 -286q290 0 650 425q378 448 378 875q0 176 -97 273q-360 -70 -769 -513q-401 -448 -396 -774zM2727 2655q79 162 97 493q0 45 11 45q9 0 18 -36q27 -83 54 -259q92 65 331.5 157.5t341.5 110.5q22 0 29 -9q0 -14 -25 -23q-553 -207 -857 -479z" />
<glyph unicode="&#x41a;" horiz-adv-x="3874" d="M0 1112q0 414 299 720t765 335q295 355 1006 353q392 0 837 -184q331 -133 601 -322q355 506 524 506q32 0 32 -32q0 -60 -151 -188l-207 -167q-70 -56 -153 -155q61 -41 153 -126q4 -9 4 -18q0 -14 -9 -14q-13 0 -25 9q-87 79 -146 119q-119 -152 -290 -537 q-189 -419 -315 -605q-254 -374 -718 -626q-511 -277 -1051 -277q-303 0 -540 189q-202 167 -252 369q-364 212 -364 651zM40 1087q0 -369 311 -576q-23 115 -25 193q0 304 167 581q175 295 488 452q-23 79 -23 144q0 110 57 207q-414 -45 -694.5 -334t-280.5 -667zM369 713 q0 -141 23 -220q188 -137 566 -137q457 4 831 260q409 288 409 712v4q-193 -36 -378 -38h-27q-128 -342 -493 -432q-51 0 -56 13q0 27 22.5 29.5t69.5 13.5q286 92 414 376q-553 27 -735 364q-291 -153 -468.5 -412.5t-177.5 -532.5zM410 439q60 -185 249 -329 q216 -166 489 -166q474 0 830 263q276 203 718 787l715 896q-563 -418 -1168 -549v-23q0 -443 -432 -738q-391 -267 -853 -267q-342 0 -548 126zM1004 1881q0 -70 20 -126q245 115 562 115q74 0 110 -9q-180 229 -553 231h-74q-65 -101 -65 -211zM1055 1683 q171 -304 709 -342q38 97 43 211q4 120 -61 241q-92 9 -146 9q-282 0 -545 -119zM1138 2171h5q414 0 617 -319q434 -97 479 -470q576 130 1239 600q-699 452 -1376 450q-678 0 -964 -261zM1798 1780q45 -97 45 -232q0 -110 -32 -207h45q149 0 342 31q-31 318 -400 408z M3179 281q0 216 185 448l245 270q88 97 97 113q60 78 58 137q5 105 -88 148q-92 -22 -202 -25q-162 0 -160 70q0 56 106 56q148 0 261 -69q157 61 347 207q8 4 326 272l513 436q342 268 551 268q176 0 176 -106q0 -87 -97 -101q-75 0 -75 61q0 22 24 45t24 43q0 31 -56 31 q-176 0 -450 -249l-471 -450q-369 -313 -774 -475q149 -101 147 -237q0 -166 -180 -378q-106 -110 -304 -353q-124 -171 -124 -277q0 -132 133 -134q202 0 619 548l26 -22q-427 -558 -645 -558q-212 0 -212 281z" />
<glyph unicode="&#x41b;" horiz-adv-x="3699" d="M0 1161q0 439 322 747q326 313 821 313q414 0 617 -313q206 -45 344.5 -186.5t138.5 -349.5q0 -44 -13 -112l-23 -117q-110 -347 -497 -567q-369 -207 -752 -207q-342 0 -548 124q60 -189 249 -331q212 -166 489 -166q474 0 852 321q194 171 520 610l60 84q37 53 98 132 q492 646 1050 984.5t1157 342.5q65 0 65 -8l-29 -21q-493 -299 -1170 -1161q-655 -821 -655 -1086q0 -162 135 -162q185 0 625 580l23 -22q-427 -590 -653 -590q-180 0 -180 212q0 272 248 695l71 111q39 60 91 125q148 189 344 400.5t416 409.5q198 175 354.5 298 t275.5 186q-452 0 -787 -198q-128 -79 -255.5 -198t-250.5 -281l-219 -305l-220 -312q-22 -31 -54 -70.5t-79 -91.5q-897 -1024 -1829 -1021q-299 0 -540 188q-198 167 -248 367q-364 212 -364 646zM40 1143q0 -369 311 -576q-23 128 -25 193q0 444 320 784q360 382 940 382 q18 0 46 -2t64 -7q-180 229 -553 229q-457 0 -783 -299q-317 -299 -320 -704zM369 770q0 -138 23 -221q184 -137 566 -139q378 0 725 193q369 218 479 540q9 36 22.5 108t13.5 131q0 355 -400 452q45 -97 45 -234q-5 -221 -137 -412q-158 -212 -406 -270q-51 0 -56 14 q0 26 22.5 28.5t69.5 11.5q102 32 189.5 97t149.5 150.5t97 184.5t35 205q0 123 -61 238q-45 5 -82 7t-64 2q-506 0 -876 -348q-355 -331 -355 -738z" />
<glyph unicode="&#x41c;" horiz-adv-x="4362" d="M0 1138q0 435 325 747.5t818 312.5q281 0 488 -171q212 -184 212 -452q0 -225 -137 -414q-154 -207 -406 -272q-51 0 -56 18q0 22 22.5 25.5t69.5 12.5q208 65 339.5 244t131.5 391q0 245 -203 402q-189 142 -461 142q-461 0 -782 -299t-321 -709q0 -364 311 -572 q-23 115 -25 190q0 443 320 782q360 383 940 383q268 0 462.5 -152t194.5 -401q0 -439 -432 -738q-391 -268 -853 -266q-350 0 -548 128q60 -189 249 -333q216 -166 489 -164q501 0 944 383q203 180 493 571q347 470 954 943q651 506 1065 587q22 0 26 -11q0 -5 -8 -14 q-304 -184 -545 -528q-119 -167 -371 -633q-221 -405 -725 -949q255 198 599 535l576 563q272 263 623 538q515 409 839 548q32 -13 29.5 -19.5t-17.5 -16.5l-54 -42q-176 -124 -525 -470q-391 -388 -711 -774q-598 -730 -598 -990q0 -162 137 -162q198 0 614 548l27 -22 q-427 -558 -646 -558q-184 0 -184 212q0 290 297 706q254 351 703 789.5t858 738.5q-594 -331 -1368 -1060l-697 -677q-506 -475 -823 -669q-32 0 -34 12q4 13 16 18q378 250 1064 1428q346 594 819 907q-475 -141 -889 -645l-619 -833q-355 -423 -855 -702 q-531 -290 -1010 -290q-299 0 -536 189q-202 166 -252 364q-364 212 -364 650zM369 742q0 -137 23 -222q188 -138 566 -138q457 5 831 264q409 286 409 713q0 203 -164 339t-434 136q-502 0 -876 -351q-355 -338 -355 -741z" />
<glyph unicode="&#x41d;" horiz-adv-x="4050" d="M0 1120q0 414 299 722.5t765 337.5q295 356 1006 354q392 0 837 -185q331 -137 594 -326q365 511 531 511q32 0 32 -32q0 -61 -160 -198l-214 -171q-70 -61 -137 -142q65 -45 153 -126q4 -9 4 -22q0 -18 -16 -18q-4 0 -22 9q-79 88 -146 124q-115 -142 -259 -464 q-180 -405 -259 -540h835q405 682 623 945q545 668 1060 668q160 0 160 -101q0 -128 -124 -130q-88 0 -88 74q0 27 26 52.5t26 35.5q0 26 -47 26q-493 0 -954 -756l-387 -690q-225 -387 -462 -612q-312 -295 -774 -470q46 0 141.5 -7t144.5 -7q295 0 590 202 q229 162 407 396l27 -22q-493 -608 -1033 -610q-36 0 -135 8t-164 8q-52 0 -83 -4q-23 0 -23 13q0 18 9 20.5t45 10.5q536 142 988 903h-830q-27 -52 -61 -86q-254 -378 -718 -632q-506 -272 -1051 -272q-303 0 -540 189q-202 166 -252 369q-364 211 -364 645zM40 1100 q0 -369 311 -576q-23 115 -25 194q0 304 167 582q175 295 488 450q-23 70 -23 144q0 111 57 208q-414 -46 -694.5 -335t-280.5 -667zM369 729q0 -142 23 -223q184 -137 566 -137q457 0 831 259q409 290 409 713v5q-193 -36 -378 -36h-27q-128 -338 -493 -439q-51 0 -56 18 q0 27 25 30t67 13q282 78 414 378q-553 26 -735 362q-291 -153 -468.5 -415.5t-177.5 -527.5zM410 452q60 -189 249 -333q216 -166 489 -164q474 0 830 261q276 207 718 794l728 907q-571 -427 -1181 -563v-22q0 -439 -432 -738q-391 -268 -853 -268q-355 0 -548 126z M1004 1894q0 -74 20 -126q245 115 562 118q36 0 110 -10q-188 230 -553 230h-74q-65 -101 -65 -212zM1055 1692q176 -308 709 -338q38 97 43 212q4 115 -61 236q-70 14 -146 14q-286 0 -545 -124zM1138 2180h5q414 0 617 -315q434 -97 479 -468q607 133 1244 599 q-641 443 -1381 441q-682 0 -964 -257zM1798 1793q45 -97 45 -236q0 -106 -32 -203h45q185 0 342 32q-31 317 -400 407z" />
<glyph unicode="&#x41e;" horiz-adv-x="2317" d="M0 1359q0 641 540 1019q475 338 1143 336q414 0 414 -111q-9 -9 -18 -9q-5 0 -34 9q-123 70 -373 70q-563 0 -1074 -369q-553 -405 -553 -950q0 -434 347 -677q18 410 409 875q360 435 872 736.5t899 301.5q110 0 166 -48q23 5 90 7q277 0 272 -355q-4 -295 -234 -704 q-220 -392 -576 -761q-792 -821 -1455 -821q-221 0 -342 189q-106 171 -106 452v79q-387 211 -387 731zM524 295q0 -149 79 -239q88 -106 245 -108q549 0 1303 761q383 382 628 789q259 428 267 727q5 295 -222 295h-32q-22 -4 -31 -4q51 -52 49 -190q0 -474 -580 -1055 q-290 -290 -621 -488q-347 -207 -610 -239q0 -114 52 -206q9 -28 9 -34q0 -9 -14 -18q-27 0 -42 31q-46 106 -46 223h-60q-45 -4 -63 -4q-162 0 -263 22q-46 -119 -48 -263zM585 594q83 -22 245 -22q92 0 124 4q14 612 718 1310q567 555 1024 648q-57 26 -124 29 q-475 0 -1182 -761q-650 -700 -805 -1208zM994 580q239 23 574.5 223.5t638.5 506.5q567 564 567 1016q0 138 -52 180q-479 -96 -1026 -650q-686 -690 -702 -1276z" />
<glyph unicode="&#x41f;" horiz-adv-x="3856" d="M0 1170q0 405 392 716q404 330 985 330q259 0 488 -65q286 216 637 268q-36 101 -124 175q-128 106 -294 106q-190 0 -338 -128q-137 -120 -189 -268q-5 -18 -27 -18q-18 0 -18 32q56 148 184 263q172 153 388 151q193 0 326 -120q96 -83 132 -189q129 23 293 23 q185 0 621 -110q220 -57 378 -81.5t259 -29.5q115 -4 287 30.5t347.5 85.5t327 113t226.5 118q36 0 36 -14q0 -4 -9 -16q-102 -69 -267 -142.5t-365.5 -133t-420 -96.5t-417.5 -28q-148 4 -313.5 30t-340.5 76q-360 106 -520 108h-101q9 -45 13.5 -90t4.5 -86 q0 -193 -65 -387q132 -133 198 -259q0 -40 -18 -40q-23 0 -28 18q-65 128 -166 234q-74 -194 -194 -335q75 -119 75 -263q0 -318 -369 -581q-383 -277 -894 -277q-276 0 -535 115q-203 88 -308 198q4 -254 202 -455q234 -245 641 -245q748 0 1452 1042q281 419 700 761 q382 317 668 396q18 -18 18 -14q0 -4 -9 -14q-171 -74 -312 -168.5t-246 -213.5q-142 -158 -291 -452q-162 -331 -234 -434q-299 -424 -800 -687q-493 -259 -946 -256q-452 0 -692 279q-194 220 -194 499l-92 119q-32 41 -36 50q-106 171 -106 360zM36 1161q0 -286 202 -466 q0 396 338 720q364 360 884 358q74 0 92 -5q75 180 268 347q-225 52 -423 52q-524 0 -945 -306q-414 -304 -416 -700zM277 659q36 -45 103.5 -92t163.5 -92q277 -133 572 -133q524 0 893 274q327 246 327 522q0 124 -59 230q-207 -230 -448 -230q-137 0 -231.5 92.5 t-99.5 247.5q-4 61 5 116t27 116q-502 0 -862 -277q-391 -295 -391 -774zM1539 1478q5 -137 86 -222.5t204 -85.5q216 2 423 232q-198 281 -682 304q-31 -97 -31 -228zM1595 1768q489 -31 691 -321q115 130 184 333q-238 234 -605 322q-180 -133 -270 -334zM1917 2138 q331 -97 567 -318q58 180 58 360q0 97 -22 176q-304 -5 -603 -218zM3075.5 273.5q29.5 136.5 97 270t117.5 203.5l202 253l218 267l267 323l280 336q31 -22 117 -22q88 0 146 22l-391 -442l-360 -415l-201 -242l-182 -229q-250 -321 -252 -488q-9 -175 146 -175 q194 0 594 517l25 -24q-207 -268 -362 -403t-261 -122q-158 18 -194 126t-6.5 244.5z" />
<glyph unicode="&#x420;" horiz-adv-x="3638" d="M0 1125q0 434 325 747t818 313q419 0 617 -320q206 -45 344.5 -188t138.5 -345q0 -439 -432 -738q-391 -268 -853 -268q-350 0 -548 131q60 -189 249 -333q216 -167 489 -164q470 0 834 278q225 176 529 597q434 594 707 861q510 493 1118 682q-185 120 -457 120 q-277 0 -515 -75q22 -56 22 -119q0 -295 -286 -603q-272 -286 -470 -286q-207 0 -202 225q4 246 276 484q259 230 610 322q-65 119 -263 121q-299 0 -553 -245q-239 -225 -259 -470q0 -18 -18 -18q-23 0 -23 22q9 239 264 484q272 259 584 259q246 0 304 -142q221 79 516 77 q308 0 553 -129q88 23 157 36q46 9 120 25q18 0 22 -14q-4 -13 -17.5 -16.5t-36.5 -7.5q-70 -14 -198 -50q284 -186 279 -517q-4 -338 -349 -590q-321 -238 -686 -238q-373 0 -407 331l-317 -462q-331 -448 -829.5 -716.5t-1004.5 -268.5q-304 0 -540 193q-198 162 -248 365 q-364 211 -364 650zM40 1100q0 -364 311 -569q-23 115 -25 187q0 443 320 785q360 383 940 383q74 0 110 -5q-188 229 -553 229q-461 0 -782 -299t-321 -711zM369 729q0 -142 23 -223q188 -137 566 -137q457 5 831 263q409 286 409 714q0 162 -105.5 283t-294.5 169 q45 -110 45 -236q-5 -226 -137 -414q-154 -208 -406 -273q-51 0 -56 14q0 27 22.5 30t69.5 13q208 65 337 243.5t134 390.5q0 124 -61 241q-70 13 -146 13q-502 0 -876 -351q-355 -337 -355 -740zM2470 1631q0 -180 156 -180q189 0 456.5 292.5t267.5 546.5q0 84 -22 120 q-338 -88 -590 -304q-268 -234 -268 -475zM3332 1406q27 -337 369 -337q299 0 576 263q291 279 295 626q4 238 -189 391q-337 -124 -623 -409q-176 -176 -428 -534z" />
<glyph unicode="&#x421;" horiz-adv-x="2279" d="M-230 1627q0 290 410 529.5t950 239.5q510 0 1064 -198q589 268 893 268q207 0 207 -158q0 -294 -668 -620q-637 -318 -1359 -430q-365 -410 -508 -594.5t-143 -425.5q0 -152 140 -265v36q-4 27 -4 61q0 414 360 792q378 396 836 396q167 0 268.5 -85.5t101.5 -222.5 q0 -406 -581 -792q-74 -226 -229 -383q-185 -180 -401 -180q-304 0 -347 331q-83 40 -152 148q-111 167 -111 414q0 185 111 419q87 189 188 310h-78q-56 -4 -81 -4q-867 0 -867 414zM-189 1618q0 -369 817 -369q92 0 193 13q189 254 608 531q369 245 699 369 q-414 153 -897 151q-628 0 -1033 -207q-387 -198 -387 -488zM796 32q0 -66 5 -84q56 -22 149 -22q198 0 452 126q202 101 326 216q45 148 45 290q0 198 -81 349q9 27 22 29q5 0 14 -9q88 -153 88 -365q0 -101 -32 -249q480 382 480 637q0 267 -316 267q-434 0 -810 -447 q-342 -401 -342 -738zM806 -88q31 -290 301 -290q175 0 340.5 147.5t235.5 363.5q-391 -245 -738 -243q-92 0 -139 22zM1314 1314q677 106 1271 423q565 308 621 563q0 132 -114 132q-172 0 -437 -92q-234 -83 -383 -173q172 -61 340 -171q23 -18 23 -48q-27 0 -50 14 q-119 88 -364 171q-153 -79 -445.5 -341t-461.5 -478z" />
<glyph unicode="&#x422;" horiz-adv-x="4169" d="M0 1170q0 405 392 716q404 330 985 330q259 0 488 -65q167 -52 333.5 -136.5t285.5 -194.5q65 -65 129.5 -142.5t100.5 -143.5q0 -40 -18 -40q-23 0 -28 18q-31 65 -89.5 140.5t-108.5 127.5q-119 114 -292 202t-358 133q-225 52 -423 52q-524 0 -945 -306 q-414 -304 -416 -700q0 -286 202 -466q0 396 338 720q364 360 884 358q74 0 92 -5q250 -18 441.5 -99t292.5 -222q36 -65 66.5 -147.5t30.5 -151.5q0 -318 -369 -581q-383 -277 -894 -277q-276 0 -535 115q-203 88 -308 198q4 -254 202 -455q234 -245 641 -245 q748 0 1452 1042q281 419 700 761q382 317 668 396q18 -18 18 -14q0 -4 -9 -14q-171 -74 -312 -168.5t-246 -213.5q-142 -158 -291 -452q-162 -331 -234 -434q-299 -424 -800 -687q-493 -259 -946 -256q-452 0 -692 279q-194 220 -194 499l-92 119q-32 41 -36 50 q-106 171 -106 360zM277 659q36 -45 103.5 -92t163.5 -92q277 -133 572 -133q524 0 893 274q327 246 327 522q0 61 -26 134.5t-58 129.5q-101 142 -292.5 220.5t-429.5 87.5q-502 0 -862 -277q-391 -295 -391 -774zM1696 1478q-4 61 5 116t27 116q32 97 115 211.5t175 193.5 q153 124 329.5 202.5t352.5 101.5q-36 101 -124 175q-128 106 -294 106q-190 0 -338 -128q-137 -120 -189 -268q-5 -18 -27 -18q-18 0 -18 32q56 148 184 263q172 153 388 151q193 0 326 -120q96 -83 135 -189q128 23 290 23q185 0 621 -110q220 -57 378 -81.5t259 -29.5 q115 -4 287 30.5t347.5 85.5t327 113t226.5 118q36 0 36 -14q0 -4 -9 -16q-102 -69 -267 -142.5t-365.5 -133t-420 -96.5t-417.5 -28q-148 4 -313.5 30t-340.5 76q-360 106 -520 108h-101q9 -45 13.5 -90t4.5 -86q0 -101 -18 -217t-52 -208q-36 -92 -95.5 -200t-138.5 -187 q-207 -230 -448 -230q-137 0 -231.5 92.5t-99.5 247.5zM1737 1478q5 -137 86 -222.5t204 -85.5q216 0 425 232q61 65 119.5 169.5t96.5 208.5q32 92 53.5 202t21.5 198q0 97 -25 176q-158 -5 -330 -70t-322 -184q-93 -70 -177.5 -180.5t-120.5 -215.5q-31 -97 -31 -228z M2459.5 -56.5q-2.5 4.5 20.5 29.5q249 153 488 445q78 93 170 234l217 338q175 263 355 491.5t383 422.5q65 56 103 92t66.5 55t48.5 26t47 7l-13 -14q-119 -79 -244 -206t-258 -307q-79 -106 -196 -291l-283 -456q-142 -234 -338 -432t-445 -369q-27 -23 -55 -38.5 t-46 -23.5t-20.5 -3.5zM3434.5 273.5q30.5 136.5 97 270t118.5 203.5l202 253l216 267l268 323l281 336q31 -22 115 -22q88 0 148 22l-391 -442l-360 -415l-201 -242l-182 -229q-250 -321 -254 -488q-9 -175 148 -175q194 0 594 517l23 -24q-207 -268 -361 -403t-260 -122 q-158 18 -195 126t-6.5 244.5z" />
<glyph unicode="&#x423;" horiz-adv-x="2423" d="M0 1433q0 443 342 815q356 391 824 398q224 4 360 -130q83 18 184 18q506 0 497 -498q-9 -346 -351 -731l-634 -614q-342 -331 -347 -533q-4 -176 149 -176q225 0 533 299q520 507 918 986q133 234 326.5 481.5t312.5 330.5q27 18 83 18q18 -13 21 -31q0 -18 -30 -75 q-148 -234 -672 -742q-300 -410 -617 -1197q401 198 655 528l27 -18q-273 -378 -700 -558q-203 -488 -513 -825q-245 -268 -520.5 -426.5t-491.5 -158.5q-180 0 -180 175q0 225 242 457q304 290 1283 747q439 783 695 1157q-351 -419 -796 -858q-338 -326 -581 -328 q-220 0 -213 324q8 322 346 731q4 9 621 659q337 356 342 545q5 153 -119 234q-110 69 -286 69q-61 -4 -162 -18q97 -96 97 -281q0 -465 -396 -918q-374 -418 -673 -418q-281 0 -281 369q0 400 360 776t835 490q-124 111 -324 106q-444 -13 -785 -374.5t-341 -804.5 q0 -175 52 -259q0 -22 -4 -49q-27 0 -48 31q-40 120 -40 277zM216 -1231q0 -137 130 -137q338 0 770 484q340 373 556 801q-599 -313 -846 -475q-608 -396 -610 -673zM346 1192q0 -285 239 -285q277 0 637 425q387 448 387 875q0 171 -93 273q-368 -70 -771 -508t-399 -780z " />
<glyph unicode="&#x424;" horiz-adv-x="3948" d="M65 914q-4 373 286 634q295 268 740 268q383 0 572 -268q148 -36 245 -101q97 153 277 303q123 106 243.5 159t235.5 64q137 9 231.5 -39t132.5 -202q5 -44 -3 -98t-17 -105t-22.5 -95t-26.5 -70l-9 26q409 540 880 840q-250 -92 -501 -138.5t-501 -50.5 q-88 0 -167.5 4.5t-158.5 13.5l-22 7q-120 22 -242.5 61.5t-215 94.5t-143 130.5t-32.5 171.5q14 75 75 126q141 138 362.5 166t525.5 -15q338 -40 686 -216q277 -119 480 -263q175 133 300 198t204 56q27 -9 22 -22q-9 -45 -148 -108l-198 -72q-32 -14 -67 -35l-79 -49 q26 -13 56 -39l67 -57v-9q0 -9 -13 -9q-9 0 -18 9q-36 22 -60 45l-46 42q-110 -83 -230.5 -205.5t-212.5 -246.5l-36 -56q4 4 22 16q101 70 189 99t167 38q128 5 234 -83q97 -84 133 -203q40 -193 -46 -382q-44 -101 -127.5 -202.5t-198.5 -198.5q-250 -207 -479 -220 q-137 -9 -233 38t-132 200q-8 32 -8 80v96l-25 -38l-27 -46q-180 -249 -438 -469.5t-521 -369.5q-461 -238 -889 -238q-272 0 -497 159q-189 154 -236 316q-337 188 -340 558zM101 893q0 -313 291 -493q-10 57 -14 98.5t-4 68.5q0 383 281 668q317 327 848 327q18 0 44 -2.5 t62 -7.5q-171 198 -518 198q-418 0 -704 -252q-286 -249 -286 -605zM405 572q0 -66 29 -190q162 -114 516 -114q422 0 756 220q83 56 149.5 118t110.5 132q-8 9 -13 11.5t-9 10.5q-97 84 -133 208q-40 188 45 382q9 14 17 30l17 35q-88 41 -189 68q45 -97 45 -203 q0 -189 -119 -348q-142 -185 -369 -232q-41 0 -50 9q0 22 20.5 25.5t60.5 12.5q194 56 307.5 210.5t113.5 331.5q0 111 -61 205q-40 4 -75 6.5t-58 2.5q-465 0 -792 -299q-317 -286 -319 -632zM448 338q56 -158 234 -282q198 -142 452 -144q189 0 400.5 76.5t369.5 182.5 q141 106 316.5 271.5t351.5 401.5q-9 -9 -19.5 -13.5t-18.5 -16.5q-102 -65 -188.5 -94t-165.5 -38q-92 -14 -180 36q-96 -146 -272 -257q-346 -229 -774 -231q-304 0 -506 108zM1890 2438q9 -46 32 -73q60 -106 203 -169t373 -104l36 -8q65 -10 139 -14t155 0 q502 14 1121 234q-549 360 -1125 443q-158 18 -313 29.5t-284.5 -6.5t-219.5 -76.5t-117 -173.5q-9 -36 0 -82zM1962 844q4 -36 25 -74q92 148 92 326q0 78 -29 144q-9 -9 -11.5 -20.5t-11.5 -22.5q-92 -221 -65 -353zM2014 742q52 -51 134 -44.5t165 39.5t154 76.5 t100 70.5q61 56 124 126q5 9 23 36q101 162 202 295q32 83 55.5 191t16.5 202.5t-59.5 156.5t-176.5 57q-79 -8 -160 -59t-152 -117t-129.5 -134t-85.5 -108q-45 -61 -82 -125t-73 -134q45 -92 45 -184q0 -180 -101 -345zM3087 827q13 -80 66 -130.5t166 -46.5 q83 5 163 57.5t152 117t129 134t85 110.5q56 74 100 157l93 171q52 119 67.5 206t2.5 152q-23 115 -108.5 134t-184.5 -9t-189 -81t-121 -85q-18 -13 -33 -28l-33 -32l-312 -475q-27 -83 -41.5 -177.5t-1.5 -174.5z" />
<glyph unicode="&#x425;" horiz-adv-x="2985" d="M-9 673q0 61 9 137q40 351 299 646q234 268 540 373q171 360 533 617q388 272 799 276q281 5 446 -128q13 0 56 5h49q180 0 306 -101q154 -124 151 -370q0 -312 -207 -625q290 331 902 727q718 466 1121 466q167 0 167 -115q-14 -124 -172 -124q-87 0 -87 77 q4 36 50.5 66t46.5 35q0 18 -32 20h-22q-14 -5 -30 -5q-418 -40 -1122 -535q-673 -466 -936 -844l-329 -470q-216 -322 -216 -576q0 -193 180 -193q211 0 625 548l30 -22q-428 -558 -668 -558q-327 0 -329 396q0 225 108 461q-931 -913 -1555 -913q-326 0 -519.5 201 t-193.5 528zM56 659q0 -299 172 -488t481 -189q391 0 997 466q342 268 638 585l388 553q245 376 285 621q0 365 -299 365h-45q-27 -5 -38 -5q101 -101 103 -263q5 -443 -452 -927q-423 -452 -853 -547q-175 -238 -429 -387q-66 -45 -142 -74q-56 0 -61 9q0 32 43 40 q65 14 101 34q254 138 432 369q-65 -9 -88 -11q-303 0 -303 434q26 282 245 572q-83 9 -124 9q-115 -5 -241 -41q-60 -142 -74 -268q0 -128 9 -184q0 -36 -27 -38q-22 0 -27 26t-5 188q14 128 68 256q-322 -137 -538 -448.5t-216 -656.5zM889 1838q97 27 227 27 q52 0 142 -18q229 299 587 505t727 233q-149 115 -401 111q-364 -5 -737.5 -256t-544.5 -602zM1064 1055q5 -211 236 -211q52 0 106 13q174 261 174 511q0 272 -212 396q-308 -410 -304 -709zM1390 1798q230 -133 232 -430q0 -250 -162 -493q378 124 809 624.5t427 800.5 q0 162 -102 263q-672 -79 -1204 -765z" />
<glyph unicode="&#x426;" horiz-adv-x="2538" d="M0 1420q0 448 331 857q360 448 843 450q234 5 356 -128q74 18 180 18q506 0 502 -497q-5 -331 -387 -743l-200 -216l-271 -286q-418 -434 -427 -659q-9 -180 142 -180q189 0 461 286l358 392l412 478l424 528l626 768q32 -22 120 -22q92 0 152 22l-802 -941l-649 -809 q-128 -171 -204.5 -316t-80.5 -238q0 -44 27 -91.5t92 -44t164 74.5t236 259q27 0 13.5 -78.5t-68.5 -191t-143 -236.5q-18 -27 -40 -52q105 -74 198 -184q105 -124 128 -317l-36 18q-9 110 -74 223.5t-176 190.5q-27 22 -65 43q-65 -79 -142 -140q-114 -97 -255 -143 t-298 6q-23 27 -34 90t13.5 131.5t101 130.5t232.5 87q40 4 151.5 -22t226.5 -96q44 57 92 126q101 162 162 336q-162 -203 -272.5 -255.5t-177 -20t-94.5 117t-28 158.5q0 166 88 324q32 56 171 252q-142 -171 -268 -308q-123 -142 -231 -250q-318 -322 -511 -322 q-221 0 -212 326q5 423 374 835l461 506l192 212q74 83 103 121q128 162 128 286q0 304 -401 304q-31 -5 -70.5 -7t-91.5 -11q97 -120 97 -282q0 -479 -400 -926q-369 -410 -669 -410q-272 0 -281 369q-4 391 356 774q369 383 835 493q-115 110 -316 106q-447 -14 -792 -424 q-342 -409 -342 -852q0 -158 57 -272l9 -28q0 -18 -14 -24q-92 0 -92 324zM351 1276q9 -286 234 -286q290 0 650 425q378 448 378 875q0 176 -97 273q-360 -70 -769 -513q-401 -448 -396 -774zM1449 -380.5q-16 -42.5 20 -76.5q133 -56 272.5 -8.5t263.5 161.5 q56 52 110 115q-74 34 -157 52q-138 22 -300 -43q-22 -9 -68 -41.5t-85.5 -74.5t-55.5 -84.5z" />
<glyph unicode="&#x427;" horiz-adv-x="2538" d="M0 1420q0 448 331 857q360 448 843 450q234 5 356 -128q74 18 180 18q254 0 373.5 -124t128.5 -373q4 -176 -97 -334.5t-226 -304t-226 -277t-101 -250.5q0 -180 144 -180q188 0 461 286l81 83l450 553l652 792q32 -22 120 -22q92 0 152 22l-802 -941l-649 -809 q-259 -342 -263 -518q-4 -184 151 -184q198 0 614 544l27 -22q-428 -558 -646 -558q-234 0 -234 304q0 166 88 324q9 13 31.5 61.5t62 110.5t92 130.5t122.5 129.5q-317 -322 -510 -322q-221 0 -212 326q4 153 52.5 277t119.5 235.5t156.5 214.5t164.5 209q128 162 128 286 q0 304 -401 304q-31 -5 -70.5 -7t-91.5 -11q97 -120 97 -282q0 -479 -400 -926q-369 -410 -669 -410q-272 0 -281 369q-4 391 356 774q369 383 835 493q-115 110 -316 106q-447 -14 -792 -424q-342 -409 -342 -852q0 -158 57 -272l9 -28q0 -18 -14 -24q-92 0 -92 324z M351 1276q9 -286 234 -286q290 0 650 425q378 448 378 875q0 176 -97 273q-360 -70 -769 -513q-401 -448 -396 -774z" />
<glyph unicode="&#x428;" horiz-adv-x="3615" d="M0 1420q0 448 331 857q360 448 843 450q234 5 356 -128q74 18 180 18q506 0 502 -497q-5 -331 -387 -743l-200 -216l-271 -286q-418 -434 -427 -659q-9 -180 142 -180q189 0 461 286l382 424l437 512l406 494l609 736q31 -22 119 -22q92 0 153 22l-336 -395l-365 -417 l-359 -418q-175 -207 -309 -396t-214 -354.5t-75 -291.5q4 -180 142 -180q188 0 461 286l357 392l412 478l420 528l622 768q32 -22 119 -22q93 0 153 22l-1093 -1300l-187 -232l-173 -218q-259 -342 -261 -518q-5 -184 150 -184q198 0 615 544l27 -22q-428 -558 -646 -558 q-234 0 -234 304q0 166 88 324q36 65 168 252l-272 -314l-225 -244q-317 -322 -511 -322q-220 0 -211 326q5 162 69 307t194 343l-74 -87l-274 -319q-126 -142 -234 -248q-318 -322 -511 -322q-221 0 -212 326q5 423 374 835l461 506l192 212q74 83 103 121q128 162 128 286 q0 304 -401 304q-31 -5 -70.5 -7t-91.5 -11q97 -120 97 -282q0 -479 -400 -926q-369 -410 -669 -410q-272 0 -281 369q-4 391 356 774q369 383 835 493q-115 110 -316 106q-447 -14 -792 -424q-342 -409 -342 -852q0 -158 57 -272l9 -28q0 -18 -14 -24q-92 0 -92 324z M351 1276q9 -286 234 -286q290 0 650 425q378 448 378 875q0 176 -97 273q-360 -70 -769 -513q-401 -448 -396 -774z" />
<glyph unicode="&#x429;" horiz-adv-x="3615" d="M0 1420q0 448 331 857q360 448 843 450q234 5 356 -128q74 18 180 18q506 0 502 -497q-5 -331 -387 -743l-200 -216l-271 -286q-418 -434 -427 -659q-9 -180 142 -180q189 0 461 286l382 424l437 512l406 494l609 736q31 -22 119 -22q92 0 153 22l-336 -395l-365 -417 l-359 -418q-175 -207 -309 -396t-214 -354.5t-75 -291.5q4 -180 142 -180q188 0 461 286l357 392l412 478l420 528l622 768q32 -22 119 -22q93 0 153 22l-1093 -1300l-187 -232l-173 -218q-129 -171 -202 -316t-77 -238q0 -44 27 -91.5t91 -44t164 74.5t238 259 q22 0 17.5 -52.5t-37 -133.5t-90 -180t-131.5 -192q115 -74 210.5 -195.5t117.5 -305.5l-38 18q-9 128 -93.5 255t-219.5 202q-65 -79 -142.5 -141t-165.5 -103.5t-184.5 -53t-202.5 20.5q-23 27 -35 90t14 131.5t102 130.5t232 87q40 8 149 -20t229 -98q78 102 144.5 218 t109.5 244q-162 -203 -272 -255.5t-178 -20t-97 117t-29 158.5q0 166 88 324q36 65 168 252l-272 -314l-225 -244q-317 -322 -511 -322q-220 0 -211 326q5 162 69 307t194 343l-74 -87l-274 -319q-126 -142 -234 -248q-318 -322 -511 -322q-221 0 -212 326q5 423 374 835 l461 506l192 212q74 83 103 121q128 162 128 286q0 304 -401 304q-31 -5 -70.5 -7t-91.5 -11q97 -120 97 -282q0 -479 -400 -926q-369 -410 -669 -410q-272 0 -281 369q-4 391 356 774q369 383 835 493q-115 110 -316 106q-447 -14 -792 -424q-342 -409 -342 -852 q0 -158 57 -272l9 -28q0 -18 -14 -24q-92 0 -92 324zM351 1276q9 -286 234 -286q290 0 650 425q378 448 378 875q0 176 -97 273q-360 -70 -769 -513q-401 -448 -396 -774zM2495.5 -380.5q-15.5 -42.5 20.5 -76.5q162 -65 331.5 18t313.5 250q-97 52 -212.5 56.5 t-244.5 -47.5q-22 -9 -68 -41.5t-85.5 -74.5t-55 -84.5z" />
<glyph unicode="&#x42a;" horiz-adv-x="2304" d="M290 0v2747h1728v-2747h-1728zM576 290h1152v2172h-1152v-2172z" />
<glyph unicode="&#x42b;" horiz-adv-x="2304" d="M290 0v2747h1728v-2747h-1728zM576 290h1152v2172h-1152v-2172z" />
<glyph unicode="&#x42c;" horiz-adv-x="2304" d="M290 0v2747h1728v-2747h-1728zM576 290h1152v2172h-1152v-2172z" />
<glyph unicode="&#x42d;" horiz-adv-x="1746" d="M-423 338q18 78 42.5 107.5t63.5 29.5q83 -14 67 -97q-56 -308 311 -378q299 -65 618.5 126t674.5 626l136 182l132 182q-148 -65 -263 -70q-74 -4 -180 50q-281 -268 -551 -266q-318 0 -320 470q0 457 448 867q356 317 756 445q-133 56 -281 56q-448 0 -835 -416 q-382 -409 -382 -884q0 -74 2 -101t20 -93q0 -36 -14 -36q-22 0 -36 36q-22 70 -22 185q0 466 387 909q391 434 875 432q194 0 331 -79q110 36 241 39q157 4 250.5 -68t142 -189t61 -260t0.5 -287q-9 -110 -61.5 -248.5t-138.5 -288t-200.5 -303.5t-251.5 -303l-352 -303 q-175 -147 -364 -252.5t-398 -164t-454 -33.5q-194 18 -320 130t-135 248zM374 1197q0 -322 263 -322q249 0 506 245q-101 61 -189 68q-119 -9 -277 -81q-13 5 0 5q0 8 14 18q220 132 396 128q61 -9 153 -41l55 65l59 68q360 457 360 839q0 281 -162 396q-360 -97 -746 -519 q-435 -475 -432 -869zM1285 1197q4 -5 9 -5q132 -65 214 -67q60 0 137 27q220 331 354 635.5t139 520.5q8 322 -336 322q-36 0 -90 -6.5t-126 -29.5q176 -132 174 -405q0 -427 -392 -895l-40 -50q-18 -22 -43 -47z" />
<glyph unicode="&#x42e;" horiz-adv-x="5537" d="M0 1120q0 414 299 722.5t765 337.5q295 356 1006 354q392 0 837 -185q211 -92 401 -203q128 190 342 342q474 338 1142 336q414 0 414 -110q-8 -10 -18 -10q-4 0 -31 10q-124 69 -373 69q-563 0 -1074 -369q-198 -148 -328 -312q60 -36 119 -79q365 511 531 511 q32 0 32 -32q0 -61 -160 -198l-214 -171q-70 -61 -137 -142q65 -45 153 -126q4 -9 4 -22q0 -18 -16 -18q-4 0 -22 9q-79 88 -146 124q-115 -142 -259 -464l-97 -214q18 -92 61 -180l335 7q102 268 347 556q360 434 870.5 735.5t897.5 301.5q111 0 167 -45q22 5 92 5 q277 0 272 -356q-4 -295 -236 -704q-220 -392 -576 -761q-792 -821 -1456 -821q-220 0 -340 189q-105 171 -108 452v79q-211 115 -308 317h-124q-44 -87 -78 -148q-27 -52 -61 -86q-254 -378 -718 -632q-506 -272 -1051 -272q-303 0 -540 189q-202 166 -252 369 q-364 211 -364 645zM40 1100q0 -369 311 -576q-23 115 -25 194q0 304 167 582q175 295 488 450q-23 70 -23 144q0 111 57 208q-414 -46 -694.5 -335t-280.5 -667zM369 729q0 -142 23 -223q184 -137 566 -137q457 0 831 259q409 290 409 713v5q-193 -36 -378 -36h-27 q-128 -338 -493 -439q-51 0 -56 18q0 27 25 30t67 13q282 78 414 378q-553 26 -735 362q-291 -153 -468.5 -415.5t-177.5 -527.5zM410 452q60 -189 249 -333q216 -166 489 -164q474 0 830 261q276 207 718 794l414 506q4 106 20 203q-434 -268 -887 -365v-22 q0 -439 -432 -738q-391 -268 -853 -268q-355 0 -548 126zM1004 1894q0 -74 20 -126q245 115 562 118q36 0 110 -10q-188 230 -553 230h-74q-65 -101 -65 -212zM1055 1692q176 -308 709 -338q38 97 43 212q4 115 -61 236q-70 14 -146 14q-286 0 -545 -124zM1138 2180h5 q414 0 617 -315q434 -97 479 -468q443 97 904 371q41 190 142 352q-556 317 -1183 317q-682 0 -964 -257zM1798 1793q45 -97 45 -236q0 -106 -32 -203h45q185 0 342 32q-31 317 -400 407zM3087 1100h83q-18 56 -31 113zM3161 1580l263 337q-110 -83 -227 -157 q-22 -88 -36 -180zM3218 1811l265 185l-124 78q-92 -123 -141 -263zM3254 1055q85 -153 247 -267q5 132 52 272zM3636 405q0 -149 79 -239q87 -105 243 -105q549 0 1305 760q382 383 625 788q259 427 268 727q4 294 -220 294h-34q-23 -4 -32 -4q52 -52 52 -189 q0 -475 -580 -1055q-291 -291 -624 -489q-346 -207 -607 -238q0 -115 49 -207q9 -27 9 -34q0 -9 -13 -18q-27 0 -41 32q-45 105 -47 222h-58q-46 -4 -66 -4q-162 0 -263 22q-45 -119 -45 -263zM3694 704q84 -22 246 -22q92 0 124 4q13 612 720 1310q564 558 1021 650 q-56 27 -124 27q-475 0 -1179 -761q-650 -699 -808 -1208zM4106 691q239 22 573 223.5t638 505.5q567 564 567 1017q0 137 -50 180q-479 -97 -1028 -651q-686 -690 -700 -1275z" />
<glyph unicode="&#x42f;" horiz-adv-x="3699" d="M0 1197q0 452 338 769q350 322 859 324q434 0 650 -324q221 -44 365 -191.5t144 -359.5q0 -45 -15 -114.5t-28 -121.5q-110 -355 -520 -585q-378 -212 -789 -212q-360 0 -576 129q69 -194 263 -345q234 -170 513 -170q535 0 940 237t736 674q110 148 213.5 311.5 t182.5 338.5q-166 -27 -343 -25t-332 48.5t-270 147.5t-160 281q-36 133 20.5 258t161 221.5t237 158.5t254.5 71q245 18 378 -53t212 -228q69 -149 68 -369.5t-55 -458.5q259 56 493 211l-14 -18q14 14 23 18q-5 -18 -0.5 -20t11.5 0t11.5 0t-0.5 -20q-40 -41 -63.5 -69 t-46.5 -67.5t-53 -96.5l-84 -161q-254 -466 -358 -778.5t-76 -436.5q40 -153 184 -126q198 41 536 689l26 -21q-308 -650 -558 -699q-188 -41 -242 162q-36 132 -9 310t105 403q23 56 54 120l66 143q69 162 184 316t207 251q-65 -31 -168.5 -66t-232.5 -67 q-65 -276 -177.5 -526t-242.5 -392q-234 -263 -498.5 -408t-512 -211.5t-459 -77.5t-344.5 -11q-326 8 -562 193q-212 171 -264 383q-382 216 -382 661zM40 1179q0 -378 329 -594q-9 65 -18 113.5t-9 84.5q0 452 335 812q378 392 986 392q18 0 47 -2.5t70 -6.5 q-189 238 -583 238q-475 0 -819 -308q-338 -313 -338 -729zM387 792q0 -142 23 -225q188 -142 594 -144q396 0 760 198q389 227 504 558q9 36 22.5 110.5t13.5 134.5q0 369 -418 466q51 -110 49 -241q-5 -225 -146 -423q-158 -211 -425 -281q-57 0 -59 13q0 32 24.5 34 t72.5 12q110 31 200 98.5t154 153t101 189t37 213.5q0 128 -60 250q-52 4 -90 6.5t-68 2.5q-535 0 -916 -365q-373 -342 -373 -760zM2441 2050q9 -124 81 -221t184.5 -158.5t262 -85t316.5 -5.5q92 202 131.5 391t7.5 342q-22 92 -76 171t-151 133q-79 56 -214 62.5 t-262 -55t-214.5 -200t-65.5 -374.5z" />
<glyph unicode="&#x430;" horiz-adv-x="1118" d="M0 180q-4 317 317 598q291 259 554 259q115 0 115 -135l87 117q36 -13 88 -15q56 0 101 15q-180 -211 -612 -799q-45 -60 -47 -123q0 -65 70 -65q189 0 585 548l27 -22q-414 -558 -621 -558q-120 0 -120 142q0 92 36 175l-175 -175q-162 -142 -263 -142q-142 0 -142 180z M70 110q4 -74 78 -74q149 0 419 328q221 268 313 392q74 101 74 171q0 79 -79 77q-162 0 -483.5 -348t-321.5 -546z" />
<glyph unicode="&#x431;" horiz-adv-x="1044" d="M-4 189q0 295 299 581q285 272 531 272q52 0 81 -27q0 36 -2.5 84.5t-11.5 97.5q-18 106 -13.5 189t18.5 140q22 51 69.5 108.5t123.5 125.5q75 69 169 117.5t146 57.5t150 20t150 23q65 13 110 24.5t78 33.5q14 -9 5 -31q-13 -45 -149 -153q-123 -84 -188 -92 q-36 -10 -120 29q-78 45 -124 31q-44 -9 -123 -43.5t-135 -88.5q-97 -106 -124 -185q-27 -56 -24.5 -141.5t24.5 -200.5q18 -128 4 -225v-22q0 -190 -240 -514l-27 -31q-198 -245 -369 -329q216 10 461 156t419 384l29 -22q-428 -558 -1042 -558h-29q-149 0 -146 189z M61 119q0 -87 87 -87q198 0 480 364l128 189q119 180 137 290q-13 14 -6.5 30.5t11.5 34.5q-12 64 -77 64q-153 0 -457 -363q-299 -369 -303 -522zM918 826q14 13 4 27q-4 -9 -4 -27z" />
<glyph unicode="&#x432;" horiz-adv-x="1021" d="M27 171q0 180 153 387l-22 22l312 388l365 443q211 259 420.5 410.5t339.5 140.5q124 -4 115 -133q-18 -180 -308 -418q-304 -250 -716 -383q-18 -22 -57 -74l-90 -123l-111 -152l-115 -155q-93 -128 -157 -243t-64 -166q0 -83 66 -83q110 0 303 198q52 51 106 113 l119 136q27 230 198 428q110 128 194 130q45 0 47 -43q0 -56 -47 -128q-120 -193 -344 -432q31 -96 123 -96q129 0 331 242l29 -22q-220 -259 -360 -259q-115 0 -157 101q-36 -44 -89 -97l-118 -114q-212 -189 -340 -189q-124 0 -126 171zM724 1078q190 65 348.5 157.5 t295.5 211.5q277 234 290 396q5 74 -67 79q-88 4 -232 -97q-83 -65 -242 -252t-393 -495z" />
<glyph unicode="&#x433;" horiz-adv-x="875" d="M65 479q79 111 172.5 212t183.5 177.5t171 122.5t132 46q138 0 138 -144q0 -153 -149 -313l-279 -294q-110 -120 -112 -189q0 -65 65 -65q193 0 607 548l30 -22q-444 -558 -642 -558q-114 0 -114 142q0 180 137 342l127 138l141 152q101 101 101 171q0 56 -56 54 q-70 0 -156.5 -57.5t-174.5 -145t-169 -184.5l-139 -169z" />
<glyph unicode="&#x434;" horiz-adv-x="1161" d="M-621 -990q0 180 271 444.5t676 444.5l264 418q-318 -317 -448 -317q-133 0 -133 176q-5 326 313 607q294 254 562 254q110 0 110 -135l75 108h4l5 9q36 -13 92 -15q70 0 97 15l-756 -1059q225 83 391 211q212 167 398 409l23 -22q-171 -234 -396 -416 q-198 -158 -452 -239l-263 -400q-185 -281 -383 -450t-326 -169q-124 0 -124 126zM-572 -999q0 -74 75 -74q87 0 220 119q162 146 572 796q-360 -166 -613.5 -423.5t-253.5 -417.5zM79 101q9 -65 79 -65q69 0 208.5 118t254.5 264q157 203 249.5 332.5t92.5 185.5 q0 74 -88 74q-162 0 -479 -362t-317 -547z" />
<glyph unicode="&#x435;" horiz-adv-x="735" d="M9 230q0 285 313 558q286 249 492 249q93 0 93 -83q0 -171 -639 -448q-167 -225 -167 -335q0 -137 133 -139q216 0 637 548l27 -22q-428 -558 -664 -558q-225 0 -225 230zM299 554q563 272 563 409q0 45 -52 47q-83 0 -261 -171q-153 -148 -250 -285z" />
<glyph unicode="&#x436;" horiz-adv-x="2045" d="M61 475q133 175 243 290q254 268 409 268q245 0 245 -273q0 -60 -13 -119q171 133 383 327l36 51q26 -13 92 -15q65 0 101 15l-115 -155l-86 -122l-84 -122l-102 -154l-189 -272q180 152 369 285q4 9 4 14q-4 18 10 18q74 157 240 299q268 225 488 227q111 0 111 -105 q0 -88 -59.5 -162.5t-125.5 -74.5q-78 0 -78 75q0 69 101 124.5t101 77.5q0 32 -50 32q-157 0 -412.5 -299.5t-255.5 -506.5q0 -166 138 -166q123 0 342 222q123 124 276 326l27 -22q-133 -176 -245 -290q-254 -268 -410 -268q-245 0 -242 272q0 74 18 146 q-216 -166 -448 -373l-23 -36q-27 13 -97 13q-65 0 -96 -13l116 154q46 62 86 123l82 122l103 154l175 259q-157 -137 -294 -231q8 -28 -10 -28q-69 -180 -258 -342q-268 -224 -488 -224q-111 0 -111 105q0 88 59.5 162.5t125.5 74.5q78 0 76 -75q0 -69 -101 -124.5 t-101 -77.5q0 -32 52 -34q157 0 412.5 300.5t255.5 507.5q0 166 -140 164q-124 0 -340 -221q-123 -123 -276 -326zM846 594q-7 0 2 -22q9 8 23 13q-18 9 -25 9zM1424 488q18 -9 25 -6.5t-2 24.5q-14 -9 -23 -18z" />
<glyph unicode="&#x437;" horiz-adv-x="870" d="M-796 -972q4 180 238 414q259 259 706 470q-4 106 -78 162q-74 -36 -153 -38q-83 0 -83 43q0 65 114 63q61 0 126 -32q138 36 336 241q238 245 272 502q0 148 -74 146q-93 0 -234 -160q-46 -56 -212 -281l-29 22q193 259 231 300q142 162 244 162q220 0 222 -246 q-22 -254 -324 -479q-202 -153 -409 -229q74 -45 83 -158q119 52 418 236q216 167 406 414l29 -22q-207 -263 -412 -416q-175 -133 -437 -248q0 -423 -303 -756q-273 -294 -531 -294q-153 0 -146 184zM-752 -972q-4 -148 102 -148q166 0 434 285q364 394 364 716 q-308 -158 -544 -351q-351 -277 -356 -502z" />
<glyph unicode="&#x438;" horiz-adv-x="1289" d="M133 580q351 457 488 457q142 0 144 -144q0 -157 -145 -311l-282 -296q-111 -115 -113 -189q0 -65 70 -65q166 0 558 488l400 499q27 -13 88 -15q70 0 101 15l-594 -738q-92 -119 -92 -184t65 -65q189 0 603 548l27 -22q-427 -558 -645 -558q-102 0 -102 133 q0 105 43 205q-290 -338 -461 -338q-115 0 -115 142q0 184 142 342l263 290q106 115 106 176q0 56 -61 54q-119 0 -459 -446z" />
<glyph unicode="&#x439;" horiz-adv-x="1289" d="M133 580q351 457 488 457q142 0 144 -144q0 -157 -145 -311l-282 -296q-111 -115 -113 -189q0 -65 70 -65q166 0 558 488l400 499q27 -13 88 -15q70 0 101 15l-594 -738q-92 -119 -92 -184t65 -65q189 0 603 548l27 -22q-427 -558 -645 -558q-102 0 -102 133 q0 105 43 205q-290 -338 -461 -338q-115 0 -115 142q0 184 142 342l263 290q106 115 106 176q0 56 -61 54q-119 0 -459 -446zM1125 1170q56 101 63 308q0 27 9 30q5 0 16 -25q18 -52 45 -155q70 40 252 105t258 75q18 0 25 -5q0 -9 -20 -13q-419 -144 -648 -320z" />
<glyph unicode="&#x43a;" horiz-adv-x="985" d="M-234 18q202 238 396 540l-29 22l1080 1416q27 -14 63 -14q78 -2 153 50l-1073 -1368q350 373 566 373q149 0 147 -135q0 -148 -207 -265q-133 -79 -254 -106q51 -36 51 -113q0 -56 -51 -114q-75 -66 -124.5 -121t-49.5 -95q0 -56 72 -56q198 0 619 548l23 -22 q-428 -558 -646 -558q-158 0 -156 153q0 88 69 161t113 112.5t44 70.5q0 14 -10 23q-74 -27 -148 -27q-70 0 -68 38q0 41 115 41q52 0 119 -23q106 41 212 133q142 124 144 245q0 65 -65 63q-83 0 -246.5 -119t-255.5 -243q-106 -142 -430 -610q-22 14 -81 14q-45 0 -92 -14 z" />
<glyph unicode="&#x43b;" horiz-adv-x="1271" d="M-55 232q10 90 48.5 175.5t80.5 128.5q70 69 108 77t53 -12.5t-4 -57.5t-65 -64q-69 -56 -115.5 -136t-59.5 -152t9 -120.5t88 -38.5q31 4 112 76t187 176l227 226l225 228q111 115 219 190.5t168 86.5q-9 -23 -9 -22t2.5 9t0 10.5t-6.5 -22.5l-187 -136 q-94 -71 -182 -163l-172 -178l-175 -182l-165 -165q-64 -65 -106 -99.5t-67.5 -48.5t-48.5 -14q-106 0 -140.5 69t-24.5 159zM664 133q0 207 180 429l378 448q18 -4 83 -6q70 0 101 15q-322 -369 -600 -738q-93 -123 -93 -184q0 -65 65 -65q180 0 608 548l29 -22 q-452 -558 -645 -558q-106 0 -106 133z" />
<glyph unicode="&#x43c;" horiz-adv-x="1759" d="M-57.5 232q12.5 90 51 182t85.5 140q65 69 101 76t45 -19t-11 -65.5t-66 -66.5q-69 -56 -113 -136t-53 -152t15.5 -120.5t90.5 -38.5q27 4 103.5 71.5t172.5 166.5l210 218l218 229l194 193q87 84 139 118l23 -9q26 -13 87 -15q65 0 101 15q-119 -162 -299 -353 t-324 -380q-51 -66 -80.5 -109.5t-29.5 -79.5q0 -65 70 -65q27 0 99 69.5t166 172.5l205 226l216 230q106 109 198 186.5t153 93.5q0 5 -4 -11l4 5v6q4 0 4 2.5t5 2.5q0 -5 -2.5 -5t-2.5 -6h84q70 0 101 15q-322 -369 -599 -738q-92 -123 -92 -184q0 -65 63 -65 q180 0 610 548l27 -22q-452 -558 -646 -558q-106 0 -106 133q0 207 180 429l352 414q-162 -119 -321 -286l-295 -320q-136 -154 -245 -262t-163 -108q-115 0 -115 142q0 106 49 184l102 171l378 425q9 28 -18 6.5t-78 -72.5l-116 -121l-132 -147l-128 -144l-109 -113 l-165 -165q-64 -65 -106 -99.5t-67.5 -48.5t-48.5 -14q-106 0 -143 69t-24.5 159z" />
<glyph unicode="&#x43d;" horiz-adv-x="1325" d="M0 18l189 235l250 309q238 295 238 383q0 61 -61 59q-105 0 -454 -446l-29 22q184 234 249 304q142 153 239 153q115 0 117 -148q0 -106 -56 -207q-9 -18 -27 -44l-43 -62h338l360 443q26 -13 92 -15q70 0 101 15q-322 -369 -601 -738q-92 -123 -92 -184q0 -65 65 -65 q180 0 608 548l29 -22q-452 -558 -646 -558q-106 0 -106 133q0 198 167 411h-333q-79 -114 -192 -262l-204 -264q-27 14 -74 14q-70 0 -124 -14z" />
<glyph unicode="&#x43e;" horiz-adv-x="920" d="M-4 189q0 295 299 581q281 272 531 272q114 0 114 -128q0 -185 -240 -514q13 -13 60 -13q138 0 295 193l27 -22q-162 -207 -330 -207q-23 0 -79 18q-299 -369 -531 -369q-149 0 -146 189zM61 119q0 -87 87 -87q194 0 480 364q-32 32 -34 79q0 133 110 133q27 0 52 -23 q142 223 142 333q0 88 -77 86q-153 0 -454.5 -363.5t-305.5 -521.5z" />
<glyph unicode="&#x43f;" horiz-adv-x="1311" d="M0 18l439 544q238 300 238 383q0 61 -61 59q-101 0 -454 -446l-29 22l249 304q149 153 239 153q115 0 117 -148q0 -106 -56 -207q330 355 492 355q138 0 140 -144q0 -157 -145 -311l-285 -296q-110 -115 -110 -189q0 -65 70 -65q189 0 603 548l27 -22 q-428 -558 -639 -558q-115 0 -117 142q0 175 144 342q132 153 263 290q106 110 106 171q0 56 -61 54q-176 0 -479 -371l-493 -610q-27 14 -74 14q-70 0 -124 -14z" />
<glyph unicode="&#x440;" horiz-adv-x="1100" d="M-945 -950q211 264 1107 1508l-29 22l483 608q97 0 176 61q-207 -245 -484 -617q419 405 614 405q133 0 133 -180q0 -249 -272 -526q-250 -255 -432 -291q221 10 465 156t419 384l27 -22q-427 -558 -1042 -558q-170 0 -168 137q0 52 18 83q-158 -211 -822 -1170 q-22 14 -78 14q-70 0 -115 -14zM92 133q0 -97 106 -97q166 0 477 351t311 545q0 69 -72 67q-162 0 -486 -322q-338 -331 -336 -544z" />
<glyph unicode="&#x441;" horiz-adv-x="783" d="M45 272q0 286 297 538q268 225 488 227q110 0 110 -105q0 -88 -59.5 -162.5t-124.5 -74.5q-79 0 -79 75q0 69 101.5 124.5t101.5 77.5q0 32 -50 32q-157 0 -412.5 -299.5t-255.5 -506.5q0 -166 137 -166q198 0 619 548l27 -22q-427 -558 -655 -558q-245 0 -245 272z" />
<glyph unicode="&#x442;" horiz-adv-x="1860" d="M0 18l439 544q238 300 238 383q0 61 -61 59q-101 0 -454 -446l-29 22l249 304q149 153 239 153q115 0 117 -148q0 -106 -56 -207q330 355 488 355q119 0 119 -148q0 -97 -58 -207q308 355 488 355q137 0 137 -139q0 -149 -142 -318q-22 -26 -281 -294 q-110 -115 -110 -189q0 -65 63 -65q194 0 610 548l27 -22q-428 -558 -641 -558q-120 0 -120 142q0 180 144 342l266 290q106 110 108 171q0 56 -61 54q-180 0 -484 -371q-153 -185 -475 -610q-26 14 -83 14q-69 0 -119 -14l418 536q255 321 255 386q0 66 -61 64 q-171 0 -479 -376l-493 -610q-27 14 -74 14q-70 0 -124 -14z" />
<glyph unicode="&#x443;" horiz-adv-x="1325" d="M-536 -990q0 189 347 484q326 276 637 391q128 207 299 453q-304 -338 -461 -338q-115 0 -115 142q0 184 134 337l271 295q101 106 101 176q0 56 -61 54q-123 0 -454 -446l-29 22q351 457 488 457q142 0 144 -144q0 -148 -149 -313l-278 -294q-111 -115 -113 -185 q0 -69 70 -69q97 0 285 180q162 152 273 308q245 351 364 499h194q-221 -263 -774 -1064q216 61 418 216q230 175 405 409l30 -22q-203 -259 -413.5 -415.5t-468.5 -239.5l-300 -400q-202 -273 -407 -446t-319 -173q-115 0 -118 126zM-484 -1010q0 -66 66 -63q92 0 229 119 q221 194 607 783q-294 -124 -589 -383q-313 -276 -313 -456z" />
<glyph unicode="&#x444;" horiz-adv-x="1712" d="M-396 -1082l866 1235q-180 -153 -328 -153q-149 0 -146 189q0 295 299 581q285 272 531 272q114 0 114 -128q0 -57 -18 -126l538 724q369 470 563 621l56 -9q-124 -97 -391 -466l-514 -708l-31 -48q167 138 308 140q149 0 149 -189q0 -295 -300 -581q-175 -166 -332 -232 q216 10 456 154q246 148 419 386l27 -22q-428 -558 -1040 -558l32 9q-45 -9 -92 -9q-115 0 -115 128q0 23 4 56l-825 -1235q-14 9 -72 9q-97 0 -158 -40zM61 119q0 -87 87 -87q198 0 480 364l128 189q142 218 142 333q0 88 -77 86q-153 0 -457 -363q-299 -369 -303 -522z M695 124q0 -88 79 -88q153 0 457 364q299 370 303 522q0 88 -87 88q-194 0 -466 -346l-193 -286q-93 -162 -93 -254z" />
<glyph unicode="&#x445;" horiz-adv-x="1127" d="M-27 88q0 70 48.5 125t102.5 55q74 0 74 -74q0 -79 -56 -124q101 31 351 382q69 97 101 146q119 185 119 286q0 120 -85 120q-120 0 -466 -446l-29 22q342 457 495 457q157 0 155 -231q0 -115 -49 -216q330 452 528 452q84 0 84 -84q0 -60 -51 -106t-107 -46 q-70 0 -68 65q0 45 41 87q-171 -56 -423 -434l-135 -211q-61 -93 -59 -176q0 -105 106 -105q185 0 612 548l23 -22q-428 -558 -639 -558q-189 0 -189 216q0 92 63 223q-171 -255 -300 -369q-83 -74 -164 -74q-83 0 -83 92z" />
<glyph unicode="&#x446;" horiz-adv-x="1289" d="M133 580q351 457 488 457q142 0 144 -144q0 -110 -85.5 -220.5t-184.5 -216.5l-185 -198q-85 -92 -85 -161q0 -65 70 -65q166 0 558 488l400 499q27 -13 88 -15q65 0 101 15l-268 -333l-326 -405q-92 -119 -92 -184q0 -32 29 -48.5t63 -16.5q88 22 237.5 173t325.5 375 l27 -22q-128 -166 -257.5 -304.5t-240.5 -201.5q0 -230 -74 -325.5t-148 -95.5q-61 0 -85.5 32.5t-24.5 68.5q0 79 54 136.5t168 135.5q-52 0 -89 33t-37 96q0 105 43 205q-290 -338 -461 -338q-115 0 -115 142q0 184 142 342l263 290q106 119 106 176q0 56 -61 54 q-124 0 -459 -446zM641 -259q9 -36 41 -36q18 0 50.5 30.5t67.5 79t64 102.5t43 110q-65 -27 -117 -73t-89 -90t-53 -79t-7 -44z" />
<glyph unicode="&#x447;" horiz-adv-x="1289" d="M133 580q351 457 488 457q142 0 144 -144q0 -51 -30.5 -94t-64.5 -85l-64 -82q-30 -42 -30 -78q0 -32 22.5 -55.5t60.5 -23.5q129 0 387 285l207 259q27 -13 88 -15q65 0 101 15l-268 -333l-326 -405q-92 -119 -92 -184t65 -65q189 0 603 548l27 -22q-427 -558 -645 -558 q-61 0 -88 48.5t-22.5 125t43.5 168.5t114 178l13 16q-128 -93 -216 -93q-60 0 -122 34t-62 108q0 45 32.5 94.5t73.5 95.5l75 89q35 43 35 86q0 56 -61 54q-124 0 -459 -446z" />
<glyph unicode="&#x448;" horiz-adv-x="1795" d="M133 580q351 457 488 457q142 0 144 -144q0 -153 -149 -313l-142 -149l-136 -145q-111 -120 -113 -189q0 -65 70 -65q83 0 204.5 103t321.5 353l468 531q27 -13 88 -15q65 0 101 15q-119 -162 -299 -353t-322 -380q-51 -66 -80.5 -109.5t-29.5 -79.5q0 -65 67 -65 q162 0 554 488l400 499q28 -13 88 -15q66 0 102 15l-270 -333l-324 -405q-93 -119 -93 -184t65 -65q190 0 604 548l26 -22q-427 -558 -643 -558q-101 0 -101 133q0 97 45 205q-291 -338 -461 -338q-115 0 -115 142q0 60 13.5 104t42.5 96q-290 -342 -461 -342 q-115 0 -115 142q0 184 142 342l263 290q106 119 106 176q0 56 -61 54q-124 0 -459 -446z" />
<glyph unicode="&#x449;" horiz-adv-x="1795" d="M133 580q351 457 488 457q142 0 144 -144q0 -153 -149 -313l-142 -149l-136 -145q-111 -120 -113 -189q0 -65 70 -65q83 0 204.5 103t321.5 353l468 531q27 -13 88 -15q65 0 101 15q-119 -162 -299 -353t-322 -380q-51 -66 -80.5 -109.5t-29.5 -79.5q0 -65 67 -65 q162 0 554 488l400 499q28 -13 88 -15q66 0 102 15l-270 -333l-324 -405q-93 -119 -93 -184t65 -65q28 0 62.5 12t91.5 48q180 128 450 488l26 -22q-141 -158 -253.5 -296t-222.5 -206q-10 -207 -84 -313.5t-144 -106.5q-60 0 -85 32.5t-25 68.5q0 79 50.5 134t161.5 133 q-14 -4 -41 -4q-101 0 -101 133q0 97 45 205q-291 -338 -461 -338q-115 0 -115 142q0 60 13.5 104t42.5 96q-290 -342 -461 -342q-115 0 -115 142q0 184 142 342l263 290q106 119 106 176q0 56 -61 54q-124 0 -459 -446zM1184 -254q8 -36 42 -36q18 0 53 30t71 78.5 t68.5 105t46.5 112.5q-52 -27 -106 -64t-95.5 -78.5t-67.5 -80t-12 -67.5z" />
<glyph unicode="&#x44a;" horiz-adv-x="1311" d="M148 572q0 4 27 39t69 81l86 90q44 44 70 66l-22 23q-14 31 -14 69q0 46 27 67t70 21q36 0 57.5 -21t21.5 -49q0 -36 -21.5 -50.5t-21.5 -41.5q0 -22 32.5 -41t82.5 -15q92 4 183 68.5t123 115.5l4 -4l23 29q27 -13 92 -15q65 0 101 15l-312 -369l-286 -369 q-45 -65 -68.5 -106.5t-23.5 -91.5q9 -61 83 -61q142 0 367 246q52 52 88 96q-23 14 -46 41q-26 31 -34 81t4 98t44 82t88 38q114 -9 137 -137q0 -106 -63 -216q79 -5 163.5 46t176.5 170l22 -23q-74 -96 -177.5 -166t-204.5 -61q-45 -69 -115 -137q-221 -180 -450 -180 q-92 4 -126 97q-18 115 30.5 235t140.5 230l230 286q-52 -31 -108.5 -54.5t-107.5 -23.5q-66 0 -104 22t-63 43q-70 -61 -131.5 -132t-97.5 -123q-28 -31 -36 -31q-10 0 -10 23zM934 507.5q2 -41.5 29 -79.5q13 -28 41 -41q121 151 108 229q-10 61 -88 61q-23 0 -44.5 -24.5 t-34.5 -64t-11 -81z" />
<glyph unicode="&#x44b;" d="M-36 97q-18 115 29 235t140 230l369 457q27 -13 92 -15q65 0 101 15l-311 -369l-287 -369q-45 -65 -69 -106.5t-24 -91.5q10 -61 84 -61q153 14 375.5 251.5t204.5 342.5q-9 61 -88 61l-87 -22l22 54q14 -5 29 -5h46h8q10 0 23 -4q65 -41 159.5 -29.5t196 59.5t193.5 127 t148 167q57 -18 120 -20q70 0 101 15q-322 -369 -599 -738q-92 -123 -92 -184q0 -65 66 -65q180 0 607 548l27 -22q-452 -558 -646 -558q-106 0 -106 133q0 207 180 429l232 291q-27 -32 -85.5 -75.5t-127 -78.5t-145 -53t-146.5 -5q18 -4 34 -74q9 -185 -184.5 -374 t-474.5 -202q-83 13 -115 106z" />
<glyph unicode="&#x44c;" horiz-adv-x="846" d="M-36 97q-18 115 29 235t140 230l369 457q27 -13 92 -15q65 0 101 15l-311 -369l-287 -369q-45 -65 -69 -106.5t-24 -91.5q10 -61 84 -61q153 14 375.5 251.5t204.5 342.5q-9 61 -88 61q-22 0 -43.5 -24.5t-35 -64t-11 -81t29.5 -79.5q31 -46 89.5 -61.5t129.5 2.5t150 73 t153 152l22 -22q-52 -70 -125 -130t-154 -90t-156 -22t-132 75q-27 31 -33.5 81t4.5 98t43.5 82t86.5 38q115 -9 140 -137q9 -185 -184.5 -374t-474.5 -202q-83 13 -115 106z" />
<glyph unicode="&#x44d;" horiz-adv-x="1131" d="M61 475q427 558 652 558q245 0 245 -273q0 -285 -294 -540q-128 -110 -250 -164q216 14 457 151q245 149 418 387l29 -22q-418 -545 -1014 -558q-66 -18 -128 -18q-111 0 -111 105q0 88 59.5 162.5t125.5 74.5q78 0 76 -75q0 -69 -101 -124.5t-101 -77.5q0 -32 52 -34 q157 0 409 299q83 92 139 176h-6q-61 -32 -97 -32q-41 0 -109.5 27t-111.5 27q-60 0 -128 -40q-9 0 -9 4q101 79 165 79q44 0 114 -28t108 -28q32 0 68 13q13 5 24 12q102 166 102 299q0 166 -140 164q-198 0 -616 -547z" />
<glyph unicode="&#x44e;" horiz-adv-x="1716" d="M0 18l189 235l250 309q238 295 238 383q0 61 -61 59q-105 0 -454 -446l-29 22q184 234 249 304q142 153 239 153q115 0 117 -148q0 -106 -56 -207q-9 -18 -27 -44l-43 -62h310q70 97 169 194q281 272 531 272q115 0 115 -128q0 -185 -239 -514q14 -13 59 -13 q137 0 295 193l29 -22q-162 -207 -333 -207q-22 0 -79 18q-299 -369 -529 -369q-148 0 -148 189q0 180 110 355h-308q-79 -114 -192 -262l-204 -264q-27 14 -74 14q-70 0 -124 -14zM857 119q0 -87 88 -87q193 0 479 364q-31 32 -34 79q0 133 113 133q27 0 49 -23 q144 223 144 333q0 88 -78 86q-153 0 -454.5 -363.5t-306.5 -521.5z" />
<glyph unicode="&#x44f;" horiz-adv-x="1271" d="M-27 229.5q9 87.5 40.5 173t69.5 128.5q45 56 82 59.5t53 -14.5t7 -50.5t-54 -59.5q-65 -56 -107 -131.5t-51 -145.5t17 -118.5t89 -52.5q32 0 88 55t124.5 131.5t147.5 153t158 112.5q-97 0 -122 106q-40 166 140 322q171 153 349 153q78 0 92 -70q18 -65 -14 -133 l140 162q13 -4 83 -6q65 0 101 15l-312 -369l-288 -369q-93 -128 -93 -184q0 -65 65 -65q180 0 608 548l29 -22q-447 -558 -645 -558q-106 0 -106 133q0 193 142 382q-36 -18 -77 -31q-56 -27 -124.5 -71t-134.5 -109l-134 -138q-55 -60 -96.5 -99.5t-78.5 -57.5t-73 -13 q-79 4 -101.5 75t-13.5 158.5zM576 536q4 -46 70 -48q148 0 299 203l70 105q76 120 54 185q-9 52 -65 52q-111 0 -275 -203q-171 -207 -153 -294z" />
<glyph unicode="&#x451;" horiz-adv-x="735" d="M9 230q0 285 313 558q286 249 492 249q93 0 93 -83q0 -171 -639 -448q-167 -225 -167 -335q0 -137 133 -139q216 0 637 548l27 -22q-428 -558 -664 -558q-225 0 -225 230zM299 554q563 272 563 409q0 45 -52 47q-83 0 -261 -171q-153 -148 -250 -285zM598 1197 q0 56 51 104.5t116 48.5q74 0 70 -79q0 -56 -50.5 -105.5t-120.5 -49.5t-66 81zM981 1197q0 56 50.5 104.5t116.5 48.5q69 0 69 -79q0 -56 -50.5 -105.5t-115.5 -49.5q-75 0 -70 81z" />
<glyph unicode="&#x2000;" horiz-adv-x="1596" />
<glyph unicode="&#x2001;" horiz-adv-x="3193" />
<glyph unicode="&#x2002;" horiz-adv-x="1596" />
<glyph unicode="&#x2003;" horiz-adv-x="3193" />
<glyph unicode="&#x2004;" horiz-adv-x="1064" />
<glyph unicode="&#x2005;" horiz-adv-x="798" />
<glyph unicode="&#x2006;" horiz-adv-x="532" />
<glyph unicode="&#x2007;" horiz-adv-x="532" />
<glyph unicode="&#x2008;" horiz-adv-x="399" />
<glyph unicode="&#x2009;" horiz-adv-x="638" />
<glyph unicode="&#x200a;" horiz-adv-x="177" />
<glyph unicode="&#x2010;" d="M277 709q45 61 166 144q158 110 252 110q79 0 217.5 -78.5t221.5 -78.5q119 0 252 112q16 -2 16 -29q-221 -194 -356 -194q-88 0 -233 72t-228 72q-137 0 -281 -144q-27 0 -27 14z" />
<glyph unicode="&#x2011;" d="M277 709q45 61 166 144q158 110 252 110q79 0 217.5 -78.5t221.5 -78.5q119 0 252 112q16 -2 16 -29q-221 -194 -356 -194q-88 0 -233 72t-228 72q-137 0 -281 -144q-27 0 -27 14z" />
<glyph unicode="&#x2012;" d="M277 709q45 61 166 144q158 110 252 110q79 0 217.5 -78.5t221.5 -78.5q119 0 252 112q16 -2 16 -29q-221 -194 -356 -194q-88 0 -233 72t-228 72q-137 0 -281 -144q-27 0 -27 14z" />
<glyph unicode="&#x2013;" horiz-adv-x="1593" d="M277 686q69 79 175 158q149 106 243 106q101 0 272 -83.5t277 -83.5q153 0 322 124q29 0 29 -18q-254 -239 -416 -239q-115 0 -288 82t-270 82q-79 0 -174.5 -50.5t-138.5 -99.5q-9 -5 -18 -5q-13 0 -13 27z" />
<glyph unicode="&#x2014;" horiz-adv-x="2340" d="M277 709q267 299 663 301q154 0 487 -109t508 -109q216 0 387 110q27 0 27 -13q0 -14 -9 -18q-234 -176 -547 -176q-175 0 -509 99t-510 99q-254 0 -479 -216q-18 0 -18 32z" />
<glyph unicode="&#x2018;" horiz-adv-x="625" d="M299 1618q5 148 167 294q132 120 272 167q22 0 22 -13q-4 -16 -18 -21q-312 -137 -378 -362q41 101 124 101q74 0 74 -83q0 -70 -55 -131.5t-111 -61.5q-101 0 -97 110z" />
<glyph unicode="&#x2019;" horiz-adv-x="1161" d="M673 1526q4 13 18 18q326 110 400 332q-40 -87 -123 -87q-75 0 -75 87q0 75 61 132.5t119 57.5q88 -3 88 -122q-13 -142 -185 -281q-141 -115 -281 -151q-22 0 -22 14z" />
<glyph unicode="&#x201a;" horiz-adv-x="1161" d="M673 -263q0 9 18 13q331 124 400 338q-36 -88 -123 -88q-75 0 -75 88q0 74 61 131.5t119 57.5q88 0 88 -119q-13 -149 -185 -282q-141 -110 -281 -153q-22 9 -22 14z" />
<glyph unicode="&#x201c;" horiz-adv-x="726" d="M299 1618q5 148 167 294q132 120 272 167q22 0 22 -13q-4 -16 -18 -21q-312 -137 -378 -362q41 101 124 101q74 0 74 -83q0 -70 -55 -131.5t-111 -61.5q-101 0 -97 110zM632 1618q5 148 164 294q133 120 273 167q22 0 22 -13q-4 -16 -18 -21q-313 -137 -378 -362 q41 101 119 101q75 0 79 -83q0 -70 -55 -131.5t-114 -61.5q-96 0 -92 110z" />
<glyph unicode="&#x201d;" horiz-adv-x="1532" d="M673 1498q4 14 18 18q326 111 400 331q-40 -87 -123 -87q-75 0 -75 87q0 75 61 132t119 57q88 0 88 -114q-13 -149 -185 -286q-141 -115 -281 -153q-22 0 -22 15zM1042 1498q4 14 22 18q322 115 401 331q-61 -87 -129 -87q-69 0 -69 87q0 75 59.5 132t120.5 57 q87 0 87 -114q-13 -149 -184 -286q-142 -115 -286 -153q-22 0 -22 15z" />
<glyph unicode="&#x201e;" horiz-adv-x="1532" d="M673 -263q0 9 18 13q331 124 400 338q-36 -88 -123 -88q-75 0 -75 88q0 74 61 131.5t119 57.5q88 0 88 -119q-13 -149 -185 -282q-141 -110 -281 -153q-22 9 -22 14zM1042 -263q4 4 22 13q326 128 401 338q-52 -88 -129 -88q-69 0 -69 88q0 74 59.5 131.5t120.5 57.5 q87 0 87 -119q-13 -149 -184 -282q-142 -114 -286 -153q-22 9 -22 14z" />
<glyph unicode="&#x2020;" horiz-adv-x="1671" d="M230 439l562 976q45 83 47 119q0 23 -18 36q97 23 160 131q27 41 97 160q-142 0 -251 -34t-154 -34q-93 0 -93 97q28 83 158 83q36 0 128 -37t234 -37q0 5 66 106q56 87 92 195t42 122q41 79 147 79q51 -9 51 -57q0 -22 -15 -49q-75 -70 -239 -290l-65 -106q142 0 260 37 t161 37q72 0 72 -92q-14 -92 -151 -92q-45 0 -130.5 36t-234.5 36q-40 -75 -96 -160q-27 -45 -27 -79q0 -45 31 -52q-83 -31 -166 -155l-621 -976h-47z" />
<glyph unicode="&#x2021;" horiz-adv-x="2031" d="M392 1116q18 83 157 81q36 0 126 -36t232 -36l162 272q27 45 27 77q0 40 -32 47q92 23 162 124l151 220q-149 0 -255.5 -33.5t-149.5 -33.5q-92 0 -92 96q22 84 157 84q36 0 126 -37t234 -37q23 31 68 105q56 93 91 198.5t44 118.5q45 84 137 84q45 -5 47 -50 q0 -45 -108 -175l-146 -176q-22 -27 -70 -105q149 0 263.5 37t157.5 37q77 0 77 -92q-18 -93 -156 -93q-40 0 -128 36t-232 36q-74 -115 -128 -220q-27 -45 -29 -79q0 -36 29 -45q-88 -18 -162 -131q-32 -44 -180 -265q148 0 265 36t160 36q75 0 72 -90q-18 -92 -151 -92 q-44 0 -133 36t-231 36q-45 -65 -128 -198q-56 -88 -95.5 -198.5t-48.5 -123.5q-41 -74 -133 -74q-41 13 -43 51q0 52 106 169q137 158 148 176l129 198q-149 0 -253.5 -34t-151.5 -34q-92 0 -92 97z" />
<glyph unicode="&#x2022;" horiz-adv-x="1035" d="M461 621q0 88 73.5 164.5t160.5 76.5q106 0 106 -110q0 -39 -9 -66q-22 -70 -88.5 -120.5t-131.5 -50.5q-111 0 -111 106z" />
<glyph unicode="&#x2026;" horiz-adv-x="1338" d="M22 88q0 13 10 49q51 137 180 140q87 0 87 -97q0 -11 -9 -47q-52 -133 -180 -133q-88 0 -88 88zM520 88q0 13 11 49q52 137 178 140q87 0 87 -97q0 -11 -8 -47q-52 -133 -180 -133q-88 0 -88 88zM1019 88q0 13 9 49q52 137 180 140q88 0 86 -97q0 -11 -9 -47 q-52 -133 -178 -133q-88 0 -88 88z" />
<glyph unicode="&#x202f;" horiz-adv-x="638" />
<glyph unicode="&#x2030;" horiz-adv-x="3404" d="M92 -79l1724 2199q-347 -374 -642 -448q-157 -264 -373 -455q-239 -211 -414 -213q-221 0 -221 258q0 56 10 110q51 304 384 616t583 312q189 0 180 -230q-5 -142 -115 -346q194 60 459 299q198 184 333 360q9 -9 36 -9q34 0 61 13l-1913 -2466q-4 14 -36 14 q-26 0 -56 -14zM286 1271q0 -225 124 -225q119 0 323.5 184.5t357.5 423.5q-18 -5 -58 -5q-239 0 -232 250q5 137 92 243q-207 -153 -391.5 -415t-215.5 -456zM848 1890q0 -198 189 -198q27 0 83 9q75 119 97 180q41 101 45 203q5 170 -110 168q-128 0 -216 -117t-88 -245z M884 254q0 45 9 106q45 295 387 610t596 315q172 0 169 -194q0 -36 -9 -97q-40 -281 -360 -634q-322 -369 -564 -369q-226 0 -228 263zM1004 259q0 -111 15 -153q23 -74 111 -74q180 0 493.5 355t358.5 664q0 193 -101 193q-211 0 -523 -354t-354 -631zM1944 250q0 56 9 110 q52 295 390.5 610t592.5 315q171 0 169 -194q0 -36 -9 -97q-40 -281 -358 -634q-326 -369 -571 -369q-221 0 -223 259zM2066 259q0 -225 123 -227q180 0 484 350q324 365 369 669q0 193 -101 193q-212 0 -523.5 -354t-351.5 -631z" />
<glyph unicode="&#x2039;" horiz-adv-x="942" d="M346 621q318 70 669 416q9 9 22 9v-22q-202 -268 -483 -416q18 -46 18 -142q0 -102 -36 -259q-5 -18 -21 -18q-9 5 -9 27q9 32 9 101q0 221 -169 304z" />
<glyph unicode="&#x203a;" horiz-adv-x="920" d="M137 207v23q203 267 484 416q-13 31 -23 142q0 198 48 272q4 4 13 4q5 -4 5 -27q-9 -65 -9 -101q0 -220 175 -304q-312 -70 -672 -416q-10 -9 -21 -9z" />
<glyph unicode="&#x2044;" horiz-adv-x="3021" d="M83 -74l1922 2452h87l-1926 -2452q-8 9 -33 9q-14 0 -50 -9z" />
<glyph unicode="&#x205f;" horiz-adv-x="798" />
<glyph unicode="&#x2122;" horiz-adv-x="3334" d="M1289 2167l47 155h806l47 -155q0 -9 -22 -16q-70 124 -356 126v-659q0 -153 11.5 -187t58.5 -34h110v-43h-479v43h115q40 0 40 36v844q-184 0 -246 -26t-103 -95q-8 4 -29 11zM2268 2286v36h304l348 -752l342 752h264v-36h-61q-41 0 -41 -43v-625q0 -153 11.5 -187 t56.5 -34h74v-43h-387v43h61q40 0 40 63v716h-26l-370 -817q-8 9 -386 817h-28v-452q0 -230 -4 -190q14 -137 83 -137h68v-43h-299v43h60q41 0 41 32v645q0 212 -119 212h-32z" />
<glyph unicode="&#x221a;" horiz-adv-x="173" d="M-742 -295q0 23 24 27q322 133 594 374q221 198 432 474l30 -18q-203 -276 -439 -483q-286 -255 -603 -383q-36 0 -38 9z" />
<glyph unicode="&#x221e;" horiz-adv-x="1035" d="M-83 142q0 171 144 342l441 535q36 -13 96 -15q57 0 97 15l-612 -733q-105 -110 -105 -189q0 -65 62 -65q172 0 563 488l396 499q27 -13 88 -15q65 0 105 15q-321 -369 -598 -738q-88 -115 -88 -184q0 -65 61 -65q180 0 607 548l23 -22q-414 -558 -639 -558 q-106 0 -106 133q0 92 41 205q-291 -338 -461 -338q-115 0 -115 142z" />
<glyph unicode="&#x2248;" horiz-adv-x="173" d="M-531 -101q5 13 25 22q452 185 814 659l30 -18q-365 -461 -831 -677q-36 0 -38 14z" />
<glyph unicode="&#x22f2;" horiz-adv-x="173" d="M-531 -101q5 13 25 22q452 185 814 659l30 -18q-365 -461 -831 -677q-36 0 -38 14z" />
<glyph unicode="&#x2260;" horiz-adv-x="1161" d="M-299 317q319 412 927 698l-48 -61q-548 -272 -852 -659zM-119 18l1105 1485q510 695 697 695q77 0 77 -78q0 -167 -248 -475q-268 -338 -747 -617l-245 -346q294 355 504 355q137 0 137 -144q0 -153 -146 -313q-61 -69 -281 -294q-111 -115 -113 -189q0 -65 65 -65 q194 0 608 548l29 -22q-427 -558 -646 -558q-115 0 -115 142q0 180 142 342l270 296q99 104 99 165q0 56 -54 54q-303 0 -958 -981q-27 14 -83 14q-52 0 -97 -14zM796 1091q419 263 682 581q241 290 241 452q0 40 -43 43q-70 0 -220 -185q-32 -40 -243 -333z" />
<glyph unicode="&#x2264;" horiz-adv-x="1136" />
<glyph unicode="&#x25ca;" horiz-adv-x="18450" />
<glyph unicode="&#xe000;" horiz-adv-x="1040" d="M0 1040h1040v-1040h-1040v1040z" />
<glyph unicode="&#xfb01;" horiz-adv-x="1131" d="M542 133q0 207 180 429l369 457q27 -13 92 -15q70 0 102 15q-322 -369 -599 -738q-92 -123 -92 -184q0 -65 65 -65q180 0 608 548l27 -22q-453 -558 -646 -558q-106 0 -106 133zM1438 1433q0 57 50.5 105t113.5 48q70 0 70 -70v-8q0 -52 -50.5 -103t-120.5 -51 q-64 0 -64 65q0 7 1 14zM-1004 -1082l1065 1510q-45 56 -47 139q0 101 78 101q61 0 61 -96l700 940q544 695 709 695q74 0 74 -79q-5 -166 -259 -474q-355 -428 -810 -704l-396 -586q52 -36 142 -38q220 0 425 254l22 -22q-198 -263 -452 -263q-106 0 -155 43l-927 -1389 q-14 9 -74 9q-97 0 -156 -40zM608 1024q382 234 742 659q241 279 245 450q0 41 -43 43q-96 0 -474 -518z" />
<glyph unicode="&#xfb02;" horiz-adv-x="1264" d="M612 189q0 162 153 369l-25 22l1080 1416q23 -14 63 -14h6q76 0 147 50l-1170 -1557q-180 -250 -180 -327q0 -110 111 -112q184 0 607 544l29 -22q-443 -558 -646 -558q-175 0 -175 189zM-1004 -1082l1065 1510q-45 56 -47 139q0 101 78 101q61 0 61 -96l700 940 q544 695 709 695q74 0 74 -79q-5 -166 -259 -474q-355 -428 -810 -704l-396 -586q52 -36 142 -38q220 0 425 254l22 -22q-198 -263 -452 -263q-106 0 -155 43l-927 -1389q-14 9 -74 9q-97 0 -156 -40zM608 1024q382 234 742 659q241 279 245 450q0 41 -43 43 q-96 0 -474 -518z" />
</font>
</defs>
</svg>
