<?xml version="1.0" standalone="no"?>
<!DOCTYPE svg PUBLIC "-//W3C//DTD SVG 1.1//EN" "http://www.w3.org/Graphics/SVG/1.1/DTD/svg11.dtd" >
<svg xmlns="http://www.w3.org/2000/svg">
<metadata>
This is a custom SVG webfont generated by Font Squirrel.
Copyright   : aAssuan Arsenal Company 1997 FAX 0959243775 eMail arsenalitcomsksu Phone 0959245811 Design and Featuring WChufarofsky  MSlutsker
</metadata>
<defs>
<font id="aAssuanMedium" horiz-adv-x="1132" >
<font-face units-per-em="2048" ascent="1638" descent="-410" />
<missing-glyph horiz-adv-x="634" />
<glyph unicode=" "  horiz-adv-x="634" />
<glyph unicode="&#x09;" horiz-adv-x="634" />
<glyph unicode="&#xa0;" horiz-adv-x="634" />
<glyph unicode="!" horiz-adv-x="651" d="M100 1491h455l-49 -735q-4 -72 -11.5 -125t-24.5 -88t-51 -52.5t-91 -17.5t-91 17.5t-51.5 52.5t-24.5 88t-11 125zM150 164q0 53 6 86t25.5 51t54 24.5t92.5 6.5q57 0 92 -6.5t54.5 -24.5t25.5 -51t6 -86q0 -59 -6 -95t-25.5 -55.5t-54.5 -25.5t-92 -6t-92 6t-54.5 25.5 t-25.5 55t-6 95.5z" />
<glyph unicode="&#x22;" horiz-adv-x="704" d="M80 944v547h203v-547h-203zM424 944v547h199v-547h-199z" />
<glyph unicode="#" d="M51 422l25 203h217l29 245h-216l23 203h215l51 418h168l-51 -418h186l50 418h163l-45 -418h217l-24 -203h-217l-31 -245h219l-26 -203h-218l-47 -422h-168l50 422h-187l-49 -422h-164l47 422h-217zM459 625h186l29 245h-187z" />
<glyph unicode="$" d="M102 1087q0 342 334 420v115h266v-115q94 -20 177.5 -58t142.5 -101v-342h-305v30q0 195 -150 195q-68 0 -109.5 -38t-41.5 -101q0 -45 20.5 -75t55 -51.5t80.5 -37.5l100 -35q94 -35 164.5 -72t117.5 -88t70 -121.5t23 -175.5q0 -180 -91.5 -301t-253.5 -151v-117h-266 v115q-96 20 -180 60t-150 99v375h314v-29q0 -215 160 -215q66 0 106.5 45t40.5 113q0 84 -65.5 132t-200.5 102q-88 33 -155.5 69.5t-113 84.5t-68 113.5t-22.5 155.5z" />
<glyph unicode="%" horiz-adv-x="1554" d="M53 1067v139q0 162 65.5 223.5t235.5 61.5t236.5 -62.5t66.5 -222.5v-139q0 -158 -67.5 -219.5t-235.5 -61.5t-234.5 59.5t-66.5 221.5zM197 0l903 1491h254l-903 -1491h-254zM272 1034q0 -57 18.5 -79.5t63.5 -22.5q47 0 66.5 23.5t19.5 78.5v211q0 98 -86 98 q-82 0 -82 -98v-211zM895 283v139q0 156 67.5 220.5t233.5 64.5q168 0 234.5 -64.5t66.5 -220.5v-139q0 -158 -65.5 -220.5t-235.5 -62.5q-168 0 -234.5 62.5t-66.5 220.5zM1114 246q0 -100 82 -101q45 0 64.5 25t19.5 76v209q0 55 -19.5 79.5t-64.5 24.5t-63.5 -23.5 t-18.5 -80.5v-209z" />
<glyph unicode="&#x26;" horiz-adv-x="1280" d="M115 442q0 143 51 233.5t170 123.5q-106 53 -153.5 132t-47.5 189q0 182 128 292t351 110q127 0 250 -39t226 -113v-227h-320q0 29 -31.5 55.5t-91.5 26.5q-68 0 -106.5 -36t-38.5 -126q0 -80 45 -119t143 -39h90v80h332v-80h74v-262h-74v-643h-498q-274 0 -386.5 103.5 t-112.5 338.5zM479 469q0 -104 43 -144t158 -40h100v358h-118q-102 0 -142.5 -38t-40.5 -136z" />
<glyph unicode="'" horiz-adv-x="346" d="M78 862v547h188v-547h-188z" />
<glyph unicode="(" horiz-adv-x="776" d="M119 641q0 260 105.5 497.5t328.5 479.5l156 -111q-127 -195 -192.5 -419t-65.5 -447q0 -221 65.5 -444t192.5 -420l-156 -111q-221 236 -327.5 477.5t-106.5 497.5z" />
<glyph unicode=")" horiz-adv-x="776" d="M66 -223q127 195 193.5 418t66.5 446q0 227 -66.5 450.5t-193.5 415.5l157 111q223 -242 329.5 -480.5t106.5 -496.5q0 -256 -106.5 -496.5t-329.5 -478.5z" />
<glyph unicode="*" horiz-adv-x="866" d="M86 1067l186 107l-186 108l70 131l196 -104v213h156v-213l192 104l74 -131l-192 -108l192 -107l-74 -129l-192 106v-219h-156v219l-196 -106z" />
<glyph unicode="+" horiz-adv-x="1384" d="M219 518v201h373v373h203v-373h372v-201h-372v-373h-203v373h-373z" />
<glyph unicode="," horiz-adv-x="641" d="M143 164q0 53 6.5 86t26 51t54 24.5t92.5 6.5q57 0 92 -6.5t54 -26.5t25.5 -58t6.5 -102q0 -59 -25.5 -117.5t-67.5 -104.5t-97.5 -74.5t-114.5 -28.5v82q23 0 52 29.5t29 56.5q-41 0 -66.5 6t-40.5 25.5t-20.5 55t-5.5 95.5z" />
<glyph unicode="-" horiz-adv-x="641" d="M90 504v241h461v-241h-461z" />
<glyph unicode="." horiz-adv-x="641" d="M143 164q0 53 6.5 86t26 51t54 24.5t92.5 6.5q57 0 92 -6.5t54 -24.5t25.5 -51t6.5 -86q0 -59 -6.5 -95t-25.5 -55.5t-54 -25.5t-92 -6t-92 6t-54.5 25.5t-26 55t-6.5 95.5z" />
<glyph unicode="/" horiz-adv-x="688" d="M-100 -186l557 1677h284l-559 -1677h-282z" />
<glyph unicode="0" d="M100 438v551v68q0 231 105.5 347t359.5 116q131 0 220 -29t144.5 -87t79 -144t23.5 -203v-619q0 -115 -23.5 -203t-77.5 -147t-143.5 -89t-222.5 -30q-256 0 -360.5 120t-104.5 349zM422 492q0 -119 32.5 -170.5t110.5 -51.5t113 51.5t35 170.5v507q0 119 -35 169.5 t-113 50.5t-110.5 -51.5t-32.5 -168.5v-507z" />
<glyph unicode="1" d="M324 0v250q35 0 63.5 37t28.5 119v690q0 98 -22.5 126.5t-49.5 28.5v240q49 0 104.5 3t108.5 7t99 9.5t79 11.5v-1116q0 -82 23.5 -119t56.5 -37v-250h-491z" />
<glyph unicode="2" d="M92 0v285q0 84 7 140t26.5 100t56.5 85t97 92l321 269q57 47 78.5 81.5t21.5 75.5q0 61 -34.5 85t-94.5 24q-70 0 -109.5 -33t-39.5 -110v-93h-303v365q82 66 203.5 110t248.5 44q219 0 341 -98.5t122 -297.5q0 -74 -12 -128t-39 -100t-69 -88t-103 -95l-301 -260 q-55 -47 -71.5 -76t-16.5 -74v-18h137q84 0 112.5 28.5t28.5 114.5v47h334v-475h-942z" />
<glyph unicode="3" d="M96 106v386h312v-33q0 -113 38.5 -153t124.5 -40q80 0 115 53.5t35 180.5q0 119 -35 172t-111 53q-84 0 -139 -68l-141 197l377 348h-117q-98 0 -122.5 -13t-24.5 -56v-43h-295v401h891v-346l-220 -205q63 -23 112.5 -53.5t81.5 -82.5t48 -130t16 -195 q0 -266 -112.5 -388t-354.5 -122q-139 0 -263 35t-216 102z" />
<glyph unicode="4" d="M68 397v320q61 68 125.5 158t122 191t101.5 209.5t68 215.5h402q-49 -115 -109.5 -233.5t-128 -228t-141.5 -205t-152 -165.5h224v158l307 219v-377h160v-262h-160v-20q0 -66 13 -92.5t54 -34.5v-250h-454v250q80 0 80 127v20h-512z" />
<glyph unicode="5" d="M98 106v367h316v-24q0 -113 37.5 -148t123.5 -35q80 0 115 53.5t35 180.5q0 131 -36 178t-122 47q-76 0 -114.5 -24.5t-38.5 -59.5h-316v850h908v-387h-295q0 55 -21.5 78.5t-99.5 23.5h-176v-280q117 72 235 71q207 0 306.5 -126t99.5 -392t-117 -388t-358 -122 q-139 0 -263 35t-219 102z" />
<glyph unicode="6" d="M98 442v594q0 147 35 240.5t96.5 148t145.5 75t186 20.5q137 0 248 -26.5t211 -96.5v-322h-297v21q0 76 -40 108.5t-116 32.5q-86 0 -118.5 -41t-32.5 -160v-178q61 39 128.5 60.5t145.5 21.5q102 0 170 -34t109 -94t57 -145t16 -188q0 -143 -25.5 -240.5t-82.5 -158 t-148.5 -86t-222.5 -25.5q-123 0 -211 23.5t-144 78t-83 145.5t-27 226zM416 461q0 -207 147 -207t148 207q0 197 -148 196q-147 0 -147 -196z" />
<glyph unicode="7" horiz-adv-x="1130" d="M90 999v492h957v-311q-111 -168 -176.5 -320.5t-101.5 -296t-47 -283t-11 -280.5h-344q0 150 27.5 303.5t73.5 306t108.5 302t134.5 294.5h-121q-63 0 -102 -7t-60.5 -24.5t-30 -46t-8.5 -73.5v-56h-299z" />
<glyph unicode="8" d="M70 416q0 137 49 223t149 133q-96 41 -139 118t-43 208q0 205 122 312.5t355 107.5q236 0 357.5 -107.5t121.5 -312.5q0 -131 -42 -208t-136 -118q197 -90 197 -356q0 -446 -498 -447q-494 0 -493 447zM406 457q0 -98 40.5 -152.5t116.5 -54.5q78 0 121 54t43 153 q0 98 -43 152.5t-121 54.5q-76 0 -116.5 -53.5t-40.5 -153.5zM420 1059q0 -80 39 -124t104 -44q72 0 110 44t38 124q0 78 -38 123t-110 45q-66 0 -104.5 -45t-38.5 -123z" />
<glyph unicode="9" d="M92 1010q0 143 25.5 240.5t83 157.5t148.5 86t222 26q123 0 210 -23.5t144.5 -78t84 -145.5t26.5 -226v-594q0 -147 -33.5 -240.5t-95 -148t-146.5 -75t-188 -20.5q-137 0 -247.5 25.5t-210.5 95.5v324h297v-21q0 -78 38.5 -109.5t114.5 -31.5q86 0 120 41t34 160v178 q-61 -39 -129 -60.5t-146 -21.5q-102 0 -169.5 33.5t-108.5 94t-57.5 145.5t-16.5 188zM424 1028q0 -197 147 -197t148 197q-1 207 -148 207t-147 -207z" />
<glyph unicode=":" horiz-adv-x="641" d="M143 164q0 53 6.5 86t26 51t54 24.5t92.5 6.5q57 0 92 -6.5t54 -24.5t25.5 -51t6.5 -86q0 -59 -6.5 -95t-25.5 -55.5t-54 -25.5t-92 -6t-92 6t-54.5 25.5t-26 55t-6.5 95.5zM143 1006q0 53 6.5 85.5t26 51t54 25t92.5 6.5q57 0 92 -6.5t54 -25t25.5 -51t6.5 -85.5 q0 -59 -6.5 -94t-25.5 -55.5t-54 -27t-92 -6.5t-92 6.5t-54.5 27t-26 55t-6.5 94.5z" />
<glyph unicode=";" horiz-adv-x="641" d="M143 170q0 53 6.5 86t26 51.5t54 24.5t92.5 6q57 0 92 -6t54 -26.5t25.5 -58.5t6.5 -102q0 -59 -25.5 -117.5t-67.5 -104.5t-97.5 -74.5t-114.5 -28.5v82q23 0 52 28.5t29 57.5q-41 0 -66.5 6t-40.5 25.5t-20.5 55.5t-5.5 95zM143 1006q0 53 6.5 85.5t26 51t54 25 t92.5 6.5q57 0 92 -6.5t54 -25t25.5 -51t6.5 -85.5q0 -59 -6.5 -94t-25.5 -55.5t-54 -27t-92 -6.5t-92 6.5t-54.5 27t-26 55t-6.5 94.5z" />
<glyph unicode="&#x3c;" horiz-adv-x="1384" d="M248 518v201l891 364v-219l-604 -248l604 -245v-219z" />
<glyph unicode="=" horiz-adv-x="1384" d="M190 301v201h1004v-201h-1004zM190 735v201h1004v-201h-1004z" />
<glyph unicode="&#x3e;" horiz-adv-x="1384" d="M248 152v219l606 245l-606 248v219l891 -364v-201z" />
<glyph unicode="?" horiz-adv-x="1099" d="M92 1036v346q184 139 449 140q240 0 363.5 -97.5t123.5 -287.5q0 -84 -20.5 -146.5t-61.5 -116t-101.5 -99.5t-139.5 -95q-51 -33 -71 -66.5t-20 -99.5v-59h-292v106q0 57 9 99t35.5 79t78 78t133.5 98q86 59 106.5 112.5t20.5 92.5q0 63 -46.5 98t-117.5 35 q-68 0 -109 -47t-41 -131v-39h-299zM301 164q0 53 6 86t25.5 51t54.5 24.5t92 6.5t92 -6.5t54.5 -24.5t25.5 -51t6 -86q0 -59 -6 -95t-25.5 -55.5t-54.5 -25.5t-92 -6t-92 6t-54.5 25.5t-25.5 55t-6 95.5z" />
<glyph unicode="@" horiz-adv-x="1830" d="M137 510q0 334 172 582q250 360 682 360q143 0 266 -46t213 -126q223 -203 224 -532q0 -162 -54.5 -298.5t-156.5 -232.5q-119 -113 -269 -113q-178 0 -178 162q-49 -82 -108.5 -121t-141.5 -39q-133 0 -200.5 85t-67.5 247q0 119 32 220.5t86 175t127 115.5t157 42 q133 0 196 -127l43 94h150l-125 -585q-4 -12 -4 -21v-18q0 -70 80 -70q68 0 133 76q145 156 145 412q0 115 -40 214t-111.5 170.5t-174 112.5t-227.5 41q-236 0 -401 -133q-139 -113 -216 -278.5t-77 -366.5q0 -152 45 -273.5t127 -207.5t198.5 -133.5t262.5 -47.5 q135 0 264 48.5t237 138.5l68 -113q-258 -227 -565 -227q-162 0 -297 49t-236 139q-258 233 -258 625zM696 434q0 -184 129 -184q68 0 125.5 60.5t79.5 164.5l45 211q-23 164 -145 164q-47 0 -89 -32t-75 -88t-51.5 -132t-18.5 -164z" />
<glyph unicode="A" horiz-adv-x="1253" d="M25 0v229q31 10 52 42t36 104l157 747q4 20 4 38.5t-4 37.5q-8 37 -37 37v256h787v-256q-29 0 -37 -37q-4 -19 -4 -37.5t4 -38.5l160 -747q16 -72 34.5 -103.5t51.5 -42.5v-229h-502v229q37 0 51.5 27t14.5 41q0 53 -11 104l-4 23h-321l-4 -23q-10 -51 -11 -104 q0 -14 14.5 -41t53.5 -27v-229h-485zM500 651h235l-108 584h-19z" />
<glyph unicode="B" horiz-adv-x="1316" d="M104 0v229q41 10 58.5 41t17.5 131v699q0 100 -17.5 131t-58.5 41v219h582q270 0 389 -95.5t119 -305.5q0 -119 -38 -189t-146 -115q70 -31 110.5 -69.5t62 -85.5t29 -104.5t7.5 -127.5q0 -215 -114.5 -307t-397.5 -92h-603zM530 270h156q98 0 143 45t45 146 q0 100 -48 142t-148 42h-148v-375zM530 897h138q96 0 139 35t43 119q0 94 -43 133t-139 39h-138v-326z" />
<glyph unicode="C" horiz-adv-x="1241" d="M109 434v649q0 219 117.5 328t398.5 109q252 0 491 -109v-412h-315v23q0 111 -50.5 164t-125.5 53q-80 0 -120 -54.5t-40 -180.5v-517q0 -127 40 -182t120 -55t128 54t48 183v56h315v-459q-223 -115 -491 -115q-145 0 -243.5 30t-159 88t-87 145t-26.5 202z" />
<glyph unicode="D" horiz-adv-x="1304" d="M104 0v229q33 0 54.5 36t21.5 136v699q0 100 -22.5 136t-53.5 36v219h553q156 0 258.5 -26.5t164 -91t87 -172t25.5 -269.5v-365q0 -170 -24.5 -279.5t-86 -174t-166 -89t-268.5 -24.5h-543zM535 270h100q121 0 164 48.5t43 185.5v457q0 133 -33 196.5t-160 63.5h-114 v-951z" />
<glyph unicode="E" horiz-adv-x="1284" d="M125 0v229q41 10 58.5 41t17.5 131v699q0 100 -17.5 131t-58.5 41v219h1065v-492h-328v56q0 96 -41 134t-141 38h-125v-328h307v-258h-307v-375h152q84 0 119.5 37t35.5 139v99h328v-541h-1065z" />
<glyph unicode="F" horiz-adv-x="1171" d="M100 0v229q41 10 58.5 41t17.5 131v699q0 100 -17.5 131t-58.5 41v219h1014v-492h-309v54q0 92 -38 129t-132 37h-105v-326h275v-252h-275v-240q0 -98 17.5 -133t58.5 -39v-229h-506z" />
<glyph unicode="G" horiz-adv-x="1226" d="M106 434v649q0 219 115 328t393 109q252 0 492 -109v-381h-330v47q0 84 -42 123t-120 39q-80 0 -119.5 -48t-39.5 -173v-531q0 -127 40 -182t119 -55q80 0 121 54t41 183v121h-141v254h471v-749q-104 -72 -230 -108t-262 -36q-147 0 -244.5 30t-155.5 88t-83 145t-25 202 z" />
<glyph unicode="H" horiz-adv-x="1384" d="M104 0v229q41 10 58.5 41t17.5 131v699q0 100 -17.5 131t-58.5 41v219h504v-219q-43 -10 -60.5 -41t-17.5 -131v-205h324v205q0 100 -18.5 131t-59.5 41v219h504v-219q-39 -10 -58.5 -41t-19.5 -131v-699q0 -100 18.5 -130.5t59.5 -41.5v-229h-504v229q41 10 59.5 40 t18.5 132v240h-324v-240q0 -102 17.5 -131.5t60.5 -40.5v-229h-504z" />
<glyph unicode="I" horiz-adv-x="716" d="M106 0v229q29 0 52.5 36t23.5 136v699q0 100 -23.5 136t-52.5 36v219h502v-219q-29 0 -50 -36t-21 -136v-699q0 -102 21.5 -137t49.5 -35v-229h-502z" />
<glyph unicode="J" horiz-adv-x="727" d="M55 0v227h19q61 0 99 29t38 145v699q0 100 -23.5 136t-68.5 36v219h522v-219q-33 0 -54.5 -37t-21.5 -135v-729q0 -215 -76.5 -306.5t-244.5 -91.5q-49 0 -97.5 5.5t-91.5 21.5z" />
<glyph unicode="K" horiz-adv-x="1316" d="M104 0v229q41 10 58.5 41t17.5 131v699q0 100 -17.5 131t-58.5 41v219h504v-219q-35 0 -56.5 -32t-21.5 -140v-240l209 264q35 45 49.5 89t14.5 92v186h426v-219q-27 0 -46.5 -15.5t-49.5 -56.5l-256 -338q143 -27 214.5 -97.5t71.5 -227.5v-140q0 -92 16.5 -130 t49.5 -38v-229h-387q-12 31 -18.5 73t-6.5 138v195q0 115 -41 171t-143 56h-103v-232q0 -102 19.5 -131.5t58.5 -40.5v-229h-504z" />
<glyph unicode="L" horiz-adv-x="1122" d="M100 0v229q41 10 58.5 41t17.5 131v699q0 100 -17.5 131t-58.5 41v219h504v-219q-39 -10 -56.5 -41t-17.5 -131v-842h68q117 0 146.5 59.5t29.5 190.5v125h305v-633h-979z" />
<glyph unicode="M" horiz-adv-x="1660" d="M100 0v229q43 8 60.5 45t17.5 140v686q0 100 -17.5 128.5t-60.5 41.5v221h547l182 -670l183 670h549v-221q-43 -12 -60.5 -41t-17.5 -129v-686q0 -102 17.5 -139t60.5 -46v-229h-496v229q41 8 57.5 46t16.5 139v581l-230 -741h-157l-230 741v-581q0 -100 17.5 -138 t56.5 -47v-229h-496z" />
<glyph unicode="N" horiz-adv-x="1370" d="M104 0v229q37 0 56.5 36t19.5 132v731q0 72 -17.5 103t-56.5 41l-2 219h400l379 -780v393q0 90 -22.5 129t-53.5 39v219h469v-219q-35 0 -56.5 -40t-21.5 -145v-1087h-319l-379 780v-383q0 -90 18.5 -129t54.5 -39v-229h-469z" />
<glyph unicode="O" horiz-adv-x="1234" d="M109 434v627q0 229 113.5 344t393.5 115q287 0 398.5 -115t111.5 -344v-627q0 -115 -24.5 -201t-84 -145t-157 -89t-244.5 -30q-283 0 -395 119t-112 346zM457 487q0 -127 40 -182t119 -55q80 0 121 54t41 183v517q0 127 -41 181t-121 54t-119.5 -54t-39.5 -181v-517z " />
<glyph unicode="P" horiz-adv-x="1251" d="M104 0v229q41 10 58.5 41t17.5 131v699q0 100 -17.5 131t-58.5 41v219h598q270 0 386 -123t116 -354q0 -147 -33.5 -251t-93 -169.5t-139.5 -95t-174 -29.5q-20 0 -52 3t-66 9t-64.5 13.5t-46.5 13.5v-107q0 -102 27.5 -133.5t70.5 -38.5v-229h-529zM535 760h127 q111 0 149.5 48t38.5 167q0 125 -41 172t-145 47h-129v-434z" />
<glyph unicode="Q" horiz-adv-x="1232" d="M106 418v659q0 225 114 334t394 109q143 0 240.5 -28t158 -84t86 -143t25.5 -206v-627q0 -137 -23.5 -211t-70.5 -121q23 -27 54.5 -38t56.5 -11l-17 -239q-133 0 -229 45t-150 120q-16 -2 -61 -5t-70 -3q-279 0 -393.5 110.5t-114.5 338.5zM455 487q0 -125 40 -181 t119 -56q80 0 121 55t41 182v517q0 127 -41 181t-121 54t-119.5 -54t-39.5 -181v-517z" />
<glyph unicode="R" horiz-adv-x="1325" d="M104 0v229q35 0 55.5 35t20.5 137v699q0 100 -20.5 136t-55.5 36v219h594q268 0 384 -102.5t116 -321.5q0 -137 -56.5 -217t-152.5 -119q100 -37 136 -104.5t36 -147.5v-82q0 -90 15.5 -124.5t50.5 -43.5v-229h-369q-16 29 -25.5 71t-9.5 140v149q0 125 -44 177.5 t-140 52.5h-109v-189q0 -102 22.5 -137t55.5 -35v-229h-504zM530 844h115q94 0 151.5 47t57.5 145q0 195 -180 195h-144v-387z" />
<glyph unicode="S" horiz-adv-x="1222" d="M100 1092q0 236 136.5 333t373.5 97q143 0 256 -46t224 -128v-326h-316v18q0 102 -45 156.5t-121 54.5q-70 0 -118 -42t-48 -113q0 -49 23.5 -82t62.5 -54q38 -22 90 -40l107 -35q106 -37 183 -74t127 -88t74 -121t24 -170q0 -121 -21.5 -208t-79 -143t-157 -84 t-252.5 -28q-115 0 -195 13.5t-138.5 38t-101.5 58.5t-82 77v344h340v-58q0 -100 46.5 -145t130.5 -45q68 0 114.5 46t46.5 128q0 90 -71.5 144.5t-210.5 105.5q-98 37 -174 72.5t-126 82t-76 108.5t-26 153z" />
<glyph unicode="T" horiz-adv-x="1310" d="M57 930v561h1196v-561h-284v112q0 98 -34 140.5t-104 44.5v-826q0 -98 18.5 -135t57.5 -37v-229h-508v229q39 0 59.5 36t20.5 136v826q-70 -2 -103.5 -45t-33.5 -140v-112h-285z" />
<glyph unicode="U" horiz-adv-x="1345" d="M90 1272v219h510v-219h-2q-78 0 -78 -197v-588q0 -141 37 -189t117 -48q78 0 114.5 48t36.5 189v588q0 197 -78 197h-2v219h510v-219q-84 0 -84 -164v-643q0 -139 -27.5 -233.5t-87 -153t-153.5 -84t-229 -25.5t-230.5 25.5t-155 84t-87 153t-27.5 233.5v643 q0 164 -84 164z" />
<glyph unicode="V" horiz-adv-x="1208" d="M0 1272v219h526v-219q-23 0 -53.5 -22.5t-30.5 -67.5q0 -14 6 -51l9 -66l145 -807h4l146 807l9 65q5 36 5 52q0 41 -30.5 65.5t-51.5 24.5v219h524v-219q-35 -14 -57.5 -43t-36.5 -101l-231 -1128h-555l-232 1128q-14 72 -37.5 100.5t-58.5 43.5z" />
<glyph unicode="W" horiz-adv-x="1722" d="M14 1270v221h502v-221q-37 -4 -53.5 -23.5t-16.5 -64.5q0 -14 1.5 -35t7.5 -55l102 -627l158 838h293l157 -838l103 627q6 35 7 52t1 38q0 45 -16.5 64.5t-53.5 23.5v221h502v-221q-25 0 -48.5 -38t-37.5 -110l-213 -1122h-412l-133 776h-4l-135 -776h-412l-211 1122 q-14 72 -39.5 110t-48.5 38z" />
<glyph unicode="X" horiz-adv-x="1150" d="M37 0v229q14 0 35.5 22.5t56.5 80.5l256 440l-240 408q-31 53 -52 71.5t-34 18.5v221h424v-141q0 -80 31 -140l61 -129l62 129q14 29 23.5 63t9.5 77v141h422v-221q-12 0 -34 -18.5t-52 -71.5l-240 -408l256 -440q35 -57 56.5 -80t35.5 -23v-229h-440v180q0 45 -12.5 86 t-28.5 76l-58 123l-57 -123q-16 -35 -27.5 -76t-11.5 -86v-180h-442z" />
<glyph unicode="Y" horiz-adv-x="1155" d="M-6 1272v219h448v-174q0 -59 10.5 -102.5t26.5 -73.5l99 -246l100 248q14 29 24.5 71.5t10.5 102.5v174h448v-219q-18 0 -37.5 -17.5t-50.5 -80.5l-295 -603v-184q0 -158 80 -158v-229h-559v229q78 0 78 158v184l-295 603q-31 63 -50.5 80.5t-37.5 17.5z" />
<glyph unicode="Z" horiz-adv-x="1222" d="M90 0v279l658 948h-166q-106 0 -145.5 -26.5t-39.5 -133.5v-35h-286v459h1013v-268l-655 -949h209q76 0 110.5 43t34.5 121v37h301v-475h-1034z" />
<glyph unicode="[" horiz-adv-x="776" d="M137 -336v1892h539v-229h-242v-1433h242v-230h-539z" />
<glyph unicode="\" horiz-adv-x="688" d="M-49 1491h280l560 -1677h-281z" />
<glyph unicode="]" horiz-adv-x="776" d="M102 -106h240v1433h-240v229h537v-1892h-537v230z" />
<glyph unicode="^" horiz-adv-x="1024" d="M133 971l299 551h158l301 -551h-168l-211 303l-211 -303h-168z" />
<glyph unicode="_" horiz-adv-x="1024" d="M-12 -80h1048v-231h-1048v231z" />
<glyph unicode="`" horiz-adv-x="1001" d="M215 1587h250l197 -364h-140z" />
<glyph unicode="a" horiz-adv-x="1136" d="M88 291v92q0 170 121 261t313 91q41 0 87 -5t87 -13v166q0 63 -40 89.5t-97 26.5t-90 -30.5t-33 -94.5v-38h-293v292q111 55 217.5 87t212.5 32q217 0 319.5 -88t102.5 -287v-510q0 -90 22.5 -115.5t49.5 -25.5v-221h-360v117q-59 -70 -132 -102.5t-200 -32.5 q-133 0 -210 82.5t-77 226.5zM420 313q0 -43 31.5 -67.5t74.5 -24.5q88 0 129 31t41 84v192h-121q-78 0 -116.5 -38.5t-38.5 -96.5v-80z" />
<glyph unicode="b" horiz-adv-x="1130" d="M63 1407v221h371v-459q57 39 122 58.5t167 19.5q147 0 230 -93t83 -339v-432q0 -209 -97 -308.5t-343 -99.5q-102 0 -219 33t-242 111v1153q0 92 -16.5 111.5t-55.5 23.5zM434 289q76 -57 146 -58q82 0 112.5 47.5t30.5 159.5v324q0 129 -28.5 177t-104.5 48 q-33 0 -71 -10t-85 -33v-655z" />
<glyph unicode="c" horiz-adv-x="1077" d="M92 360v525q0 180 104.5 271t346.5 91q111 0 215 -23.5t209 -68.5v-346h-273v25q0 84 -41 122.5t-110 38.5q-76 0 -106.5 -41t-30.5 -137v-416q0 -98 30.5 -139t106.5 -41q72 0 111.5 41t39.5 139v88h273v-421q-195 -92 -424 -93q-250 0 -350.5 96.5t-100.5 288.5z" />
<glyph unicode="d" horiz-adv-x="1140" d="M92 383v432q0 229 84 330.5t232 101.5q102 0 162.5 -19.5t119.5 -58.5v88q0 82 -18.5 111t-59.5 39v221h377v-1266q0 -76 16.5 -108.5t55.5 -32.5v-221h-363v76q-55 -43 -121.5 -72t-168.5 -29q-137 0 -226.5 99.5t-89.5 308.5zM408 438q0 -113 27.5 -160t109.5 -47 q70 0 145 58v655q-47 23 -85 33t-70 10q-76 0 -101.5 -48t-25.5 -177v-324z" />
<glyph unicode="e" horiz-adv-x="1071" d="M92 401v416q0 225 106.5 327.5t340.5 102.5q227 0 331.5 -103.5t104.5 -326.5v-295h-576v-104q0 -106 34 -151.5t106 -45.5q63 0 103 37t40 125v14h293v-280q-92 -70 -205 -106t-231 -36q-233 0 -340 101.5t-107 324.5zM399 760h283v49q0 96 -38 141t-105 45 q-72 0 -106 -47t-34 -153v-35z" />
<glyph unicode="f" horiz-adv-x="647" d="M100 0v221q35 0 49.5 30t14.5 103v639h-64v228h64v106q0 319 319 320q66 0 142 -19v-221h-35q-113 0 -113 -127v-59h123v-228h-123v-637q0 -76 21.5 -105.5t54.5 -29.5v-221h-453z" />
<glyph unicode="g" horiz-adv-x="1136" d="M98 428v408q0 213 86 312t226 99q102 0 168.5 -30.5t121.5 -73.5v78h363v-222q-45 0 -58.5 -37.5t-13.5 -101.5v-846q0 -127 -23.5 -212t-74.5 -137t-132 -73.5t-196 -21.5q-233 0 -436 111v245h295v-18q0 -66 36 -87.5t93 -21.5q66 0 102.5 39t36.5 127v109 q-57 -37 -118.5 -55.5t-163.5 -18.5q-147 0 -229.5 100.5t-82.5 327.5zM410 485q0 -129 25.5 -179t101.5 -50q33 0 70.5 10t84.5 37v631q-80 53 -145 53q-82 0 -109.5 -46t-27.5 -161v-295z" />
<glyph unicode="h" horiz-adv-x="1191" d="M90 0v221q35 0 53.5 31t18.5 135v893q0 76 -15.5 101.5t-56.5 25.5v221h373v-477q49 35 121.5 65.5t132.5 30.5q180 0 257 -97t77 -314v-459q0 -94 16 -125t55 -31v-221h-344q-16 45 -24.5 115.5t-8.5 220.5v487q0 100 -30.5 135t-114.5 35q-31 0 -69.5 -18.5 t-67.5 -54.5v-547q0 -84 16.5 -118t55.5 -34v-221h-445z" />
<glyph unicode="i" horiz-adv-x="626" d="M92 0v221q35 0 57.5 29t22.5 129v483q0 72 -14.5 104.5t-48.5 32.5v222h368v-856q0 -82 15.5 -113t54.5 -31v-221h-455zM117 1475q0 49 6 78.5t25.5 47t54.5 22.5t94 5q113 0 146.5 -27.5t33.5 -125.5q0 -55 -7 -89t-26.5 -51.5t-54.5 -23.5t-92 -6q-59 0 -94 6 t-54.5 23.5t-25.5 51t-6 89.5z" />
<glyph unicode="j" horiz-adv-x="608" d="M51 -217h31q41 0 62.5 24.5t21.5 94.5v972q0 74 -14.5 99.5t-49.5 25.5v222h367v-1334q0 -182 -64.5 -263t-232.5 -81q-47 1 -121 13v227zM102 1475q0 49 6.5 78.5t26 47t55 22.5t93.5 5q57 0 92 -5t54.5 -22.5t26.5 -47t7 -78.5q0 -55 -7 -89t-26.5 -51.5t-54.5 -23.5 t-92 -6t-93 6t-55.5 23.5t-26 51t-6.5 89.5z" />
<glyph unicode="k" horiz-adv-x="1179" d="M92 0v221q35 0 53.5 31t18.5 135v877q0 68 -13.5 105.5t-58.5 37.5v221h377v-923l176 217q35 35 46 68.5t11 72.5v158h390v-222q-47 0 -74 -12t-51 -41l-201 -244q57 -10 108.5 -26.5t91.5 -46t63.5 -75.5t23.5 -114v-94q0 -72 19.5 -98.5t51.5 -26.5v-221h-344 q-14 29 -23 84t-9 121v131q0 123 -42 155.5t-151 32.5h-86v-151q0 -84 14.5 -118t53.5 -34v-221h-445z" />
<glyph unicode="l" horiz-adv-x="626" d="M92 0v221q35 0 57.5 31t22.5 135v893q0 76 -14.5 101.5t-48.5 25.5v221h368v-1255q0 -84 15.5 -118t54.5 -34v-221h-455z" />
<glyph unicode="m" horiz-adv-x="1763" d="M92 0v221q39 0 55.5 34t16.5 132v483q0 66 -20.5 97.5t-51.5 31.5v222h365v-91q70 66 144.5 91.5t133.5 25.5q94 0 153.5 -33.5t98.5 -97.5q72 61 157 96t169 35q164 0 236.5 -99t72.5 -312v-463q0 -90 15.5 -119t56.5 -33v-221h-351q-16 45 -23 114.5t-7 221.5v457 q0 113 -32 159.5t-105 46.5q-16 0 -38 -8t-42.5 -25.5t-34.5 -44t-14 -63.5v-485q0 -90 15 -121t54 -31v-221h-348q-16 45 -24.5 114.5t-8.5 221.5v457q0 113 -30.5 159.5t-106.5 46.5q-31 0 -68.5 -26.5t-60.5 -67.5v-532q0 -90 17.5 -121t50.5 -31v-221h-445z" />
<glyph unicode="n" horiz-adv-x="1198" d="M92 0v221q35 0 53.5 31t18.5 135v473q0 86 -23.5 112.5t-48.5 26.5v222h365v-91q59 68 133 92.5t158 24.5q164 0 236.5 -96t72.5 -315v-459q0 -94 16.5 -125t54.5 -31v-221h-348q-14 45 -23 115.5t-9 220.5v487q0 109 -34 142.5t-112 33.5q-31 0 -73 -28.5t-64 -65.5 v-532q0 -84 16.5 -118t55.5 -34v-221h-445z" />
<glyph unicode="o" horiz-adv-x="1069" d="M80 360v506q0 190 106.5 285.5t348.5 95.5q246 0 348 -95t102 -286v-506q0 -188 -100 -286.5t-350 -98.5q-244 0 -349.5 98.5t-105.5 286.5zM395 401q0 -98 32 -139t108 -41q72 0 105.5 41t33.5 139v416q0 98 -34 138t-105 40q-76 0 -108 -41t-32 -137v-416z" />
<glyph unicode="p" horiz-adv-x="1150" d="M90 -184q41 0 56.5 36.5t15.5 127.5v880q0 70 -14.5 104.5t-57.5 34.5v222h348l15 -78q55 43 121.5 73.5t168.5 30.5q137 0 226.5 -99t89.5 -312v-433q0 -227 -84 -327.5t-232 -100.5q-102 0 -162.5 18.5t-119.5 55.5v-86q0 -78 18.5 -112.5t59.5 -34.5v-222h-449v222z M461 274q47 -23 85 -35t70 -12q76 0 101.5 58.5t25.5 171.5v323q0 115 -27.5 161t-109.5 46q-66 0 -145 -53v-660z" />
<glyph unicode="q" horiz-adv-x="1130" d="M92 403v433q0 213 89 312t227 99q102 0 168.5 -30.5t121.5 -73.5l11 78h282v-1241q0 -94 15.5 -129t54.5 -35v-222h-449v222q39 0 58.5 31.5t19.5 115.5v86q-59 -37 -119.5 -55.5t-162.5 -18.5q-147 0 -231.5 100.5t-84.5 327.5zM408 457q0 -125 25.5 -175.5t101.5 -50.5 q33 0 70.5 10.5t84.5 32.5v660q-80 53 -145 53q-82 0 -109.5 -46t-27.5 -161v-323z" />
<glyph unicode="r" horiz-adv-x="772" d="M90 0v221q35 0 53.5 31t18.5 135v492q0 74 -15.5 97t-56.5 23v222h365v-91q41 55 100 83t121 28q20 0 39.5 -4t38.5 -16v-240h-37q-55 0 -101.5 -9t-80 -39t-53 -85t-19.5 -148v-327q0 -84 16.5 -118t55.5 -34v-221h-445z" />
<glyph unicode="s" horiz-adv-x="1042" d="M74 891q0 195 119.5 275.5t324.5 80.5q121 0 218.5 -39t195.5 -104v-281h-275v25q0 158 -141 158q-66 0 -104.5 -30t-38.5 -81q0 -37 19.5 -61.5t53 -42t77.5 -32t93 -28.5q90 -29 157 -58.5t110 -71.5t64.5 -100.5t21.5 -142.5q0 -100 -19.5 -172.5t-69 -119t-135.5 -69 t-217 -22.5q-98 0 -166.5 10.5t-120 31t-89 49t-74.5 63.5v293h299v-55q0 -76 37 -110t114 -34q61 0 101.5 34t40.5 95q0 66 -62.5 108t-187.5 83q-168 55 -257 127.5t-89 220.5z" />
<glyph unicode="t" horiz-adv-x="655" d="M61 993v228h84v190l301 96v-286h134v-228h-134v-579q0 -121 25 -153t96 -32h13v-229q-27 -8 -64 -13t-84 -5q-86 0 -141 21.5t-87 71.5t-45.5 131t-13.5 200v587h-84z" />
<glyph unicode="u" horiz-adv-x="1185" d="M76 999v222h336q14 -47 23 -116t9 -218v-492q0 -109 36 -139.5t110 -30.5q31 0 74 27t63 65v535q0 82 -11 114.5t-46 32.5v222h360v-856q0 -90 16.5 -117t53.5 -27v-221h-365v88q-59 -66 -133 -89.5t-158 -23.5q-164 0 -234.5 94.5t-70.5 313.5v465q0 92 -15 121.5 t-48 29.5z" />
<glyph unicode="v" horiz-adv-x="1050" d="M0 999v222h455v-222q-20 0 -45 -14t-25 -41q0 -10 5 -38l9 -50l125 -635h2l123 635q4 20 10.5 49t6.5 39q0 27 -26 41t-46 14v222h457v-222q-37 -10 -55.5 -28.5t-30.5 -71.5l-201 -899h-477l-205 899q-12 53 -30.5 71.5t-51.5 28.5z" />
<glyph unicode="w" horiz-adv-x="1484" d="M8 999v222h432v-222q-31 -4 -43 -13t-12 -40q0 -10 2 -29.5t6 -39.5l88 -504l135 684h254l136 -684l88 504q6 41 6 69q0 31 -12.5 40t-43.5 13v222h433v-222q-20 0 -43 -23.5t-33 -78.5l-182 -897h-359l-115 610h-4l-116 -610h-359l-182 897q-10 55 -31.5 78.5 t-44.5 23.5z" />
<glyph unicode="x" horiz-adv-x="997" d="M33 0v221q14 0 34.5 12.5t47.5 53.5l217 344l-203 325q-27 43 -78 43v222h365v-121q0 -66 26 -113l58 -100l53 100q29 51 29 113v121h364v-222q-23 0 -42 -12t-42 -47l-194 -309l219 -344q27 -41 45 -53.5t33 -12.5v-221h-381v156q0 66 -33 127l-51 98l-54 -98 q-16 -31 -25 -63t-9 -64v-156h-379z" />
<glyph unicode="y" horiz-adv-x="1073" d="M25 999v222h446v-222q-43 -12 -43 -57q0 -10 3 -21.5t5 -23.5l123 -547l109 547q4 25 4 43q0 27 -9.5 38t-37.5 21v222h436v-222q-29 -10 -47.5 -29.5t-30.5 -68.5l-270 -1034q-23 -86 -51.5 -143.5t-68.5 -91t-93.5 -48t-126.5 -14.5q-41 0 -84 8t-72 16v230 q20 -10 51 -10q61 0 91 15t42 60l-297 1000q-14 53 -36.5 79.5t-42.5 30.5z" />
<glyph unicode="z" horiz-adv-x="1015" d="M55 0v240l557 747h-129q-94 0 -126.5 -19.5t-32.5 -95.5v-41h-252v390h878v-234l-555 -747h170q68 0 97.5 33.5t29.5 88.5v39h258v-401h-895z" />
<glyph unicode="{" horiz-adv-x="1036" d="M152 512v207h41q102 0 137 51t35 191v268q0 92 19 155.5t69.5 103.5t136.5 58.5t217 18.5h78v-205h-78q-78 0 -110.5 -35t-32.5 -131v-276q0 -115 -40 -188t-124 -116q164 -80 164 -301v-278q0 -94 32.5 -130t110.5 -36h78v-205h-78q-131 0 -217 18.5t-136.5 59.5 t-69.5 104.5t-19 155.5v266q0 139 -35 191.5t-137 52.5h-41z" />
<glyph unicode="|" horiz-adv-x="1024" d="M0 -455h2v-2h-2v2zM408 -432v1923h208v-1923h-208z" />
<glyph unicode="}" horiz-adv-x="1036" d="M152 -131h75q80 0 113 36t33 130v278q0 113 39 186.5t125 114.5q-86 43 -125 116t-39 188v276q0 96 -33 131t-113 35h-75v205h75q131 0 217 -18.5t136.5 -58.5t71 -103.5t20.5 -155.5v-268q0 -139 34.5 -190.5t137.5 -51.5h41v-207h-41q-102 0 -137 -52t-35 -192v-266 q0 -92 -20.5 -155.5t-71 -104.5t-136.5 -59.5t-217 -18.5h-75v205z" />
<glyph unicode="~" horiz-adv-x="1384" d="M117 588v246q88 74 171 108.5t154 34.5q76 0 139.5 -20.5t122 -45t117 -45t125.5 -20.5q78 0 156 39t166 114v-245q-86 -68 -165 -104t-159 -36q-66 0 -129 20.5t-125.5 46.5t-125 46.5t-124.5 20.5q-76 0 -155.5 -41t-167.5 -119z" />
<glyph horiz-adv-x="641" d="M143 164q0 53 6.5 86t26 51t54 24.5t92.5 6.5q57 0 92 -6.5t54 -26.5t25.5 -58t6.5 -102q0 -59 -25.5 -117.5t-67.5 -104.5t-97.5 -74.5t-114.5 -28.5v82q23 0 52 29.5t29 56.5q-41 0 -66.5 6t-40.5 25.5t-20.5 55t-5.5 95.5z" />
<glyph unicode="&#x201a;" horiz-adv-x="641" d="M143 164q0 53 6.5 86t26 51t54 24.5t92.5 6.5q57 0 92 -6.5t54 -26.5t25.5 -58t6.5 -102q0 -59 -25.5 -117.5t-67.5 -104.5t-97.5 -74.5t-114.5 -28.5v82q23 0 52 29.5t29 56.5q-41 0 -66.5 6t-40.5 25.5t-20.5 55t-5.5 95.5z" />
<glyph horiz-adv-x="1134" d="M150 164q0 53 6 86t25.5 51t54 24.5t92.5 6.5q57 0 92 -6.5t54.5 -26.5t25.5 -58t6 -102q0 -59 -25.5 -117.5t-67.5 -104.5t-96.5 -74.5t-113.5 -28.5v82q23 0 53.5 29.5t30.5 56.5q-43 0 -70 6t-42 25.5t-20 55t-5 95.5zM629 164q0 53 6 86t25.5 51t54.5 24.5t92 6.5 t92 -6.5t54.5 -26.5t25.5 -58t6 -102q0 -59 -24.5 -117.5t-66.5 -104.5t-97.5 -74.5t-114.5 -28.5v82q23 0 52.5 29.5t29.5 56.5q-41 0 -66.5 6t-41 25.5t-21.5 55t-6 95.5z" />
<glyph unicode="&#x201e;" horiz-adv-x="1134" d="M150 164q0 53 6 86t25.5 51t54 24.5t92.5 6.5q57 0 92 -6.5t54.5 -26.5t25.5 -58t6 -102q0 -59 -25.5 -117.5t-67.5 -104.5t-96.5 -74.5t-113.5 -28.5v82q23 0 53.5 29.5t30.5 56.5q-43 0 -70 6t-42 25.5t-20 55t-5 95.5zM629 164q0 53 6 86t25.5 51t54.5 24.5t92 6.5 t92 -6.5t54.5 -26.5t25.5 -58t6 -102q0 -59 -24.5 -117.5t-66.5 -104.5t-97.5 -74.5t-114.5 -28.5v82q23 0 52.5 29.5t29.5 56.5q-41 0 -66.5 6t-41 25.5t-21.5 55t-6 95.5z" />
<glyph unicode="&#x85;" horiz-adv-x="2070" d="M174 164q0 53 6 86t25.5 51t54.5 24.5t92 6.5t92 -6.5t54.5 -24.5t25.5 -51t6 -86q0 -59 -6 -95t-25.5 -55.5t-54.5 -25.5t-92 -6t-92 6t-54.5 25.5t-25.5 55t-6 95.5zM858 164q0 53 6 86t25.5 51t54.5 24.5t92 6.5t92 -6.5t54.5 -24.5t25.5 -51t6 -86q0 -59 -6 -95 t-25.5 -55.5t-54.5 -25.5t-92 -6t-92 6t-54.5 25.5t-25.5 55t-6 95.5zM1540 164q0 53 6 86t25.5 51t54.5 24.5t92 6.5t92 -6.5t54.5 -24.5t25.5 -51t6 -86q0 -59 -6 -95t-25.5 -55.5t-54.5 -25.5t-92 -6t-92 6t-54.5 25.5t-25.5 55t-6 95.5z" />
<glyph unicode="&#x2026;" horiz-adv-x="2070" d="M174 164q0 53 6 86t25.5 51t54.5 24.5t92 6.5t92 -6.5t54.5 -24.5t25.5 -51t6 -86q0 -59 -6 -95t-25.5 -55.5t-54.5 -25.5t-92 -6t-92 6t-54.5 25.5t-25.5 55t-6 95.5zM858 164q0 53 6 86t25.5 51t54.5 24.5t92 6.5t92 -6.5t54.5 -24.5t25.5 -51t6 -86q0 -59 -6 -95 t-25.5 -55.5t-54.5 -25.5t-92 -6t-92 6t-54.5 25.5t-25.5 55t-6 95.5zM1540 164q0 53 6 86t25.5 51t54.5 24.5t92 6.5t92 -6.5t54.5 -24.5t25.5 -51t6 -86q0 -59 -6 -95t-25.5 -55.5t-54.5 -25.5t-92 -6t-92 6t-54.5 25.5t-25.5 55t-6 95.5z" />
<glyph d="M92 899v223h324v369h297v-369h325v-223h-325v-1024h-297v1024h-324z" />
<glyph unicode="&#x2020;" d="M92 899v223h324v369h297v-369h325v-223h-325v-1024h-297v1024h-324z" />
<glyph horiz-adv-x="2320" d="M53 1073v144q0 156 65.5 215t241.5 59q174 0 241 -60.5t67 -213.5v-144q0 -154 -68 -214t-240 -60q-174 0 -240.5 59t-66.5 215zM233 0l859 1491h249l-856 -1491h-252zM276 1038q0 -117 84 -116q86 0 86 116v215q0 113 -86 113q-84 0 -84 -113v-215zM909 272v144 q0 154 67.5 216t240.5 62q172 0 238.5 -62.5t66.5 -215.5v-144q0 -152 -64.5 -212t-240.5 -60t-242 60t-66 212zM1133 238q0 -115 84 -115t83 115v213q0 119 -83 118q-45 0 -64.5 -27.5t-19.5 -90.5v-213zM1655 272v144q0 154 65.5 216t239.5 62q172 0 238.5 -62.5 t66.5 -215.5v-144q0 -152 -65.5 -212t-239.5 -60t-239.5 59t-65.5 213zM1876 238q0 -115 84 -115q86 0 86 115v213q0 119 -86 118q-84 1 -84 -118v-213z" />
<glyph unicode="&#x2030;" horiz-adv-x="2320" d="M53 1073v144q0 156 65.5 215t241.5 59q174 0 241 -60.5t67 -213.5v-144q0 -154 -68 -214t-240 -60q-174 0 -240.5 59t-66.5 215zM233 0l859 1491h249l-856 -1491h-252zM276 1038q0 -117 84 -116q86 0 86 116v215q0 113 -86 113q-84 0 -84 -113v-215zM909 272v144 q0 154 67.5 216t240.5 62q172 0 238.5 -62.5t66.5 -215.5v-144q0 -152 -64.5 -212t-240.5 -60t-242 60t-66 212zM1133 238q0 -115 84 -115t83 115v213q0 119 -83 118q-45 0 -64.5 -27.5t-19.5 -90.5v-213zM1655 272v144q0 154 65.5 216t239.5 62q172 0 238.5 -62.5 t66.5 -215.5v-144q0 -152 -65.5 -212t-239.5 -60t-239.5 59t-65.5 213zM1876 238q0 -115 84 -115q86 0 86 115v213q0 119 -86 118q-84 1 -84 -118v-213z" />
<glyph horiz-adv-x="641" d="M143 1196q0 59 26 117.5t68 104.5t96 75t113 29v-82q-23 0 -52 -30t-29 -56q41 0 67.5 -6.5t41.5 -25.5t20.5 -55t5.5 -96q0 -53 -6.5 -85.5t-25.5 -51t-54 -24.5t-92 -6t-92 7t-54.5 27.5t-26 58.5t-6.5 99z" />
<glyph unicode="&#x2018;" horiz-adv-x="641" d="M143 1196q0 59 26 117.5t68 104.5t96 75t113 29v-82q-23 0 -52 -30t-29 -56q41 0 67.5 -6.5t41.5 -25.5t20.5 -55t5.5 -96q0 -53 -6.5 -85.5t-25.5 -51t-54 -24.5t-92 -6t-92 7t-54.5 27.5t-26 58.5t-6.5 99z" />
<glyph horiz-adv-x="641" d="M143 1354q0 53 6.5 86t26 51t54 24.5t92.5 6.5q57 0 92 -6.5t54 -27t25.5 -58t6.5 -101.5q0 -59 -25.5 -117.5t-67.5 -104.5t-97.5 -74.5t-114.5 -28.5v83q23 0 52 28t29 56q-41 0 -66.5 6.5t-40.5 26t-20.5 55t-5.5 95.5z" />
<glyph unicode="&#x2019;" horiz-adv-x="641" d="M143 1354q0 53 6.5 86t26 51t54 24.5t92.5 6.5q57 0 92 -6.5t54 -27t25.5 -58t6.5 -101.5q0 -59 -25.5 -117.5t-67.5 -104.5t-97.5 -74.5t-114.5 -28.5v83q23 0 52 28t29 56q-41 0 -66.5 6.5t-40.5 26t-20.5 55t-5.5 95.5z" />
<glyph horiz-adv-x="1134" d="M150 1196q0 59 25.5 117.5t67.5 104.5t96.5 75t113.5 29v-82q-23 0 -52.5 -30t-29.5 -56q41 0 67.5 -6.5t42 -25.5t20.5 -55t5 -96q0 -53 -6 -85.5t-25.5 -51t-54.5 -24.5t-92 -6t-92 7t-54.5 27.5t-25.5 58.5t-6 99zM629 1196q0 59 25.5 117.5t67.5 104.5t97.5 75 t114.5 29v-82q-23 0 -52.5 -30t-29.5 -56q41 0 66.5 -6.5t41 -25.5t20.5 -55t5 -96q0 -53 -6 -85.5t-25.5 -51t-54.5 -24.5t-92 -6t-92 7t-54.5 27.5t-25.5 58.5t-6 99z" />
<glyph unicode="&#x201c;" horiz-adv-x="1134" d="M150 1196q0 59 25.5 117.5t67.5 104.5t96.5 75t113.5 29v-82q-23 0 -52.5 -30t-29.5 -56q41 0 67.5 -6.5t42 -25.5t20.5 -55t5 -96q0 -53 -6 -85.5t-25.5 -51t-54.5 -24.5t-92 -6t-92 7t-54.5 27.5t-25.5 58.5t-6 99zM629 1196q0 59 25.5 117.5t67.5 104.5t97.5 75 t114.5 29v-82q-23 0 -52.5 -30t-29.5 -56q41 0 66.5 -6.5t41 -25.5t20.5 -55t5 -96q0 -53 -6 -85.5t-25.5 -51t-54.5 -24.5t-92 -6t-92 7t-54.5 27.5t-25.5 58.5t-6 99z" />
<glyph horiz-adv-x="1134" d="M150 1354q0 53 6 86t25.5 51t54 24.5t92.5 6.5q57 0 92 -6.5t54.5 -27t25.5 -58t6 -101.5q0 -59 -25.5 -117.5t-67.5 -104.5t-96.5 -74.5t-113.5 -28.5v83q23 0 53.5 28t30.5 56q-43 0 -70 6.5t-42 26t-20 55t-5 95.5zM629 1354q0 53 6 86t25.5 51t54.5 24.5t92 6.5 t92 -6.5t54.5 -27t25.5 -58t6 -101.5q0 -59 -24.5 -117.5t-66.5 -104.5t-97.5 -74.5t-114.5 -28.5v83q23 0 52.5 28t29.5 56q-41 0 -66.5 6.5t-41 26t-21.5 55t-6 95.5z" />
<glyph unicode="&#x201d;" horiz-adv-x="1134" d="M150 1354q0 53 6 86t25.5 51t54 24.5t92.5 6.5q57 0 92 -6.5t54.5 -27t25.5 -58t6 -101.5q0 -59 -25.5 -117.5t-67.5 -104.5t-96.5 -74.5t-113.5 -28.5v83q23 0 53.5 28t30.5 56q-43 0 -70 6.5t-42 26t-20 55t-5 95.5zM629 1354q0 53 6 86t25.5 51t54.5 24.5t92 6.5 t92 -6.5t54.5 -27t25.5 -58t6 -101.5q0 -59 -24.5 -117.5t-66.5 -104.5t-97.5 -74.5t-114.5 -28.5v83q23 0 52.5 28t29.5 56q-41 0 -66.5 6.5t-41 26t-21.5 55t-6 95.5z" />
<glyph horiz-adv-x="1036" d="M215 770q0 61 23.5 116.5t64.5 95.5t96.5 63.5t116.5 23.5t115.5 -23.5t94.5 -63.5t63.5 -95.5t23.5 -116.5t-23.5 -115.5t-63.5 -95.5t-95.5 -64.5t-116.5 -23.5t-116.5 23.5t-95.5 63.5t-63.5 95.5t-23.5 116.5z" />
<glyph unicode="&#x2022;" horiz-adv-x="1036" d="M215 770q0 61 23.5 116.5t64.5 95.5t96.5 63.5t116.5 23.5t115.5 -23.5t94.5 -63.5t63.5 -95.5t23.5 -116.5t-23.5 -115.5t-63.5 -95.5t-95.5 -64.5t-116.5 -23.5t-116.5 23.5t-95.5 63.5t-63.5 95.5t-23.5 116.5z" />
<glyph horiz-adv-x="1024" d="M-12 541v198h1048v-198h-1048z" />
<glyph unicode="&#x2013;" horiz-adv-x="1024" d="M-12 541v198h1048v-198h-1048z" />
<glyph horiz-adv-x="2048" d="M20 541v229h2008v-229h-2008z" />
<glyph unicode="&#x2014;" horiz-adv-x="2048" d="M20 541v229h2008v-229h-2008z" />
<glyph horiz-adv-x="1722" d="M84 1354v137h590v-137h-203v-529h-184v529h-203zM807 825v666h240l151 -404l150 404h241v-666h-166v498l-186 -498h-76l-190 498v-498h-164z" />
<glyph unicode="&#x2122;" horiz-adv-x="1722" d="M84 1354v137h590v-137h-203v-529h-184v529h-203zM807 825v666h240l151 -404l150 404h241v-666h-166v498l-186 -498h-76l-190 498v-498h-164z" />
<glyph unicode="&#xa4;" d="M61 299l187 186q-33 47 -50.5 101.5t-17.5 118.5q0 123 68 219l-187 186l99 96l186 -184q94 72 219 72q131 0 228 -72l182 184l98 -96l-184 -186q68 -96 67 -219q0 -121 -67 -220l184 -186l-98 -96l-182 184q-94 -70 -224 -70q-129 0 -223 70l-186 -184zM317 705 q0 -104 73 -178t179 -74q51 0 97.5 19.5t80 54t53 79.5t19.5 99q0 51 -19.5 97t-53 79.5t-80 54t-97.5 20.5q-53 0 -98 -20.5t-80 -54t-54.5 -79.5t-19.5 -97z" />
<glyph unicode="&#xa6;" horiz-adv-x="1024" d="M0 -455h2v-2h-2v2zM408 383h208v-815h-208v815zM408 676v815h208v-815h-208z" />
<glyph unicode="&#xa7;" d="M106 662q0 180 140 264q-51 39 -77 101.5t-26 139.5q0 166 112 259.5t306 93.5q100 0 201.5 -33t187.5 -92v-242h-274v29q0 131 -111 131q-129 0 -129 -127q0 -37 19.5 -60.5t60.5 -46t103.5 -47t146.5 -63.5q131 -59 194.5 -136t63.5 -196q0 -178 -141 -260 q104 -80 104 -254q0 -156 -114.5 -250t-299.5 -94q-115 0 -221 30.5t-194 92.5v245h274v-38q0 -125 125 -125q61 0 99 33.5t38 84.5q0 41 -28.5 72t-75.5 57.5t-106 50.5l-119 48q-133 55 -196 132t-63 200zM334 707q0 -37 37 -67t92 -56.5t121 -51.5l125 -47q41 29 55 55.5 t14 59.5q0 35 -39 64.5t-97 57.5t-122 52l-119 47q-67 -40 -67 -114z" />
<glyph unicode="&#xa8;" horiz-adv-x="1259" d="M104 0v229q41 10 58.5 41t17.5 131v699q0 100 -17.5 131t-58.5 41v219h1065v-492h-327v56q0 96 -41 134t-142 38h-124v-328h307v-258h-307v-375h151q84 0 120 37t36 139v99h327v-541h-1065zM330 1722q0 82 24.5 104.5t108.5 22.5q86 0 110.5 -22.5t24.5 -104.5 q0 -88 -24.5 -111.5t-110.5 -23.5q-84 0 -108.5 23.5t-24.5 111.5zM713 1722q0 82 24.5 104.5t108.5 22.5q86 0 110.5 -22.5t24.5 -104.5q0 -88 -24.5 -111.5t-110.5 -23.5q-84 0 -108.5 23.5t-24.5 111.5z" />
<glyph unicode="&#x401;" horiz-adv-x="1259" d="M104 0v229q41 10 58.5 41t17.5 131v699q0 100 -17.5 131t-58.5 41v219h1065v-492h-327v56q0 96 -41 134t-142 38h-124v-328h307v-258h-307v-375h151q84 0 120 37t36 139v99h327v-541h-1065zM330 1722q0 82 24.5 104.5t108.5 22.5q86 0 110.5 -22.5t24.5 -104.5 q0 -88 -24.5 -111.5t-110.5 -23.5q-84 0 -108.5 23.5t-24.5 111.5zM713 1722q0 82 24.5 104.5t108.5 22.5q86 0 110.5 -22.5t24.5 -104.5q0 -88 -24.5 -111.5t-110.5 -23.5q-84 0 -108.5 23.5t-24.5 111.5z" />
<glyph unicode="&#xa9;" horiz-adv-x="1689" d="M90 612v465q0 330 189.5 471.5t568.5 141.5q377 0 564 -141.5t187 -471.5v-465q0 -330 -187 -471t-564 -141q-379 0 -568.5 141t-189.5 471zM209 612q0 -145 33.5 -242.5t110.5 -155.5t198 -81.5t297 -23.5q174 0 295 24.5t196.5 82.5t109.5 154.5t34 241.5v465 q0 145 -34 242.5t-109.5 156t-196.5 82t-295 23.5q-176 0 -297 -23.5t-198 -82t-110.5 -156t-33.5 -242.5v-465zM508 684v297q0 176 71.5 253t245.5 77q216 -1 353 -103v-254h-267v70q0 49 -16 69.5t-45 20.5q-31 0 -44 -18.5t-13 -71.5v-383q0 -49 13 -68.5t44 -19.5 t46 19.5t15 68.5v117h267v-309q-121 -96 -342 -97q-182 0 -255 74t-73 258z" />
<glyph unicode="&#xaa;" horiz-adv-x="1136" d="M88 291v92q0 170 121 261t313 91q41 0 87 -5t87 -13v166q0 63 -40 89.5t-97 26.5t-90 -30.5t-33 -94.5v-38h-293v292q111 55 217.5 87t212.5 32q217 0 319.5 -88t102.5 -287v-510q0 -90 22.5 -115.5t49.5 -25.5v-221h-360v117q-59 -70 -132 -102.5t-200 -32.5 q-133 0 -210 82.5t-77 226.5zM420 313q0 -43 31.5 -67.5t74.5 -24.5q88 0 129 31t41 84v192h-121q-78 0 -116.5 -38.5t-38.5 -96.5v-80z" />
<glyph unicode="&#xab;" horiz-adv-x="1134" d="M186 678l152 379h219l-145 -379l145 -379h-219zM578 678l153 379h219l-147 -379l147 -379h-219z" />
<glyph unicode="&#xac;" horiz-adv-x="1384" d="M182 676v198h1014v-507h-201v309h-813z" />
<glyph unicode="&#xad;" horiz-adv-x="641" d="M90 504v241h461v-241h-461z" />
<glyph unicode="&#xae;" horiz-adv-x="1857" d="M90 412v514q0 369 209 525.5t631 156.5q420 0 627.5 -157t207.5 -525v-514q0 -367 -207.5 -523.5t-627.5 -156.5q-422 0 -631 156.5t-209 523.5zM221 412q0 -162 38 -270.5t122 -173t219 -92.5t330 -28q193 0 328 28t219 93.5t121.5 173t37.5 269.5v514 q0 162 -37.5 270.5t-121.5 173t-219.5 92t-327.5 27.5q-195 0 -330 -27.5t-219 -92t-122 -173t-38 -270.5v-514zM547 145v179q20 14 29.5 33.5t9.5 64.5v473q0 43 -9.5 62.5t-29.5 29.5v178h446q84 0 150.5 -10t113 -41t70 -84t23.5 -139q0 -96 -36 -152.5t-112 -81.5 q84 -25 106.5 -67.5t22.5 -136.5v-13q0 -92 39 -116v-179h-338q-12 39 -17 109t-5 154q0 86 -19.5 111.5t-70.5 25.5h-19v-123q0 -53 7 -70.5t32 -27.5v-179h-393zM901 745h31q53 0 72.5 23t19.5 86q0 59 -20.5 79.5t-83.5 20.5h-19v-209z" />
<glyph unicode="&#xb0;" horiz-adv-x="673" d="M35 1225q0 59 23.5 112.5t64.5 94.5t96.5 65.5t118.5 24.5q61 0 116.5 -24.5t96.5 -65.5t64.5 -95.5t23.5 -111.5q0 -61 -23.5 -115.5t-65.5 -95.5t-97.5 -64.5t-116.5 -23.5q-63 0 -118.5 23.5t-95.5 64.5t-63.5 95t-23.5 116zM172 1225q0 -76 48 -125t118 -49 q66 0 115 50t49 124q0 70 -49 120t-115 50q-70 0 -118 -50.5t-48 -119.5z" />
<glyph unicode="&#xb1;" horiz-adv-x="1384" d="M207 0v201h969v-201h-969zM207 707v200h403v330h164v-330h402v-200h-402v-330h-164v330h-403z" />
<glyph unicode="&#xb2;" d="M92 0v285q0 84 7 140t26.5 100t56.5 85t97 92l321 269q57 47 78.5 81.5t21.5 75.5q0 61 -34.5 85t-94.5 24q-70 0 -109.5 -33t-39.5 -110v-93h-303v365q82 66 203.5 110t248.5 44q219 0 341 -98.5t122 -297.5q0 -74 -12 -128t-39 -100t-69 -88t-103 -95l-301 -260 q-55 -47 -71.5 -76t-16.5 -74v-18h137q84 0 112.5 28.5t28.5 114.5v47h334v-475h-942z" />
<glyph unicode="&#xb3;" d="M96 106v386h312v-33q0 -113 38.5 -153t124.5 -40q80 0 115 53.5t35 180.5q0 119 -35 172t-111 53q-84 0 -139 -68l-141 197l377 348h-117q-98 0 -122.5 -13t-24.5 -56v-43h-295v401h891v-346l-220 -205q63 -23 112.5 -53.5t81.5 -82.5t48 -130t16 -195 q0 -266 -112.5 -388t-354.5 -122q-139 0 -263 35t-216 102z" />
<glyph unicode="&#xb5;" horiz-adv-x="1036" d="M125 -246v1350h233v-438q0 -246 36 -352.5t138 -106.5q86 0 119 91t33 286v520h231v-821q0 -35 4.5 -78t10.5 -83t14 -73t14 -49h-233l-27 119q-45 -152 -153 -152q-53 0 -99.5 28t-87.5 89v-330h-233z" />
<glyph unicode="&#xb6;" horiz-adv-x="1036" d="M137 1143q0 156 84 254t232 98h446v-113h-92v-1382h-121v1382h-131v-1382h-123v793q-137 6 -216 103t-79 247z" />
<glyph unicode="&#xb7;" horiz-adv-x="641" d="M143 700q0 53 6.5 86t26 51.5t54 24.5t92.5 6q57 0 92 -6t54 -24.5t25.5 -51t6.5 -86.5q0 -59 -6.5 -95t-25.5 -55.5t-54 -25.5t-92 -6t-92 6t-54.5 25.5t-26 55.5t-6.5 95z" />
<glyph unicode="&#x2219;" horiz-adv-x="641" d="M143 700q0 53 6.5 86t26 51.5t54 24.5t92.5 6q57 0 92 -6t54 -24.5t25.5 -51t6.5 -86.5q0 -59 -6.5 -95t-25.5 -55.5t-54 -25.5t-92 -6t-92 6t-54.5 25.5t-26 55.5t-6.5 95z" />
<glyph unicode="&#xb8;" horiz-adv-x="1071" d="M92 401v416q0 225 106.5 327.5t340.5 102.5q227 0 331.5 -103.5t104.5 -326.5v-295h-576v-104q0 -106 34 -151.5t106 -45.5q63 0 103 37t40 125v14h293v-280q-92 -70 -205 -106t-231 -36q-233 0 -340 101.5t-107 324.5zM201 1532q0 82 24.5 105.5t112.5 23.5 q84 0 110.5 -23.5t26.5 -105.5q0 -90 -26.5 -114.5t-110.5 -24.5q-88 0 -112.5 24.5t-24.5 114.5zM399 760h283v49q0 96 -38 141t-105 45q-72 0 -106 -47t-34 -153v-35zM604 1532q0 82 24.5 105.5t112.5 23.5t113 -23.5t25 -105.5q0 -90 -25 -114.5t-113 -24.5t-112.5 24.5 t-24.5 114.5z" />
<glyph unicode="&#x451;" horiz-adv-x="1071" d="M92 401v416q0 225 106.5 327.5t340.5 102.5q227 0 331.5 -103.5t104.5 -326.5v-295h-576v-104q0 -106 34 -151.5t106 -45.5q63 0 103 37t40 125v14h293v-280q-92 -70 -205 -106t-231 -36q-233 0 -340 101.5t-107 324.5zM201 1532q0 82 24.5 105.5t112.5 23.5 q84 0 110.5 -23.5t26.5 -105.5q0 -90 -26.5 -114.5t-110.5 -24.5q-88 0 -112.5 24.5t-24.5 114.5zM399 760h283v49q0 96 -38 141t-105 45q-72 0 -106 -47t-34 -153v-35zM604 1532q0 82 24.5 105.5t112.5 23.5t113 -23.5t25 -105.5q0 -90 -25 -114.5t-113 -24.5t-112.5 24.5 t-24.5 114.5z" />
<glyph unicode="&#xb9;" horiz-adv-x="2099" d="M104 0v229q37 0 56.5 36t19.5 132v731q0 72 -17.5 103t-56.5 41l-2 219h400l379 -780v393q0 90 -22.5 129t-53.5 39v219h469v-219q-35 0 -56.5 -40t-21.5 -145v-1087h-319l-379 780v-383q0 -90 18.5 -129t54.5 -39v-229h-469zM1352 0v229h661v-229h-661zM1352 645v246 q0 160 82 229.5t249 69.5q166 0 248 -69.5t82 -229.5v-246q0 -162 -82 -229.5t-248 -67.5q-168 0 -249.5 68.5t-81.5 228.5zM1587 657q0 -57 19.5 -79.5t76.5 -22.5q55 0 74 22.5t19 79.5v222q0 59 -18.5 82.5t-74.5 23.5q-55 0 -75.5 -23.5t-20.5 -82.5v-222z" />
<glyph unicode="&#x2116;" horiz-adv-x="2099" d="M104 0v229q37 0 56.5 36t19.5 132v731q0 72 -17.5 103t-56.5 41l-2 219h400l379 -780v393q0 90 -22.5 129t-53.5 39v219h469v-219q-35 0 -56.5 -40t-21.5 -145v-1087h-319l-379 780v-383q0 -90 18.5 -129t54.5 -39v-229h-469zM1352 0v229h661v-229h-661zM1352 645v246 q0 160 82 229.5t249 69.5q166 0 248 -69.5t82 -229.5v-246q0 -162 -82 -229.5t-248 -67.5q-168 0 -249.5 68.5t-81.5 228.5zM1587 657q0 -57 19.5 -79.5t76.5 -22.5q55 0 74 22.5t19 79.5v222q0 59 -18.5 82.5t-74.5 23.5q-55 0 -75.5 -23.5t-20.5 -82.5v-222z" />
<glyph unicode="&#xba;" horiz-adv-x="1069" d="M80 360v506q0 190 106.5 285.5t348.5 95.5q246 0 348 -95t102 -286v-506q0 -188 -100 -286.5t-350 -98.5q-244 0 -349.5 98.5t-105.5 286.5zM395 401q0 -98 32 -139t108 -41q72 0 105.5 41t33.5 139v416q0 98 -34 138t-105 40q-76 0 -108 -41t-32 -137v-416z" />
<glyph unicode="&#xbb;" horiz-adv-x="1134" d="M184 299l148 379l-148 379h219l154 -379l-154 -379h-219zM578 299l145 379l-145 379h219l151 -379l-151 -379h-219z" />
<glyph unicode="&#xc0;" horiz-adv-x="1253" d="M25 0v229q31 10 52 42t36 104l157 747q8 39 0 76t-37 37v256h787v-256q-29 0 -37 -37t0 -76l160 -747q16 -72 34.5 -103.5t51.5 -42.5v-229h-502v229q37 0 51.5 27t14.5 41q0 53 -11 104l-4 23h-321l-4 -23q-10 -51 -11 -104q0 -14 14.5 -41t53.5 -27v-229h-485zM500 651 h235l-108 584h-19z" />
<glyph unicode="&#x410;" horiz-adv-x="1253" d="M25 0v229q31 10 52 42t36 104l157 747q8 39 0 76t-37 37v256h787v-256q-29 0 -37 -37t0 -76l160 -747q16 -72 34.5 -103.5t51.5 -42.5v-229h-502v229q37 0 51.5 27t14.5 41q0 53 -11 104l-4 23h-321l-4 -23q-10 -51 -11 -104q0 -14 14.5 -41t53.5 -27v-229h-485zM500 651 h235l-108 584h-19z" />
<glyph unicode="&#xc1;" horiz-adv-x="1304" d="M104 0v229q41 10 58.5 41t17.5 131v699q0 100 -17.5 131t-58.5 41v219h1063v-438h-278v82q0 39 -37 64.5t-133 25.5h-189v-307h150q244 0 391.5 -113t147.5 -344q0 -236 -147.5 -348.5t-391.5 -112.5h-576zM530 266h97q125 0 180 47t55 148q0 88 -55 139t-180 51h-97 v-385z" />
<glyph unicode="&#x411;" horiz-adv-x="1304" d="M104 0v229q41 10 58.5 41t17.5 131v699q0 100 -17.5 131t-58.5 41v219h1063v-438h-278v82q0 39 -37 64.5t-133 25.5h-189v-307h150q244 0 391.5 -113t147.5 -344q0 -236 -147.5 -348.5t-391.5 -112.5h-576zM530 266h97q125 0 180 47t55 148q0 88 -55 139t-180 51h-97 v-385z" />
<glyph unicode="&#xc2;" horiz-adv-x="1316" d="M104 0v229q41 10 58.5 41t17.5 131v699q0 100 -17.5 131t-58.5 41v219h582q270 0 389 -95.5t119 -305.5q0 -119 -38 -189t-146 -115q70 -31 110.5 -69.5t62 -85.5t29 -104.5t7.5 -127.5q0 -215 -114.5 -307t-397.5 -92h-603zM530 270h156q98 0 143 45t45 146 q0 100 -48 142t-148 42h-148v-375zM530 897h138q96 0 139 35t43 119q0 94 -43 133t-139 39h-138v-326z" />
<glyph unicode="&#x412;" horiz-adv-x="1316" d="M104 0v229q41 10 58.5 41t17.5 131v699q0 100 -17.5 131t-58.5 41v219h582q270 0 389 -95.5t119 -305.5q0 -119 -38 -189t-146 -115q70 -31 110.5 -69.5t62 -85.5t29 -104.5t7.5 -127.5q0 -215 -114.5 -307t-397.5 -92h-603zM530 270h156q98 0 143 45t45 146 q0 100 -48 142t-148 42h-148v-375zM530 897h138q96 0 139 35t43 119q0 94 -43 133t-139 39h-138v-326z" />
<glyph unicode="&#xc3;" horiz-adv-x="1159" d="M100 0v221q41 16 58.5 48t17.5 132v699q0 90 -17.5 126t-58.5 46v219h1010v-492h-307v91q0 66 -39 104.5t-131 38.5h-103v-832q0 -98 20.5 -139t76.5 -41v-221h-527z" />
<glyph unicode="&#x413;" horiz-adv-x="1159" d="M100 0v221q41 16 58.5 48t17.5 132v699q0 90 -17.5 126t-58.5 46v219h1010v-492h-307v91q0 66 -39 104.5t-131 38.5h-103v-832q0 -98 20.5 -139t76.5 -41v-221h-527z" />
<glyph unicode="&#xc4;" horiz-adv-x="1374" d="M25 225q74 14 124 80t50 205v586q0 98 -20.5 129.5t-63.5 42.5v223h1155v-223q-41 -10 -59.5 -41t-18.5 -127v-703q0 -100 46 -136t91 -36v-479h-319v92q0 84 -34 123t-130 39h-367q-135 0 -135 -154v-100h-319v479zM481 264h365v950h-307v-718q0 -76 -14.5 -128.5 t-43.5 -103.5z" />
<glyph unicode="&#x414;" horiz-adv-x="1374" d="M25 225q74 14 124 80t50 205v586q0 98 -20.5 129.5t-63.5 42.5v223h1155v-223q-41 -10 -59.5 -41t-18.5 -127v-703q0 -100 46 -136t91 -36v-479h-319v92q0 84 -34 123t-130 39h-367q-135 0 -135 -154v-100h-319v479zM481 264h365v950h-307v-718q0 -76 -14.5 -128.5 t-43.5 -103.5z" />
<glyph unicode="&#xc5;" horiz-adv-x="1259" d="M104 0v229q41 10 58.5 41t17.5 131v699q0 100 -17.5 131t-58.5 41v219h1065v-492h-327v56q0 96 -41 134t-142 38h-124v-328h307v-258h-307v-375h151q84 0 120 37t36 139v99h327v-541h-1065z" />
<glyph unicode="&#x415;" horiz-adv-x="1259" d="M104 0v229q41 10 58.5 41t17.5 131v699q0 100 -17.5 131t-58.5 41v219h1065v-492h-327v56q0 96 -41 134t-142 38h-124v-328h307v-258h-307v-375h151q84 0 120 37t36 139v99h327v-541h-1065z" />
<glyph unicode="&#xc6;" horiz-adv-x="1839" d="M80 0v229q35 0 50 38t15 130v140q0 158 64.5 232.5t204.5 102.5l-240 328q-29 41 -48.5 56.5t-45.5 15.5v219h412v-186q0 -47 13 -91.5t48 -89.5l197 -264v240q0 109 -18.5 140.5t-51.5 31.5v219h479v-219q-33 0 -51 -32t-18 -140v-240l196 264q35 45 48.5 89t13.5 92 v186h409v-219q-27 0 -45 -15.5t-47 -56.5l-242 -328q139 -29 205 -103.5t66 -231.5v-140q0 -92 15 -130t48 -38v-229h-373q-12 31 -17 71t-5 140v195q0 115 -38 174t-140 59h-94v-238q0 -102 16 -131.5t53 -40.5v-229h-479v229q37 10 53.5 40t16.5 132v238h-97 q-100 0 -138 -59.5t-38 -173.5v-195q0 -96 -6 -138t-18 -73h-373z" />
<glyph unicode="&#x416;" horiz-adv-x="1839" d="M80 0v229q35 0 50 38t15 130v140q0 158 64.5 232.5t204.5 102.5l-240 328q-29 41 -48.5 56.5t-45.5 15.5v219h412v-186q0 -47 13 -91.5t48 -89.5l197 -264v240q0 109 -18.5 140.5t-51.5 31.5v219h479v-219q-33 0 -51 -32t-18 -140v-240l196 264q35 45 48.5 89t13.5 92 v186h409v-219q-27 0 -45 -15.5t-47 -56.5l-242 -328q139 -29 205 -103.5t66 -231.5v-140q0 -92 15 -130t48 -38v-229h-373q-12 31 -17 71t-5 140v195q0 115 -38 174t-140 59h-94v-238q0 -102 16 -131.5t53 -40.5v-229h-479v229q37 10 53.5 40t16.5 132v238h-97 q-100 0 -138 -59.5t-38 -173.5v-195q0 -96 -6 -138t-18 -73h-373z" />
<glyph unicode="&#xc7;" horiz-adv-x="1226" d="M90 106v338h344q0 -96 45 -145t123 -49q72 0 115 49t43 143q0 106 -48 158.5t-163 52.5h-191v230h203q94 0 148.5 44t54.5 132t-48 136t-126 48q-66 0 -108 -46t-46 -130h-325v319q215 133 501 134q244 0 370 -104.5t126 -299.5q0 -131 -69.5 -216t-250.5 -132 q182 -27 257 -116t75 -242q0 -440 -522 -441q-129 0 -259 36t-249 101z" />
<glyph unicode="&#x417;" horiz-adv-x="1226" d="M90 106v338h344q0 -96 45 -145t123 -49q72 0 115 49t43 143q0 106 -48 158.5t-163 52.5h-191v230h203q94 0 148.5 44t54.5 132t-48 136t-126 48q-66 0 -108 -46t-46 -130h-325v319q215 133 501 134q244 0 370 -104.5t126 -299.5q0 -131 -69.5 -216t-250.5 -132 q182 -27 257 -116t75 -242q0 -440 -522 -441q-129 0 -259 36t-249 101z" />
<glyph unicode="&#xc8;" horiz-adv-x="1400" d="M104 0v229q41 10 58.5 41t17.5 131v699q0 100 -17.5 131t-58.5 41v219h504v-219q-43 -10 -60.5 -41t-17.5 -131v-357l344 349q0 53 -5 85.5t-14 52t-24.5 28t-35.5 14.5v219h503v-219q-39 -10 -58 -41t-19 -131v-699q0 -100 18 -130.5t59 -41.5v-229h-503v229 q41 10 60 40t19 132v347l-344 -338q0 -106 17.5 -138t60.5 -43v-229h-504z" />
<glyph unicode="&#x418;" horiz-adv-x="1400" d="M104 0v229q41 10 58.5 41t17.5 131v699q0 100 -17.5 131t-58.5 41v219h504v-219q-43 -10 -60.5 -41t-17.5 -131v-357l344 349q0 53 -5 85.5t-14 52t-24.5 28t-35.5 14.5v219h503v-219q-39 -10 -58 -41t-19 -131v-699q0 -100 18 -130.5t59 -41.5v-229h-503v229 q41 10 60 40t19 132v347l-344 -338q0 -106 17.5 -138t60.5 -43v-229h-504z" />
<glyph unicode="&#xc9;" horiz-adv-x="1400" d="M104 -4v229q41 10 58.5 42t17.5 130v703q0 98 -17.5 127.5t-58.5 40.5v219h504v-219q-43 -10 -60.5 -40t-17.5 -128v-361l344 353q0 104 -19 134.5t-60 41.5v219h503v-219q-39 -10 -58 -41t-19 -127v-703q0 -98 18 -129.5t59 -42.5v-229h-503v229q41 10 60 41t19 131v346 l-344 -337q0 -106 17.5 -138t60.5 -43v-229h-504zM379 1839h221q0 -70 28.5 -92.5t76.5 -22.5q45 0 72.5 25t27.5 90h223q0 -80 -26.5 -135t-70.5 -91t-102.5 -52.5t-123.5 -16.5q-135 0 -230.5 68.5t-95.5 226.5z" />
<glyph unicode="&#x419;" horiz-adv-x="1400" d="M104 -4v229q41 10 58.5 42t17.5 130v703q0 98 -17.5 127.5t-58.5 40.5v219h504v-219q-43 -10 -60.5 -40t-17.5 -128v-361l344 353q0 104 -19 134.5t-60 41.5v219h503v-219q-39 -10 -58 -41t-19 -127v-703q0 -98 18 -129.5t59 -42.5v-229h-503v229q41 10 60 41t19 131v346 l-344 -337q0 -106 17.5 -138t60.5 -43v-229h-504zM379 1839h221q0 -70 28.5 -92.5t76.5 -22.5q45 0 72.5 25t27.5 90h223q0 -80 -26.5 -135t-70.5 -91t-102.5 -52.5t-123.5 -16.5q-135 0 -230.5 68.5t-95.5 226.5z" />
<glyph unicode="&#xca;" horiz-adv-x="1316" d="M104 0v229q41 10 58.5 41t17.5 131v699q0 100 -17.5 131t-58.5 41v219h504v-219q-35 0 -56.5 -32t-21.5 -140v-240l209 264q35 45 49.5 89t14.5 92v186h426v-219q-27 0 -46.5 -15.5t-49.5 -56.5l-256 -338q143 -27 214.5 -97.5t71.5 -227.5v-140q0 -92 16.5 -130 t49.5 -38v-229h-387q-12 31 -18.5 73t-6.5 138v195q0 115 -41 171t-143 56h-103v-232q0 -102 19.5 -131.5t58.5 -40.5v-229h-504z" />
<glyph unicode="&#x41a;" horiz-adv-x="1316" d="M104 0v229q41 10 58.5 41t17.5 131v699q0 100 -17.5 131t-58.5 41v219h504v-219q-35 0 -56.5 -32t-21.5 -140v-240l209 264q35 45 49.5 89t14.5 92v186h426v-219q-27 0 -46.5 -15.5t-49.5 -56.5l-256 -338q143 -27 214.5 -97.5t71.5 -227.5v-140q0 -92 16.5 -130 t49.5 -38v-229h-387q-12 31 -18.5 73t-6.5 138v195q0 115 -41 171t-143 56h-103v-232q0 -102 19.5 -131.5t58.5 -40.5v-229h-504z" />
<glyph unicode="&#xcb;" horiz-adv-x="1359" d="M43 6v223h39q63 0 93 42t30 157v672q0 100 -19.5 131t-58.5 41v219h1130v-219q-41 -10 -59 -41t-18 -131v-699q0 -100 18.5 -130.5t58.5 -41.5v-229h-503v229q41 10 59 40t18 132v818h-282v-838q0 -193 -82 -300.5t-240 -107.5q-47 0 -94 8.5t-90 24.5z" />
<glyph unicode="&#x41b;" horiz-adv-x="1359" d="M43 6v223h39q63 0 93 42t30 157v672q0 100 -19.5 131t-58.5 41v219h1130v-219q-41 -10 -59 -41t-18 -131v-699q0 -100 18.5 -130.5t58.5 -41.5v-229h-503v229q41 10 59 40t18 132v818h-282v-838q0 -193 -82 -300.5t-240 -107.5q-47 0 -94 8.5t-90 24.5z" />
<glyph unicode="&#xcc;" horiz-adv-x="1660" d="M100 0v229q43 8 60.5 45t17.5 140v686q0 100 -17.5 128.5t-60.5 41.5v221h547l182 -670l183 670h549v-221q-43 -12 -60.5 -41t-17.5 -129v-686q0 -102 17.5 -139t60.5 -46v-229h-496v229q41 8 57.5 46t16.5 139v614l-230 -774h-157l-230 774v-614q0 -100 17.5 -138 t56.5 -47v-229h-496z" />
<glyph unicode="&#x41c;" horiz-adv-x="1660" d="M100 0v229q43 8 60.5 45t17.5 140v686q0 100 -17.5 128.5t-60.5 41.5v221h547l182 -670l183 670h549v-221q-43 -12 -60.5 -41t-17.5 -129v-686q0 -102 17.5 -139t60.5 -46v-229h-496v229q41 8 57.5 46t16.5 139v614l-230 -774h-157l-230 774v-614q0 -100 17.5 -138 t56.5 -47v-229h-496z" />
<glyph unicode="&#xcd;" horiz-adv-x="1384" d="M104 0v229q41 10 58.5 41t17.5 131v699q0 100 -17.5 131t-58.5 41v219h504v-219q-43 -10 -60.5 -41t-17.5 -131v-205h324v205q0 100 -18.5 131t-59.5 41v219h504v-219q-39 -10 -58.5 -41t-19.5 -131v-699q0 -100 18.5 -130.5t59.5 -41.5v-229h-504v229q41 10 59.5 40 t18.5 132v240h-324v-240q0 -102 17.5 -131.5t60.5 -40.5v-229h-504z" />
<glyph unicode="&#x41d;" horiz-adv-x="1384" d="M104 0v229q41 10 58.5 41t17.5 131v699q0 100 -17.5 131t-58.5 41v219h504v-219q-43 -10 -60.5 -41t-17.5 -131v-205h324v205q0 100 -18.5 131t-59.5 41v219h504v-219q-39 -10 -58.5 -41t-19.5 -131v-699q0 -100 18.5 -130.5t59.5 -41.5v-229h-504v229q41 10 59.5 40 t18.5 132v240h-324v-240q0 -102 17.5 -131.5t60.5 -40.5v-229h-504z" />
<glyph unicode="&#xce;" horiz-adv-x="1234" d="M109 434v627q0 229 113.5 344t393.5 115q287 0 398.5 -115t111.5 -344v-627q0 -115 -24.5 -201t-84 -145t-157 -89t-244.5 -30q-283 0 -395 119t-112 346zM457 487q0 -127 40 -182t119 -55q80 0 121 54t41 183v517q0 127 -41 181t-121 54t-119.5 -54t-39.5 -181v-517z " />
<glyph unicode="&#x41e;" horiz-adv-x="1234" d="M109 434v627q0 229 113.5 344t393.5 115q287 0 398.5 -115t111.5 -344v-627q0 -115 -24.5 -201t-84 -145t-157 -89t-244.5 -30q-283 0 -395 119t-112 346zM457 487q0 -127 40 -182t119 -55q80 0 121 54t41 183v517q0 127 -41 181t-121 54t-119.5 -54t-39.5 -181v-517z " />
<glyph unicode="&#xcf;" horiz-adv-x="1384" d="M104 0v229q41 10 58.5 41t17.5 131v699q0 100 -17.5 131t-58.5 41v219h1176v-219q-39 -10 -58.5 -41t-19.5 -131v-699q0 -100 18.5 -130.5t59.5 -41.5v-229h-504v229q41 10 59.5 40t18.5 132v818h-324v-818q0 -102 17.5 -131.5t60.5 -40.5v-229h-504z" />
<glyph unicode="&#x41f;" horiz-adv-x="1384" d="M104 0v229q41 10 58.5 41t17.5 131v699q0 100 -17.5 131t-58.5 41v219h1176v-219q-39 -10 -58.5 -41t-19.5 -131v-699q0 -100 18.5 -130.5t59.5 -41.5v-229h-504v229q41 10 59.5 40t18.5 132v818h-324v-818q0 -102 17.5 -131.5t60.5 -40.5v-229h-504z" />
<glyph unicode="&#xd0;" horiz-adv-x="1251" d="M104 0v229q41 10 58.5 41t17.5 131v699q0 100 -17.5 131t-58.5 41v219h598q270 0 386 -123t116 -354q0 -147 -33.5 -251t-93 -169.5t-139.5 -95t-174 -29.5q-20 0 -52 3t-66 9t-64.5 13.5t-46.5 13.5v-107q0 -102 27.5 -133.5t70.5 -38.5v-229h-529zM535 760h127 q111 0 149.5 48t38.5 167q0 125 -41 172t-145 47h-129v-434z" />
<glyph unicode="&#x420;" horiz-adv-x="1251" d="M104 0v229q41 10 58.5 41t17.5 131v699q0 100 -17.5 131t-58.5 41v219h598q270 0 386 -123t116 -354q0 -147 -33.5 -251t-93 -169.5t-139.5 -95t-174 -29.5q-20 0 -52 3t-66 9t-64.5 13.5t-46.5 13.5v-107q0 -102 27.5 -133.5t70.5 -38.5v-229h-529zM535 760h127 q111 0 149.5 48t38.5 167q0 125 -41 172t-145 47h-129v-434z" />
<glyph unicode="&#xd1;" horiz-adv-x="1241" d="M109 434v649q0 219 117.5 328t398.5 109q252 0 491 -109v-412h-315v62q0 111 -50.5 144.5t-125.5 33.5q-80 0 -120 -54.5t-40 -180.5v-517q0 -127 40 -182t120 -55t128 54t48 183v56h315v-459q-223 -115 -491 -115q-145 0 -243.5 30t-159 88t-87 145t-26.5 202z" />
<glyph unicode="&#x421;" horiz-adv-x="1241" d="M109 434v649q0 219 117.5 328t398.5 109q252 0 491 -109v-412h-315v62q0 111 -50.5 144.5t-125.5 33.5q-80 0 -120 -54.5t-40 -180.5v-517q0 -127 40 -182t120 -55t128 54t48 183v56h315v-459q-223 -115 -491 -115q-145 0 -243.5 30t-159 88t-87 145t-26.5 202z" />
<glyph unicode="&#xd2;" horiz-adv-x="1310" d="M57 999v533h1192v-533h-284v119q0 74 -23.5 108t-95.5 36h-19v-861q0 -100 20.5 -136t59.5 -36v-229h-508v229q39 0 59.5 36t20.5 136v861h-18q-72 -2 -95.5 -36t-23.5 -108v-119h-285z" />
<glyph unicode="&#x422;" horiz-adv-x="1310" d="M57 999v533h1192v-533h-284v119q0 74 -23.5 108t-95.5 36h-19v-861q0 -100 20.5 -136t59.5 -36v-229h-508v229q39 0 59.5 36t20.5 136v861h-18q-72 -2 -95.5 -36t-23.5 -108v-119h-285z" />
<glyph unicode="&#xd3;" horiz-adv-x="1214" d="M35 1272v219h512v-219q-43 -12 -43 -74q0 -25 6 -47l123 -444l119 442q6 25 6 47q0 33 -12.5 49.5t-38.5 26.5v219h489v-219q-27 -10 -44 -31.5t-36 -77.5l-235 -725q-45 -141 -89 -230t-100.5 -141.5t-130.5 -72t-176 -19.5q-57 0 -131 25v233h37q61 0 92 21.5t47 75.5 l-309 823q-47 109 -86 119z" />
<glyph unicode="&#x423;" horiz-adv-x="1214" d="M35 1272v219h512v-219q-43 -12 -43 -74q0 -25 6 -47l123 -444l119 442q6 25 6 47q0 33 -12.5 49.5t-38.5 26.5v219h489v-219q-27 -10 -44 -31.5t-36 -77.5l-235 -725q-45 -141 -89 -230t-100.5 -141.5t-130.5 -72t-176 -19.5q-57 0 -131 25v233h37q61 0 92 21.5t47 75.5 l-309 823q-47 109 -86 119z" />
<glyph unicode="&#xd4;" horiz-adv-x="1540" d="M41 768q0 117 24.5 201t80 136t145.5 76.5t223 24.5h84v29q0 39 -21.5 58.5t-39.5 19.5v178h467v-178q-18 0 -40 -19.5t-22 -58.5v-29h84q133 0 223 -24.5t145.5 -76.5t80 -136t24.5 -201q0 -231 -96 -329.5t-320 -98.5q-37 0 -79.5 5t-61.5 13v-71q0 -45 20.5 -74 t53.5 -29v-184h-492v184q33 0 53.5 29t20.5 74v71q-18 -8 -61 -13t-80 -5q-223 0 -319.5 98.5t-96.5 329.5zM377 776q0 -102 37 -146t137 -44h47v375h-51q-96 0 -133 -39t-37 -146zM942 586h47q100 0 137 44t37 146q0 106 -36.5 145.5t-133.5 39.5h-51v-375z" />
<glyph unicode="&#x424;" horiz-adv-x="1540" d="M41 768q0 117 24.5 201t80 136t145.5 76.5t223 24.5h84v29q0 39 -21.5 58.5t-39.5 19.5v178h467v-178q-18 0 -40 -19.5t-22 -58.5v-29h84q133 0 223 -24.5t145.5 -76.5t80 -136t24.5 -201q0 -231 -96 -329.5t-320 -98.5q-37 0 -79.5 5t-61.5 13v-71q0 -45 20.5 -74 t53.5 -29v-184h-492v184q33 0 53.5 29t20.5 74v71q-18 -8 -61 -13t-80 -5q-223 0 -319.5 98.5t-96.5 329.5zM377 776q0 -102 37 -146t137 -44h47v375h-51q-96 0 -133 -39t-37 -146zM942 586h47q100 0 137 44t37 146q0 106 -36.5 145.5t-133.5 39.5h-51v-375z" />
<glyph unicode="&#xd5;" horiz-adv-x="1150" d="M37 0v229q14 0 35.5 22.5t56.5 80.5l256 440l-240 408q-29 53 -52 71.5t-34 18.5v221h424v-141q0 -80 31 -140l61 -129l62 129q14 29 23.5 63t9.5 77v141h422v-221q-10 0 -34 -18.5t-52 -71.5l-240 -408l256 -440q35 -57 56.5 -80t35.5 -23v-229h-440v180q0 45 -12.5 86 t-28.5 76l-58 123l-57 -123q-16 -35 -27.5 -76t-11.5 -86v-180h-442z" />
<glyph unicode="&#x425;" horiz-adv-x="1150" d="M37 0v229q14 0 35.5 22.5t56.5 80.5l256 440l-240 408q-29 53 -52 71.5t-34 18.5v221h424v-141q0 -80 31 -140l61 -129l62 129q14 29 23.5 63t9.5 77v141h422v-221q-10 0 -34 -18.5t-52 -71.5l-240 -408l256 -440q35 -57 56.5 -80t35.5 -23v-229h-440v180q0 45 -12.5 86 t-28.5 76l-58 123l-57 -123q-16 -35 -27.5 -76t-11.5 -86v-180h-442z" />
<glyph unicode="&#xd6;" horiz-adv-x="1384" d="M104 0v225q39 12 57.5 45t18.5 127v703q0 98 -18.5 130t-57.5 42v219h502v-219q-41 -10 -59.5 -41t-18.5 -131v-836h324v836q0 100 -18.5 131t-59.5 41v219h506v-219q-43 -10 -60.5 -42t-17.5 -130v-703q0 -100 46 -136t87 -36v-479h-315v92q0 84 -36 123t-132 39h-748z " />
<glyph unicode="&#x426;" horiz-adv-x="1384" d="M104 0v225q39 12 57.5 45t18.5 127v703q0 98 -18.5 130t-57.5 42v219h502v-219q-41 -10 -59.5 -41t-18.5 -131v-836h324v836q0 100 -18.5 131t-59.5 41v219h506v-219q-43 -10 -60.5 -42t-17.5 -130v-703q0 -100 46 -136t87 -36v-479h-315v92q0 84 -36 123t-132 39h-748z " />
<glyph unicode="&#xd7;" horiz-adv-x="1277" d="M31 1272v219h485v-219q-43 -10 -59.5 -41t-16.5 -131v-207q0 -70 39 -109t99 -39q57 0 99 10.5t71 18.5v326q0 109 -21.5 140.5t-56.5 31.5v219h504v-219q-41 -10 -58.5 -41t-17.5 -131v-699q0 -100 17.5 -130.5t58.5 -41.5v-229h-521v229q51 10 73 40t22 132v134 q-55 -20 -143.5 -30.5t-164.5 -10.5q-160 0 -252 93t-92 290v223q0 100 -19.5 133t-45.5 39z" />
<glyph unicode="&#x427;" horiz-adv-x="1277" d="M31 1272v219h485v-219q-43 -10 -59.5 -41t-16.5 -131v-207q0 -70 39 -109t99 -39q57 0 99 10.5t71 18.5v326q0 109 -21.5 140.5t-56.5 31.5v219h504v-219q-41 -10 -58.5 -41t-17.5 -131v-699q0 -100 17.5 -130.5t58.5 -41.5v-229h-521v229q51 10 73 40t22 132v134 q-55 -20 -143.5 -30.5t-164.5 -10.5q-160 0 -252 93t-92 290v223q0 100 -19.5 133t-45.5 39z" />
<glyph unicode="&#xd8;" horiz-adv-x="1937" d="M104 0v229q39 10 57.5 35t18.5 127v709q0 100 -18.5 131t-57.5 41v219h502v-219q-41 -10 -59.5 -40t-18.5 -132v-836h265v836q0 100 -17.5 131t-58.5 41v219h497v-219q-39 -10 -55 -41t-16 -131v-836h264v836q0 102 -17.5 132t-60.5 40v219h506v-219q-43 -10 -60.5 -41 t-17.5 -131v-709q0 -51 4 -81.5t13.5 -46t25 -21.5t35.5 -13v-229h-1731z" />
<glyph unicode="&#x428;" horiz-adv-x="1937" d="M104 0v229q39 10 57.5 35t18.5 127v709q0 100 -18.5 131t-57.5 41v219h502v-219q-41 -10 -59.5 -40t-18.5 -132v-836h265v836q0 100 -17.5 131t-58.5 41v219h497v-219q-39 -10 -55 -41t-16 -131v-836h264v836q0 102 -17.5 132t-60.5 40v219h506v-219q-43 -10 -60.5 -41 t-17.5 -131v-709q0 -51 4 -81.5t13.5 -46t25 -21.5t35.5 -13v-229h-1731z" />
<glyph unicode="&#xd9;" horiz-adv-x="1939" d="M100 0v225q20 6 36 13.5t25 24t14 46t5 78.5v713q0 98 -18.5 130t-61.5 42v219h502v-219q-39 -10 -56.5 -41t-17.5 -131v-836h265v836q0 98 -17.5 130t-58.5 42v219h497v-219q-39 -10 -55 -42t-16 -130v-836h264v836q0 100 -17.5 131t-60.5 41v219h506v-219 q-43 -10 -60.5 -42t-17.5 -130v-703q0 -100 46 -136t91 -36v-479h-319v92q0 84 -36 123t-132 39h-1307z" />
<glyph unicode="&#x429;" horiz-adv-x="1939" d="M100 0v225q20 6 36 13.5t25 24t14 46t5 78.5v713q0 98 -18.5 130t-61.5 42v219h502v-219q-39 -10 -56.5 -41t-17.5 -131v-836h265v836q0 98 -17.5 130t-58.5 42v219h497v-219q-39 -10 -55 -42t-16 -130v-836h264v836q0 100 -17.5 131t-60.5 41v219h506v-219 q-43 -10 -60.5 -42t-17.5 -130v-703q0 -100 46 -136t91 -36v-479h-319v92q0 84 -36 123t-132 39h-1307z" />
<glyph unicode="&#xda;" horiz-adv-x="1583" d="M49 1053v438h862v-219q-45 0 -68.5 -37t-23.5 -135v-182h150q246 0 393 -113t147 -344q0 -236 -147.5 -348.5t-392.5 -112.5h-580v229q45 10 62.5 41t17.5 131v824h-35q-41 0 -72.5 -25.5t-31.5 -64.5v-82h-281zM819 266h99q121 0 175 47t54 148q0 88 -54.5 139 t-174.5 51h-99v-385z" />
<glyph unicode="&#x42a;" horiz-adv-x="1583" d="M49 1053v438h862v-219q-45 0 -68.5 -37t-23.5 -135v-182h150q246 0 393 -113t147 -344q0 -236 -147.5 -348.5t-392.5 -112.5h-580v229q45 10 62.5 41t17.5 131v824h-35q-41 0 -72.5 -25.5t-31.5 -64.5v-82h-281zM819 266h99q121 0 175 47t54 148q0 88 -54.5 139 t-174.5 51h-99v-385z" />
<glyph unicode="&#xdb;" horiz-adv-x="1841" d="M104 0v229q41 10 58.5 41t17.5 131v699q0 100 -17.5 131t-58.5 41v219h517v-219q-39 0 -65 -37t-26 -135v-182h107q246 0 393.5 -113t147.5 -344q0 -236 -147.5 -348.5t-393.5 -112.5h-533zM530 266h56q121 0 177 47t56 148q0 88 -56 139t-177 51h-56v-385zM1235 0v229 q39 10 59.5 41t20.5 131v699q0 100 -20.5 131t-59.5 41v219h502v-219q-39 -10 -55.5 -41t-16.5 -131v-699q0 -102 16.5 -131.5t55.5 -40.5v-229h-502z" />
<glyph unicode="&#x42b;" horiz-adv-x="1841" d="M104 0v229q41 10 58.5 41t17.5 131v699q0 100 -17.5 131t-58.5 41v219h517v-219q-39 0 -65 -37t-26 -135v-182h107q246 0 393.5 -113t147.5 -344q0 -236 -147.5 -348.5t-393.5 -112.5h-533zM530 266h56q121 0 177 47t56 148q0 88 -56 139t-177 51h-56v-385zM1235 0v229 q39 10 59.5 41t20.5 131v699q0 100 -20.5 131t-59.5 41v219h502v-219q-39 -10 -55.5 -41t-16.5 -131v-699q0 -102 16.5 -131.5t55.5 -40.5v-229h-502z" />
<glyph unicode="&#xdc;" horiz-adv-x="1298" d="M104 0v229q41 10 58.5 41t17.5 131v699q0 100 -17.5 131t-58.5 41v219h517v-219q-39 0 -65 -37t-26 -135v-182h150q244 0 391.5 -113t147.5 -344q0 -236 -147.5 -348.5t-391.5 -112.5h-576zM530 266h97q125 0 180 47t55 148q0 88 -55 139t-180 51h-97v-385z" />
<glyph unicode="&#x42c;" horiz-adv-x="1298" d="M104 0v229q41 10 58.5 41t17.5 131v699q0 100 -17.5 131t-58.5 41v219h517v-219q-39 0 -65 -37t-26 -135v-182h150q244 0 391.5 -113t147.5 -344q0 -236 -147.5 -348.5t-391.5 -112.5h-576zM530 266h97q125 0 180 47t55 148q0 88 -55 139t-180 51h-97v-385z" />
<glyph unicode="&#xdd;" horiz-adv-x="1234" d="M119 84v444h313v-41q0 -129 42 -183t124 -54t126 55t44 182v154h-291v252h291v111q0 127 -44 181t-126 54q-78 0 -122 -53t-44 -164v-23h-313v412q117 53 234.5 81t244.5 28q274 0 401 -101.5t127 -335.5v-649q0 -248 -130 -356.5t-398 -108.5q-131 0 -252 30t-227 85z " />
<glyph unicode="&#x42d;" horiz-adv-x="1234" d="M119 84v444h313v-41q0 -129 42 -183t124 -54t126 55t44 182v154h-291v252h291v111q0 127 -44 181t-126 54q-78 0 -122 -53t-44 -164v-23h-313v412q117 53 234.5 81t244.5 28q274 0 401 -101.5t127 -335.5v-649q0 -248 -130 -356.5t-398 -108.5q-131 0 -252 30t-227 85z " />
<glyph unicode="&#xde;" horiz-adv-x="1773" d="M102 0v229q41 10 57.5 41t16.5 131v699q0 100 -16.5 131t-57.5 41v219h484v-219q-37 -10 -53.5 -41t-16.5 -131v-211h180v172q0 229 109.5 344t378.5 115q139 0 233 -29t151.5 -86t82 -143t24.5 -201v-627q0 -115 -23.5 -201t-81 -145t-151.5 -89t-235 -30 q-272 0 -380 119t-108 346v219h-180v-252q0 -102 16.5 -131.5t53.5 -40.5v-229h-484zM1034 487q0 -127 36 -182t114 -55q80 0 117.5 54t37.5 183v517q0 127 -37.5 181t-117.5 54q-78 0 -114 -54t-36 -181v-517z" />
<glyph unicode="&#x42e;" horiz-adv-x="1773" d="M102 0v229q41 10 57.5 41t16.5 131v699q0 100 -16.5 131t-57.5 41v219h484v-219q-37 -10 -53.5 -41t-16.5 -131v-211h180v172q0 229 109.5 344t378.5 115q139 0 233 -29t151.5 -86t82 -143t24.5 -201v-627q0 -115 -23.5 -201t-81 -145t-151.5 -89t-235 -30 q-272 0 -380 119t-108 346v219h-180v-252q0 -102 16.5 -131.5t53.5 -40.5v-229h-484zM1034 487q0 -127 36 -182t114 -55q80 0 117.5 54t37.5 183v517q0 127 -37.5 181t-117.5 54q-78 0 -114 -54t-36 -181v-517z" />
<glyph unicode="&#xdf;" horiz-adv-x="1312" d="M84 0v229q35 8 51.5 43t16.5 125v82q0 94 38.5 147.5t141.5 86.5q-119 66 -163 149.5t-44 204.5q0 180 122 302t367 122h594v-219q-41 -10 -58 -41t-17 -131v-699q0 -100 17 -130.5t58 -41.5v-229h-503v229q41 10 59 40t18 132v201h-108q-102 0 -134 -41t-32 -155v-195 q0 -96 -6 -138t-21 -73h-397zM469 1040q0 -197 186 -196h127v387h-131q-86 0 -134 -45t-48 -146z" />
<glyph unicode="&#x42f;" horiz-adv-x="1312" d="M84 0v229q35 8 51.5 43t16.5 125v82q0 94 38.5 147.5t141.5 86.5q-119 66 -163 149.5t-44 204.5q0 180 122 302t367 122h594v-219q-41 -10 -58 -41t-17 -131v-699q0 -100 17 -130.5t58 -41.5v-229h-503v229q41 10 59 40t18 132v201h-108q-102 0 -134 -41t-32 -155v-195 q0 -96 -6 -138t-21 -73h-397zM469 1040q0 -197 186 -196h127v387h-131q-86 0 -134 -45t-48 -146z" />
<glyph unicode="&#xe0;" horiz-adv-x="1136" d="M88 291v92q0 170 121 261t313 91q41 0 87 -5t87 -13v166q0 63 -40 89.5t-97 26.5t-90 -30.5t-33 -94.5v-38h-293v292q111 55 217.5 87t212.5 32q217 0 319.5 -88t102.5 -287v-510q0 -90 22.5 -115.5t49.5 -25.5v-221h-360v117q-59 -70 -132 -102.5t-200 -32.5 q-133 0 -210 82.5t-77 226.5zM420 313q0 -43 31.5 -67.5t74.5 -24.5q88 0 129 31t41 84v192h-121q-78 0 -116.5 -38.5t-38.5 -96.5v-80z" />
<glyph unicode="&#x430;" horiz-adv-x="1136" d="M88 291v92q0 170 121 261t313 91q41 0 87 -5t87 -13v166q0 63 -40 89.5t-97 26.5t-90 -30.5t-33 -94.5v-38h-293v292q111 55 217.5 87t212.5 32q217 0 319.5 -88t102.5 -287v-510q0 -90 22.5 -115.5t49.5 -25.5v-221h-360v117q-59 -70 -132 -102.5t-200 -32.5 q-133 0 -210 82.5t-77 226.5zM420 313q0 -43 31.5 -67.5t74.5 -24.5q88 0 129 31t41 84v192h-121q-78 0 -116.5 -38.5t-38.5 -96.5v-80z" />
<glyph unicode="&#xe1;" horiz-adv-x="1105" d="M109 360v603q0 170 24.5 277.5t78.5 167.5t139 82.5t208 22.5q104 0 140 26t36 87v2h228q12 -68 12 -121q0 -45 -14.5 -84t-59.5 -66.5t-126 -43t-216 -15.5q-182 0 -182 -172v-77q37 47 108.5 74.5t135.5 27.5q203 0 296 -95t93 -286v-410q0 -188 -100.5 -286.5 t-350.5 -98.5q-244 0 -347 98.5t-103 286.5zM420 401q0 -98 31.5 -139t107.5 -41q72 0 105.5 41t33.5 139v328q0 98 -33.5 138t-105.5 40q-76 0 -107.5 -41t-31.5 -137v-328z" />
<glyph unicode="&#x431;" horiz-adv-x="1105" d="M109 360v603q0 170 24.5 277.5t78.5 167.5t139 82.5t208 22.5q104 0 140 26t36 87v2h228q12 -68 12 -121q0 -45 -14.5 -84t-59.5 -66.5t-126 -43t-216 -15.5q-182 0 -182 -172v-77q37 47 108.5 74.5t135.5 27.5q203 0 296 -95t93 -286v-410q0 -188 -100.5 -286.5 t-350.5 -98.5q-244 0 -347 98.5t-103 286.5zM420 401q0 -98 31.5 -139t107.5 -41q72 0 105.5 41t33.5 139v328q0 98 -33.5 138t-105.5 40q-76 0 -107.5 -41t-31.5 -137v-328z" />
<glyph unicode="&#xe2;" horiz-adv-x="1136" d="M86 0v221q39 0 54.5 18.5t15.5 94.5v563q0 55 -14.5 78.5t-55.5 23.5v222h506q231 0 335.5 -79t104.5 -253q0 -102 -47 -171t-137 -97q104 -29 156.5 -99.5t52.5 -189.5q0 -180 -102.5 -256t-346.5 -76h-522zM457 236h135q88 0 125 33.5t37 111.5q0 80 -39 114.5 t-131 34.5h-127v-294zM457 737h118q88 0 124 29t36 92q0 70 -35.5 98.5t-124.5 28.5h-118v-248z" />
<glyph unicode="&#x432;" horiz-adv-x="1136" d="M86 0v221q39 0 54.5 18.5t15.5 94.5v563q0 55 -14.5 78.5t-55.5 23.5v222h506q231 0 335.5 -79t104.5 -253q0 -102 -47 -171t-137 -97q104 -29 156.5 -99.5t52.5 -189.5q0 -180 -102.5 -256t-346.5 -76h-522zM457 236h135q88 0 125 33.5t37 111.5q0 80 -39 114.5 t-131 34.5h-127v-294zM457 737h118q88 0 124 29t36 92q0 70 -35.5 98.5t-124.5 28.5h-118v-248z" />
<glyph unicode="&#xe3;" horiz-adv-x="1042" d="M86 0v221q33 0 51.5 18.5t18.5 94.5v540q0 74 -14.5 95.5t-55.5 29.5v222h877v-373h-267v10q0 70 -32.5 96.5t-112.5 26.5h-94v-631q0 -76 20.5 -102.5t67.5 -26.5v-221h-459z" />
<glyph unicode="&#x433;" horiz-adv-x="1042" d="M86 0v221q33 0 51.5 18.5t18.5 94.5v540q0 74 -14.5 95.5t-55.5 29.5v222h877v-373h-267v10q0 70 -32.5 96.5t-112.5 26.5h-94v-631q0 -76 20.5 -102.5t67.5 -26.5v-221h-459z" />
<glyph unicode="&#xe4;" horiz-adv-x="1185" d="M20 -203v424q57 0 104.5 45t47.5 154v477q0 63 -17.5 82.5t-56.5 19.5v222h1002v-222q-39 0 -54.5 -19t-15.5 -83v-547q0 -76 39 -102.5t78 -26.5v-424h-270v82q0 66 -29 93.5t-117 27.5h-319q-59 0 -87 -25.5t-28 -87.5v-90h-277zM426 240h305v741h-266v-573 q0 -59 -11.5 -99t-27.5 -69z" />
<glyph unicode="&#x434;" horiz-adv-x="1185" d="M20 -203v424q57 0 104.5 45t47.5 154v477q0 63 -17.5 82.5t-56.5 19.5v222h1002v-222q-39 0 -54.5 -19t-15.5 -83v-547q0 -76 39 -102.5t78 -26.5v-424h-270v82q0 66 -29 93.5t-117 27.5h-319q-59 0 -87 -25.5t-28 -87.5v-90h-277zM426 240h305v741h-266v-573 q0 -59 -11.5 -99t-27.5 -69z" />
<glyph unicode="&#xe5;" horiz-adv-x="1071" d="M92 401v416q0 225 106.5 327.5t340.5 102.5q227 0 331.5 -103.5t104.5 -326.5v-295h-576v-104q0 -106 34 -151.5t106 -45.5q63 0 103 37t40 125v14h293v-280q-92 -70 -205 -106t-231 -36q-233 0 -340 101.5t-107 324.5zM399 760h283v49q0 96 -38 141t-105 45 q-72 0 -106 -47t-34 -153v-35z" />
<glyph unicode="&#x435;" horiz-adv-x="1071" d="M92 401v416q0 225 106.5 327.5t340.5 102.5q227 0 331.5 -103.5t104.5 -326.5v-295h-576v-104q0 -106 34 -151.5t106 -45.5q63 0 103 37t40 125v14h293v-280q-92 -70 -205 -106t-231 -36q-233 0 -340 101.5t-107 324.5zM399 760h283v49q0 96 -38 141t-105 45 q-72 0 -106 -47t-34 -153v-35z" />
<glyph unicode="&#xe6;" horiz-adv-x="1589" d="M66 0v221q33 0 46 26.5t13 98.5v94q0 135 64.5 188.5t172.5 73.5l-196 246q-43 51 -100 51v222h358v-158q0 -72 53 -141l170 -220v172q0 80 -14.5 102.5t-46.5 22.5v222h413v-222q-31 0 -45 -22.5t-14 -102.5v-172l174 220q29 35 39 68.5t10 72.5v158h357v-222 q-25 0 -49.5 -11t-47.5 -40l-194 -246q106 -20 170.5 -73.5t64.5 -188.5v-94q0 -72 12.5 -98.5t43.5 -26.5v-221h-322q-12 29 -17 64.5t-5 115.5v156q0 90 -33 134t-121 44h-82v-180q0 -68 13.5 -90.5t45.5 -22.5v-221h-413v221q35 0 48 22.5t13 90.5v180h-82 q-90 0 -121.5 -44t-31.5 -134v-156q0 -80 -5.5 -115.5t-19.5 -64.5h-321z" />
<glyph unicode="&#x436;" horiz-adv-x="1589" d="M66 0v221q33 0 46 26.5t13 98.5v94q0 135 64.5 188.5t172.5 73.5l-196 246q-43 51 -100 51v222h358v-158q0 -72 53 -141l170 -220v172q0 80 -14.5 102.5t-46.5 22.5v222h413v-222q-31 0 -45 -22.5t-14 -102.5v-172l174 220q29 35 39 68.5t10 72.5v158h357v-222 q-25 0 -49.5 -11t-47.5 -40l-194 -246q106 -20 170.5 -73.5t64.5 -188.5v-94q0 -72 12.5 -98.5t43.5 -26.5v-221h-322q-12 29 -17 64.5t-5 115.5v156q0 90 -33 134t-121 44h-82v-180q0 -68 13.5 -90.5t45.5 -22.5v-221h-413v221q35 0 48 22.5t13 90.5v180h-82 q-90 0 -121.5 -44t-31.5 -134v-156q0 -80 -5.5 -115.5t-19.5 -64.5h-321z" />
<glyph unicode="&#xe7;" horiz-adv-x="1071" d="M78 84v295h289q0 -92 34.5 -125t108.5 -33q63 0 105 37t42 109q0 84 -39.5 117.5t-140.5 33.5h-164v205h174q82 0 129.5 36t47.5 105q0 66 -45.5 100.5t-114.5 34.5q-61 0 -99 -32.5t-38 -104.5h-269v275q90 51 202 80.5t232 29.5q207 0 316.5 -87t109.5 -249 q0 -113 -54 -180t-169 -100q236 -31 236 -291q0 -180 -115 -272.5t-336 -92.5q-113 0 -225.5 29t-216.5 80z" />
<glyph unicode="&#x437;" horiz-adv-x="1071" d="M78 84v295h289q0 -92 34.5 -125t108.5 -33q63 0 105 37t42 109q0 84 -39.5 117.5t-140.5 33.5h-164v205h174q82 0 129.5 36t47.5 105q0 66 -45.5 100.5t-114.5 34.5q-61 0 -99 -32.5t-38 -104.5h-269v275q90 51 202 80.5t232 29.5q207 0 316.5 -87t109.5 -249 q0 -113 -54 -180t-169 -100q236 -31 236 -291q0 -180 -115 -272.5t-336 -92.5q-113 0 -225.5 29t-216.5 80z" />
<glyph unicode="&#xe8;" horiz-adv-x="1210" d="M86 0v221q39 0 54.5 23.5t15.5 89.5v563q0 59 -15.5 80.5t-54.5 21.5v222h440v-222q-39 0 -54 -21.5t-15 -80.5v-283l233 224q39 39 51.5 59.5t12.5 42.5q0 59 -64 59v222h434v-222q-35 0 -50 -21.5t-15 -80.5v-563q0 -66 15.5 -89.5t49.5 -23.5v-221h-434v221 q35 0 49.5 23.5t14.5 89.5v270l-224 -205q-45 -41 -59 -61.5t-14 -48.5q0 -68 69 -68v-221h-440z" />
<glyph unicode="&#x438;" horiz-adv-x="1210" d="M86 0v221q39 0 54.5 23.5t15.5 89.5v563q0 59 -15.5 80.5t-54.5 21.5v222h440v-222q-39 0 -54 -21.5t-15 -80.5v-283l233 224q39 39 51.5 59.5t12.5 42.5q0 59 -64 59v222h434v-222q-35 0 -50 -21.5t-15 -80.5v-563q0 -66 15.5 -89.5t49.5 -23.5v-221h-434v221 q35 0 49.5 23.5t14.5 89.5v270l-224 -205q-45 -41 -59 -61.5t-14 -48.5q0 -68 69 -68v-221h-440z" />
<glyph unicode="&#xe9;" horiz-adv-x="1210" d="M86 0v221q39 0 54.5 23.5t15.5 89.5v563q0 59 -15.5 80.5t-54.5 21.5v222h440v-222q-39 0 -54 -21.5t-15 -80.5v-283l233 224q39 39 51.5 59.5t12.5 42.5q0 59 -64 59v222h434v-222q-35 0 -50 -21.5t-15 -80.5v-563q0 -66 15.5 -89.5t49.5 -23.5v-221h-434v221 q35 0 49.5 23.5t14.5 89.5v270l-224 -205q-45 -41 -59 -61.5t-14 -48.5q0 -68 69 -68v-221h-440zM330 1513h190q0 -51 23.5 -70.5t66.5 -19.5q45 0 67.5 19.5t22.5 70.5h193q0 -51 -23.5 -92t-63.5 -70.5t-91 -45t-107 -15.5q-113 0 -195.5 61.5t-82.5 161.5z" />
<glyph unicode="&#x439;" horiz-adv-x="1210" d="M86 0v221q39 0 54.5 23.5t15.5 89.5v563q0 59 -15.5 80.5t-54.5 21.5v222h440v-222q-39 0 -54 -21.5t-15 -80.5v-283l233 224q39 39 51.5 59.5t12.5 42.5q0 59 -64 59v222h434v-222q-35 0 -50 -21.5t-15 -80.5v-563q0 -66 15.5 -89.5t49.5 -23.5v-221h-434v221 q35 0 49.5 23.5t14.5 89.5v270l-224 -205q-45 -41 -59 -61.5t-14 -48.5q0 -68 69 -68v-221h-440zM330 1513h190q0 -51 23.5 -70.5t66.5 -19.5q45 0 67.5 19.5t22.5 70.5h193q0 -51 -23.5 -92t-63.5 -70.5t-91 -45t-107 -15.5q-113 0 -195.5 61.5t-82.5 161.5z" />
<glyph unicode="&#xea;" horiz-adv-x="1136" d="M86 0v221q37 0 53.5 23.5t16.5 89.5v540q0 74 -15.5 99.5t-54.5 25.5v222h440v-222q-35 0 -52 -22.5t-17 -102.5v-172l180 220q33 39 45 69.5t12 71.5v158h371v-222q-37 0 -58.5 -10t-39.5 -33l-209 -254q53 -6 97 -19t78 -46t52.5 -86t18.5 -139v-82q0 -63 13 -86 t48 -23v-221h-334q-14 29 -19 64.5t-5 115.5v156q0 90 -33 134t-127 44h-90v-180q0 -66 16 -89.5t53 -23.5v-221h-440z" />
<glyph unicode="&#x43a;" horiz-adv-x="1136" d="M86 0v221q37 0 53.5 23.5t16.5 89.5v540q0 74 -15.5 99.5t-54.5 25.5v222h440v-222q-35 0 -52 -22.5t-17 -102.5v-172l180 220q33 39 45 69.5t12 71.5v158h371v-222q-37 0 -58.5 -10t-39.5 -33l-209 -254q53 -6 97 -19t78 -46t52.5 -86t18.5 -139v-82q0 -63 13 -86 t48 -23v-221h-334q-14 29 -19 64.5t-5 115.5v156q0 90 -33 134t-127 44h-90v-180q0 -66 16 -89.5t53 -23.5v-221h-440z" />
<glyph unicode="&#xeb;" horiz-adv-x="1173" d="M35 4v221q16 -4 33 -4q59 0 83.5 22.5t24.5 110.5v543q0 63 -19.5 82.5t-47.5 19.5v222h978v-222q-35 0 -52 -19t-17 -83v-547q0 -76 15.5 -102.5t53.5 -26.5v-221h-438v221q39 0 54.5 25.5t15.5 103.5v631h-248v-664q0 -160 -70.5 -250t-203.5 -90q-78 0 -162 27z" />
<glyph unicode="&#x43b;" horiz-adv-x="1173" d="M35 4v221q16 -4 33 -4q59 0 83.5 22.5t24.5 110.5v543q0 63 -19.5 82.5t-47.5 19.5v222h978v-222q-35 0 -52 -19t-17 -83v-547q0 -76 15.5 -102.5t53.5 -26.5v-221h-438v221q39 0 54.5 25.5t15.5 103.5v631h-248v-664q0 -160 -70.5 -250t-203.5 -90q-78 0 -162 27z" />
<glyph unicode="&#xec;" horiz-adv-x="1439" d="M86 0v221q41 0 56.5 20.5t15.5 102.5v553q0 66 -14.5 84t-57.5 18v222h473l162 -543l160 543h471v-222q-41 0 -55.5 -18t-14.5 -84v-537q0 -82 14.5 -110.5t55.5 -28.5v-221h-430v221q39 0 52 30t13 109v474l-203 -629h-133l-200 629v-474q0 -80 15 -109.5t52 -29.5v-221 h-432z" />
<glyph unicode="&#x43c;" horiz-adv-x="1439" d="M86 0v221q41 0 56.5 20.5t15.5 102.5v553q0 66 -14.5 84t-57.5 18v222h473l162 -543l160 543h471v-222q-41 0 -55.5 -18t-14.5 -84v-537q0 -82 14.5 -110.5t55.5 -28.5v-221h-430v221q39 0 52 30t13 109v474l-203 -629h-133l-200 629v-474q0 -80 15 -109.5t52 -29.5v-221 h-432z" />
<glyph unicode="&#xed;" horiz-adv-x="1196" d="M86 0v221q39 0 54.5 23.5t15.5 89.5v540q0 82 -14.5 103.5t-55.5 21.5v222h440v-222q-39 0 -54 -21.5t-15 -103.5v-139h280v162q0 66 -14 84t-49 18v222h434v-222q-37 0 -51.5 -22.5t-14.5 -102.5v-524q0 -76 14.5 -102.5t51.5 -26.5v-221h-434v221q35 0 49 25.5 t14 103.5v176h-280v-176q0 -78 15 -103.5t54 -25.5v-221h-440z" />
<glyph unicode="&#x43d;" horiz-adv-x="1196" d="M86 0v221q39 0 54.5 23.5t15.5 89.5v540q0 82 -14.5 103.5t-55.5 21.5v222h440v-222q-39 0 -54 -21.5t-15 -103.5v-139h280v162q0 66 -14 84t-49 18v222h434v-222q-37 0 -51.5 -22.5t-14.5 -102.5v-524q0 -76 14.5 -102.5t51.5 -26.5v-221h-434v221q35 0 49 25.5 t14 103.5v176h-280v-176q0 -78 15 -103.5t54 -25.5v-221h-440z" />
<glyph unicode="&#xee;" horiz-adv-x="1093" d="M92 360v506q0 190 106.5 285.5t348.5 95.5q246 0 348 -95t102 -286v-506q0 -188 -100 -286.5t-350 -98.5q-244 0 -349.5 98.5t-105.5 286.5zM408 401q0 -98 31.5 -139t107.5 -41q72 0 105.5 41t33.5 139v416q0 98 -34 138t-105 40q-76 0 -107.5 -41t-31.5 -137v-416z" />
<glyph unicode="&#x43e;" horiz-adv-x="1093" d="M92 360v506q0 190 106.5 285.5t348.5 95.5q246 0 348 -95t102 -286v-506q0 -188 -100 -286.5t-350 -98.5q-244 0 -349.5 98.5t-105.5 286.5zM408 401q0 -98 31.5 -139t107.5 -41q72 0 105.5 41t33.5 139v416q0 98 -34 138t-105 40q-76 0 -107.5 -41t-31.5 -137v-416z" />
<glyph unicode="&#xef;" horiz-adv-x="1198" d="M88 0v221q39 0 54.5 26.5t15.5 102.5v524q0 80 -15.5 102.5t-54.5 22.5v222h1022v-222q-35 0 -50.5 -22.5t-15.5 -102.5v-524q0 -76 16.5 -102.5t49.5 -26.5v-221h-434v221q37 0 50 25.5t13 103.5v631h-280v-631q0 -78 15 -103.5t54 -25.5v-221h-440z" />
<glyph unicode="&#x43f;" horiz-adv-x="1198" d="M88 0v221q39 0 54.5 26.5t15.5 102.5v524q0 80 -15.5 102.5t-54.5 22.5v222h1022v-222q-35 0 -50.5 -22.5t-15.5 -102.5v-524q0 -76 16.5 -102.5t49.5 -26.5v-221h-434v221q37 0 50 25.5t13 103.5v631h-280v-631q0 -78 15 -103.5t54 -25.5v-221h-440z" />
<glyph unicode="&#xf0;" horiz-adv-x="1150" d="M90 -184q41 0 56.5 36.5t15.5 127.5v880q0 70 -14.5 104.5t-57.5 34.5v222h348l15 -78q55 43 121.5 73.5t168.5 30.5q137 0 226.5 -99t89.5 -312v-433q0 -227 -84 -327.5t-232 -100.5q-102 0 -162.5 18.5t-119.5 55.5v-86q0 -78 18.5 -112.5t59.5 -34.5v-222h-449v222z M461 274q47 -23 85 -35t70 -12q76 0 101.5 58.5t25.5 171.5v323q0 115 -27.5 161t-109.5 46q-66 0 -145 -53v-660z" />
<glyph unicode="&#x440;" horiz-adv-x="1150" d="M90 -184q41 0 56.5 36.5t15.5 127.5v880q0 70 -14.5 104.5t-57.5 34.5v222h348l15 -78q55 43 121.5 73.5t168.5 30.5q137 0 226.5 -99t89.5 -312v-433q0 -227 -84 -327.5t-232 -100.5q-102 0 -162.5 18.5t-119.5 55.5v-86q0 -78 18.5 -112.5t59.5 -34.5v-222h-449v222z M461 274q47 -23 85 -35t70 -12q76 0 101.5 58.5t25.5 171.5v323q0 115 -27.5 161t-109.5 46q-66 0 -145 -53v-660z" />
<glyph unicode="&#xf1;" horiz-adv-x="1077" d="M92 360v525q0 180 104.5 271t346.5 91q111 0 215 -23.5t209 -68.5v-346h-273v25q0 84 -41 122.5t-110 38.5q-76 0 -106.5 -41t-30.5 -137v-416q0 -98 30.5 -139t106.5 -41q72 0 111.5 41t39.5 139v88h273v-421q-195 -92 -424 -93q-250 0 -350.5 96.5t-100.5 288.5z" />
<glyph unicode="&#x441;" horiz-adv-x="1077" d="M92 360v525q0 180 104.5 271t346.5 91q111 0 215 -23.5t209 -68.5v-346h-273v25q0 84 -41 122.5t-110 38.5q-76 0 -106.5 -41t-30.5 -137v-416q0 -98 30.5 -139t106.5 -41q72 0 111.5 41t39.5 139v88h273v-421q-195 -92 -424 -93q-250 0 -350.5 96.5t-100.5 288.5z" />
<glyph unicode="&#xf2;" horiz-adv-x="1130" d="M47 748v473h1038v-473h-249v104q0 72 -27 100.5t-90 28.5v-631q0 -78 14.5 -103.5t48.5 -25.5v-221h-438v221q37 0 52.5 26.5t15.5 102.5v631q-61 0 -89 -29.5t-28 -99.5v-104h-248z" />
<glyph unicode="&#x442;" horiz-adv-x="1130" d="M47 748v473h1038v-473h-249v104q0 72 -27 100.5t-90 28.5v-631q0 -78 14.5 -103.5t48.5 -25.5v-221h-438v221q37 0 52.5 26.5t15.5 102.5v631q-61 0 -89 -29.5t-28 -99.5v-104h-248z" />
<glyph unicode="&#xf3;" horiz-adv-x="1073" d="M25 999v222h446v-222q-43 -12 -43 -57q0 -10 3 -21.5t5 -23.5l123 -547l109 547q4 25 4 43q0 27 -9.5 38t-37.5 21v222h436v-222q-29 -10 -47.5 -29.5t-30.5 -68.5l-270 -1034q-23 -86 -51.5 -143.5t-68.5 -91t-93.5 -48t-126.5 -14.5q-41 0 -84 8t-72 16v230 q20 -10 51 -10q61 0 91 15t42 60l-297 1000q-14 53 -36.5 79.5t-42.5 30.5z" />
<glyph unicode="&#x443;" horiz-adv-x="1073" d="M25 999v222h446v-222q-43 -12 -43 -57q0 -10 3 -21.5t5 -23.5l123 -547l109 547q4 25 4 43q0 27 -9.5 38t-37.5 21v222h436v-222q-29 -10 -47.5 -29.5t-30.5 -68.5l-270 -1034q-23 -86 -51.5 -143.5t-68.5 -91t-93.5 -48t-126.5 -14.5q-41 0 -84 8t-72 16v230 q20 -10 51 -10q61 0 91 15t42 60l-297 1000q-14 53 -36.5 79.5t-42.5 30.5z" />
<glyph unicode="&#xf4;" horiz-adv-x="1583" d="M92 403v433q0 213 85 312t218 99q88 0 143.5 -30.5t104.5 -73.5v164q0 66 -16.5 83t-42.5 17v221h356v-485q49 43 104.5 73.5t143.5 30.5q133 0 218 -99t85 -312v-433q0 -227 -80 -327.5t-223 -100.5q-94 0 -151.5 18.5t-96.5 55.5v-82q0 -152 70 -151v-222h-437v222 q39 0 54.5 36.5t15.5 114.5v82q-39 -37 -94 -55.5t-154 -18.5q-143 0 -223 100.5t-80 327.5zM395 457q0 -141 24.5 -183.5t96.5 -42.5q31 0 58.5 10.5t72.5 32.5v660q-35 25 -61.5 39t-59.5 14q-78 0 -104.5 -43t-26.5 -164v-323zM936 274q47 -23 74.5 -33t60.5 -10 q70 0 93.5 42.5t23.5 183.5v323q0 121 -25.5 164t-101.5 43q-35 0 -62.5 -14.5t-62.5 -38.5v-660z" />
<glyph unicode="&#x444;" horiz-adv-x="1583" d="M92 403v433q0 213 85 312t218 99q88 0 143.5 -30.5t104.5 -73.5v164q0 66 -16.5 83t-42.5 17v221h356v-485q49 43 104.5 73.5t143.5 30.5q133 0 218 -99t85 -312v-433q0 -227 -80 -327.5t-223 -100.5q-94 0 -151.5 18.5t-96.5 55.5v-82q0 -152 70 -151v-222h-437v222 q39 0 54.5 36.5t15.5 114.5v82q-39 -37 -94 -55.5t-154 -18.5q-143 0 -223 100.5t-80 327.5zM395 457q0 -141 24.5 -183.5t96.5 -42.5q31 0 58.5 10.5t72.5 32.5v660q-35 25 -61.5 39t-59.5 14q-78 0 -104.5 -43t-26.5 -164v-323zM936 274q47 -23 74.5 -33t60.5 -10 q70 0 93.5 42.5t23.5 183.5v323q0 121 -25.5 164t-101.5 43q-35 0 -62.5 -14.5t-62.5 -38.5v-660z" />
<glyph unicode="&#xf5;" horiz-adv-x="985" d="M27 0v221q14 0 34.5 12.5t47.5 53.5l217 344l-203 325q-27 43 -78 43v222h365v-121q0 -66 26 -113l58 -100l53 100q29 51 28 113v121h365v-222q-23 0 -42 -12t-42 -47l-194 -309l219 -344q27 -41 45 -53.5t32 -12.5v-221h-380v156q0 66 -33 127l-51 98l-54 -98 q-14 -31 -24 -63t-10 -64v-156h-379z" />
<glyph unicode="&#x445;" horiz-adv-x="985" d="M27 0v221q14 0 34.5 12.5t47.5 53.5l217 344l-203 325q-27 43 -78 43v222h365v-121q0 -66 26 -113l58 -100l53 100q29 51 28 113v121h365v-222q-23 0 -42 -12t-42 -47l-194 -309l219 -344q27 -41 45 -53.5t32 -12.5v-221h-380v156q0 66 -33 127l-51 98l-54 -98 q-14 -31 -24 -63t-10 -64v-156h-379z" />
<glyph unicode="&#xf6;" horiz-adv-x="1196" d="M86 0v221q39 0 54.5 26.5t15.5 102.5v524q0 74 -15.5 99.5t-54.5 25.5v222h438v-244q-37 0 -53 -24.5t-16 -100.5v-612h280v612q0 76 -13 100.5t-50 24.5v244h436v-222q-39 -8 -52.5 -29.5t-13.5 -95.5v-524q0 -76 37 -102.5t76 -26.5v-424h-270v82q0 66 -31 93.5 t-119 27.5h-649z" />
<glyph unicode="&#x446;" horiz-adv-x="1196" d="M86 0v221q39 0 54.5 26.5t15.5 102.5v524q0 74 -15.5 99.5t-54.5 25.5v222h438v-244q-37 0 -53 -24.5t-16 -100.5v-612h280v612q0 76 -13 100.5t-50 24.5v244h436v-222q-39 -8 -52.5 -29.5t-13.5 -95.5v-524q0 -76 37 -102.5t76 -26.5v-424h-270v82q0 66 -31 93.5 t-119 27.5h-649z" />
<glyph unicode="&#xf7;" horiz-adv-x="1105" d="M27 999v222h417v-222q-35 0 -47 -25.5t-12 -99.5v-129q0 -47 29.5 -77.5t87.5 -30.5q49 0 82.5 9t60.5 24v204q0 80 -15.5 102.5t-47.5 22.5v222h434v-222q-37 0 -51.5 -25.5t-14.5 -99.5v-524q0 -76 14.5 -102.5t51.5 -26.5v-221h-449v221q43 0 60.5 31t17.5 98v92 q-47 -23 -121.5 -34t-138.5 -11q-137 0 -220 79t-83 239v159q0 74 -13.5 99.5t-41.5 25.5z" />
<glyph unicode="&#x447;" horiz-adv-x="1105" d="M27 999v222h417v-222q-35 0 -47 -25.5t-12 -99.5v-129q0 -47 29.5 -77.5t87.5 -30.5q49 0 82.5 9t60.5 24v204q0 80 -15.5 102.5t-47.5 22.5v222h434v-222q-37 0 -51.5 -25.5t-14.5 -99.5v-524q0 -76 14.5 -102.5t51.5 -26.5v-221h-449v221q43 0 60.5 31t17.5 98v92 q-47 -23 -121.5 -34t-138.5 -11q-137 0 -220 79t-83 239v159q0 74 -13.5 99.5t-41.5 25.5z" />
<glyph unicode="&#xf8;" horiz-adv-x="1675" d="M86 0v221q39 0 54.5 22.5t15.5 98.5v532q0 74 -14.5 99.5t-55.5 25.5v222h438v-222q-37 0 -53 -24.5t-16 -100.5v-634h233v634q0 74 -14.5 99.5t-55.5 25.5v222h435v-222q-41 0 -53.5 -25.5t-12.5 -99.5v-634h230v634q0 76 -14.5 100.5t-51.5 24.5v222h438v-222 q-41 0 -55 -25.5t-14 -99.5v-532q0 -76 14 -98.5t55 -22.5v-221h-1503z" />
<glyph unicode="&#x448;" horiz-adv-x="1675" d="M86 0v221q39 0 54.5 22.5t15.5 98.5v532q0 74 -14.5 99.5t-55.5 25.5v222h438v-222q-37 0 -53 -24.5t-16 -100.5v-634h233v634q0 74 -14.5 99.5t-55.5 25.5v222h435v-222q-41 0 -53.5 -25.5t-12.5 -99.5v-634h230v634q0 76 -14.5 100.5t-51.5 24.5v222h438v-222 q-41 0 -55 -25.5t-14 -99.5v-532q0 -76 14 -98.5t55 -22.5v-221h-1503z" />
<glyph unicode="&#xf9;" horiz-adv-x="1677" d="M86 0v205q39 8 54.5 26.5t15.5 94.5v548q0 74 -14.5 95.5t-55.5 29.5v222h438v-222q-37 -8 -53 -28.5t-16 -96.5v-643h233v643q0 74 -14.5 95.5t-55.5 29.5v222h435v-222q-41 -8 -53.5 -29.5t-12.5 -95.5v-643h230v643q0 76 -14.5 96.5t-51.5 28.5v222h438v-222 q-41 -8 -55 -29.5t-14 -95.5v-540q0 -76 38.5 -102.5t79.5 -26.5v-408h-274v82q0 66 -29.5 93.5t-117.5 27.5h-1131z" />
<glyph unicode="&#x449;" horiz-adv-x="1677" d="M86 0v205q39 8 54.5 26.5t15.5 94.5v548q0 74 -14.5 95.5t-55.5 29.5v222h438v-222q-37 -8 -53 -28.5t-16 -96.5v-643h233v643q0 74 -14.5 95.5t-55.5 29.5v222h435v-222q-41 -8 -53.5 -29.5t-12.5 -95.5v-643h230v643q0 76 -14.5 96.5t-51.5 28.5v222h438v-222 q-41 -8 -55 -29.5t-14 -95.5v-540q0 -76 38.5 -102.5t79.5 -26.5v-408h-274v82q0 66 -29.5 93.5t-117.5 27.5h-1131z" />
<glyph unicode="&#xfa;" horiz-adv-x="1370" d="M43 848v373h743v-222q-39 0 -57 -26.5t-18 -98.5v-116h125q213 0 342 -92.5t129 -284.5q0 -193 -129 -287t-342 -94h-496v221q35 0 50.5 26.5t15.5 102.5v635h-31q-35 0 -60.5 -17.5t-25.5 -43.5v-76h-246zM711 233h80q111 0 156.5 35t45.5 113q0 68 -46 105.5t-156 37.5 h-80v-291z" />
<glyph unicode="&#x44a;" horiz-adv-x="1370" d="M43 848v373h743v-222q-39 0 -57 -26.5t-18 -98.5v-116h125q213 0 342 -92.5t129 -284.5q0 -193 -129 -287t-342 -94h-496v221q35 0 50.5 26.5t15.5 102.5v635h-31q-35 0 -60.5 -17.5t-25.5 -43.5v-76h-246zM711 233h80q111 0 156.5 35t45.5 113q0 68 -46 105.5t-156 37.5 h-80v-291z" />
<glyph unicode="&#xfb;" horiz-adv-x="1591" d="M86 0v221q41 0 55.5 26.5t14.5 102.5v524q0 74 -14.5 99.5t-55.5 25.5v222h451v-222q-39 0 -59.5 -26.5t-20.5 -98.5v-116h94q209 0 337 -92.5t128 -284.5q0 -193 -128 -287t-337 -94h-465zM457 233h49q109 0 156 35t47 113q0 68 -47.5 105.5t-155.5 37.5h-49v-291z M1069 0v221q35 0 50.5 26.5t15.5 102.5v524q0 74 -15.5 99.5t-50.5 25.5v222h434v-222q-33 0 -48 -25.5t-15 -99.5v-524q0 -78 15 -103.5t48 -25.5v-221h-434z" />
<glyph unicode="&#x44b;" horiz-adv-x="1591" d="M86 0v221q41 0 55.5 26.5t14.5 102.5v524q0 74 -14.5 99.5t-55.5 25.5v222h451v-222q-39 0 -59.5 -26.5t-20.5 -98.5v-116h94q209 0 337 -92.5t128 -284.5q0 -193 -128 -287t-337 -94h-465zM457 233h49q109 0 156 35t47 113q0 68 -47.5 105.5t-155.5 37.5h-49v-291z M1069 0v221q35 0 50.5 26.5t15.5 102.5v524q0 74 -15.5 99.5t-50.5 25.5v222h434v-222q-33 0 -48 -25.5t-15 -99.5v-524q0 -78 15 -103.5t48 -25.5v-221h-434z" />
<glyph unicode="&#xfc;" horiz-adv-x="1120" d="M86 0v221q39 0 54.5 26.5t15.5 102.5v524q0 74 -15.5 99.5t-54.5 25.5v222h451v-222q-39 0 -59.5 -26.5t-20.5 -98.5v-116h129q213 0 342 -92.5t129 -284.5q0 -193 -129 -287t-342 -94h-500zM457 233h84q111 0 156.5 35t45.5 113q0 68 -46 105.5t-156 37.5h-84v-291z" />
<glyph unicode="&#x44c;" horiz-adv-x="1120" d="M86 0v221q39 0 54.5 26.5t15.5 102.5v524q0 74 -15.5 99.5t-54.5 25.5v222h451v-222q-39 0 -59.5 -26.5t-20.5 -98.5v-116h129q213 0 342 -92.5t129 -284.5q0 -193 -129 -287t-342 -94h-500zM457 233h84q111 0 156.5 35t45.5 113q0 68 -46 105.5t-156 37.5h-84v-291z" />
<glyph unicode="&#xfd;" horiz-adv-x="1073" d="M106 68v366h273v-33q0 -98 35 -139t108 -41q72 0 109 41t37 139v125h-252v209h252v82q0 96 -37 137t-109 41q-143 0 -143 -161v-25h-273v346q102 45 204 68.5t212 23.5q231 0 343 -86t112 -276v-525q0 -205 -112.5 -295t-342.5 -90q-225 0 -416 93z" />
<glyph unicode="&#x44d;" horiz-adv-x="1073" d="M106 68v366h273v-33q0 -98 35 -139t108 -41q72 0 109 41t37 139v125h-252v209h252v82q0 96 -37 137t-109 41q-143 0 -143 -161v-25h-273v346q102 45 204 68.5t212 23.5q231 0 343 -86t112 -276v-525q0 -205 -112.5 -295t-342.5 -90q-225 0 -416 93z" />
<glyph unicode="&#xfe;" horiz-adv-x="1536" d="M86 0v221q39 0 53.5 26.5t14.5 102.5v524q0 74 -14.5 99.5t-53.5 25.5v222h422v-222q-37 0 -51.5 -25.5t-14.5 -99.5v-139h160v131q0 190 96.5 285.5t325.5 95.5q238 0 333 -95t95 -286v-506q0 -188 -93 -286.5t-335 -98.5q-231 0 -326.5 98.5t-95.5 286.5v166h-160v-176 q0 -78 14.5 -103.5t51.5 -25.5v-221h-422zM895 401q0 -98 29.5 -139t99.5 -41t101.5 41t31.5 139v416q0 98 -31.5 138t-101.5 40t-99.5 -41t-29.5 -137v-416z" />
<glyph unicode="&#x44e;" horiz-adv-x="1536" d="M86 0v221q39 0 53.5 26.5t14.5 102.5v524q0 74 -14.5 99.5t-53.5 25.5v222h422v-222q-37 0 -51.5 -25.5t-14.5 -99.5v-139h160v131q0 190 96.5 285.5t325.5 95.5q238 0 333 -95t95 -286v-506q0 -188 -93 -286.5t-335 -98.5q-231 0 -326.5 98.5t-95.5 286.5v166h-160v-176 q0 -78 14.5 -103.5t51.5 -25.5v-221h-422zM895 401q0 -98 29.5 -139t99.5 -41t101.5 41t31.5 139v416q0 98 -31.5 138t-101.5 40t-99.5 -41t-29.5 -137v-416z" />
<glyph unicode="&#xff;" horiz-adv-x="1126" d="M63 0v221q35 0 52.5 26.5t17.5 98.5v49q0 84 27.5 127t93.5 64q-80 43 -112.5 113.5t-32.5 172.5q0 150 101 249.5t314 99.5h516v-222q-41 0 -55 -25.5t-14 -99.5v-524q0 -76 14 -102.5t55 -26.5v-221h-438v205q37 8 52.5 29.5t15.5 99.5v153h-95q-82 0 -110.5 -30.5 t-28.5 -120.5v-156q0 -80 -6 -115.5t-18 -64.5h-349zM399 848q0 -76 34 -111t128 -35h109v289h-113q-90 0 -124 -33.5t-34 -109.5z" />
<glyph unicode="&#x44f;" horiz-adv-x="1126" d="M63 0v221q35 0 52.5 26.5t17.5 98.5v49q0 84 27.5 127t93.5 64q-80 43 -112.5 113.5t-32.5 172.5q0 150 101 249.5t314 99.5h516v-222q-41 0 -55 -25.5t-14 -99.5v-524q0 -76 14 -102.5t55 -26.5v-221h-438v205q37 8 52.5 29.5t15.5 99.5v153h-95q-82 0 -110.5 -30.5 t-28.5 -120.5v-156q0 -80 -6 -115.5t-18 -64.5h-349zM399 848q0 -76 34 -111t128 -35h109v289h-113q-90 0 -124 -33.5t-34 -109.5z" />
<glyph unicode="&#x152;" horiz-adv-x="2518" d="M1359 0v229q41 10 58.5 41t17.5 131v699q0 100 -17.5 131t-58.5 41v219h1065v-492h-328v56q0 96 -41 134t-141 38h-125v-328h307v-258h-307v-375h152q84 0 119.5 37t35.5 139v99h328v-541h-1065zM109 434v627q0 229 113.5 344t393.5 115q287 0 398.5 -115t111.5 -344 v-627q0 -115 -24.5 -201t-84 -145t-157 -89t-244.5 -30q-283 0 -395 119t-112 346zM457 487q0 -127 40 -182t119 -55q80 0 121 54t41 183v517q0 127 -41 181t-121 54t-119.5 -54t-39.5 -181v-517z" />
<glyph unicode="&#x153;" horiz-adv-x="2140" d="M1161 401v416q0 225 106.5 327.5t340.5 102.5q227 0 331.5 -103.5t104.5 -326.5v-295h-576v-104q0 -106 34 -151.5t106 -45.5q63 0 103 37t40 125v14h293v-280q-92 -70 -205 -106t-231 -36q-233 0 -340 101.5t-107 324.5zM1468 760h283v49q0 96 -38 141t-105 45 q-72 0 -106 -47t-34 -153v-35zM80 360v506q0 190 106.5 285.5t348.5 95.5q246 0 348 -95t102 -286v-506q0 -188 -100 -286.5t-350 -98.5q-244 0 -349.5 98.5t-105.5 286.5zM395 401q0 -98 32 -139t108 -41q72 0 105.5 41t33.5 139v416q0 98 -34 138t-105 40q-76 0 -108 -41 t-32 -137v-416z" />
<glyph unicode="&#x2c6;" horiz-adv-x="1024" d="M133 971l299 551h158l301 -551h-168l-211 303l-211 -303h-168z" />
<glyph unicode="&#x2dc;" horiz-adv-x="634" d="M-575 122v246q88 74 171 108.5t154 34.5q76 0 139.5 -20.5t122 -45t117 -45t125.5 -20.5q78 0 156 39t166 114v-245q-86 -68 -165 -104t-159 -36q-66 0 -129 20.5t-125.5 46.5t-125 46.5t-124.5 20.5q-76 0 -155.5 -41t-167.5 -119z" />
<glyph unicode="&#x2000;" horiz-adv-x="924" />
<glyph unicode="&#x2001;" horiz-adv-x="1849" />
<glyph unicode="&#x2002;" horiz-adv-x="924" />
<glyph unicode="&#x2003;" horiz-adv-x="1849" />
<glyph unicode="&#x2004;" horiz-adv-x="616" />
<glyph unicode="&#x2005;" horiz-adv-x="462" />
<glyph unicode="&#x2006;" horiz-adv-x="308" />
<glyph unicode="&#x2007;" horiz-adv-x="308" />
<glyph unicode="&#x2008;" horiz-adv-x="231" />
<glyph unicode="&#x2009;" horiz-adv-x="369" />
<glyph unicode="&#x200a;" horiz-adv-x="102" />
<glyph unicode="&#x2010;" horiz-adv-x="641" d="M90 504v241h461v-241h-461z" />
<glyph unicode="&#x2011;" horiz-adv-x="641" d="M90 504v241h461v-241h-461z" />
<glyph unicode="&#x2012;" horiz-adv-x="641" d="M90 504v241h461v-241h-461z" />
<glyph unicode="&#x202f;" horiz-adv-x="369" />
<glyph unicode="&#x2039;" horiz-adv-x="641" d="M137 678l152 379h219l-146 -379l146 -379h-219z" />
<glyph unicode="&#x203a;" horiz-adv-x="641" d="M135 299l144 379l-144 379h219l152 -379l-152 -379h-219z" />
<glyph unicode="&#x205f;" horiz-adv-x="462" />
<glyph unicode="&#xe000;" horiz-adv-x="1220" d="M0 1220h1220v-1220h-1220v1220z" />
<glyph unicode="&#xfb01;" horiz-adv-x="1273" d="M739 0v221q35 0 57.5 29t22.5 129v483q0 72 -14.5 104.5t-48.5 32.5v222h368v-856q0 -82 15.5 -113t54.5 -31v-221h-455zM764 1475q0 49 6 78.5t25.5 47t54.5 22.5t94 5q113 0 146.5 -27.5t33.5 -125.5q0 -55 -7 -89t-26.5 -51.5t-54.5 -23.5t-92 -6q-59 0 -94 6 t-54.5 23.5t-25.5 51t-6 89.5zM100 0v221q35 0 49.5 30t14.5 103v639h-64v228h64v106q0 319 319 320q66 0 142 -19v-221h-35q-113 0 -113 -127v-59h123v-228h-123v-637q0 -76 21.5 -105.5t54.5 -29.5v-221h-453z" />
<glyph unicode="&#xfb02;" horiz-adv-x="1273" d="M739 0v221q35 0 57.5 31t22.5 135v893q0 76 -14.5 101.5t-48.5 25.5v221h368v-1255q0 -84 15.5 -118t54.5 -34v-221h-455zM100 0v221q35 0 49.5 30t14.5 103v639h-64v228h64v106q0 319 319 320q66 0 142 -19v-221h-35q-113 0 -113 -127v-59h123v-228h-123v-637 q0 -76 21.5 -105.5t54.5 -29.5v-221h-453z" />
<glyph unicode="&#xfb03;" horiz-adv-x="1920" d="M1386 0v221q35 0 57.5 29t22.5 129v483q0 72 -14.5 104.5t-48.5 32.5v222h368v-856q0 -82 15.5 -113t54.5 -31v-221h-455zM1411 1475q0 49 6 78.5t25.5 47t54.5 22.5t94 5q113 0 146.5 -27.5t33.5 -125.5q0 -55 -7 -89t-26.5 -51.5t-54.5 -23.5t-92 -6q-59 0 -94 6 t-54.5 23.5t-25.5 51t-6 89.5zM747 0v221q35 0 49.5 30t14.5 103v639h-64v228h64v106q0 319 319 320q66 0 142 -19v-221h-35q-113 0 -113 -127v-59h123v-228h-123v-637q0 -76 21.5 -105.5t54.5 -29.5v-221h-453zM100 0v221q35 0 49.5 30t14.5 103v639h-64v228h64v106 q0 319 319 320q66 0 142 -19v-221h-35q-113 0 -113 -127v-59h123v-228h-123v-637q0 -76 21.5 -105.5t54.5 -29.5v-221h-453z" />
<glyph unicode="&#xfb04;" horiz-adv-x="1920" d="M1386 0v221q35 0 57.5 31t22.5 135v893q0 76 -14.5 101.5t-48.5 25.5v221h368v-1255q0 -84 15.5 -118t54.5 -34v-221h-455zM747 0v221q35 0 49.5 30t14.5 103v639h-64v228h64v106q0 319 319 320q66 0 142 -19v-221h-35q-113 0 -113 -127v-59h123v-228h-123v-637 q0 -76 21.5 -105.5t54.5 -29.5v-221h-453zM100 0v221q35 0 49.5 30t14.5 103v639h-64v228h64v106q0 319 319 320q66 0 142 -19v-221h-35q-113 0 -113 -127v-59h123v-228h-123v-637q0 -76 21.5 -105.5t54.5 -29.5v-221h-453z" />
</font>
</defs>
</svg>
