<?xml version="1.0" standalone="no"?>
<!DOCTYPE svg PUBLIC "-//W3C//DTD SVG 1.1//EN" "http://www.w3.org/Graphics/SVG/1.1/DTD/svg11.dtd" >
<svg xmlns="http://www.w3.org/2000/svg">
<metadata>
This is a custom SVG webfont generated by Font Squirrel.
Copyright   : Copyright C 1992
</metadata>
<defs>
<font id="CalligraphRegular" horiz-adv-x="706" >
<font-face units-per-em="2048" ascent="1638" descent="-410" />
<missing-glyph horiz-adv-x="409" />
<glyph unicode=" "  horiz-adv-x="409" />
<glyph unicode="&#x09;" horiz-adv-x="409" />
<glyph unicode="&#xa0;" horiz-adv-x="409" />
<glyph unicode="!" horiz-adv-x="634" d="M84 59q0 31 21.5 57.5t58.5 26.5q29 0 47 -19t18 -48q0 -31 -20.5 -57.5t-58.5 -26.5q-31 0 -50 18q-12 16 -16 49zM270 313q0 12 15 41q61 121 100 244l80 238q25 59 72 59q66 0 65 -68q0 -18 -14 -45q-43 -74 -142 -217q-76 -111 -137 -227q-6 -10 -20 -27 q-2 -4 -8 -10q-10 8 -11 12z" />
<glyph unicode="&#x22;" horiz-adv-x="522" d="M295 825l4 15q31 53 59 129l37 102q12 37 43 37q14 0 26.5 -10.5t12.5 -26.5q0 -23 -16 -41l-72 -84q-33 -41 -76 -117l-14 -10zM479 825l6 15q33 57 58 127l37 104q12 37 43 37q18 -6 28.5 -11t12.5 -26q0 -18 -19 -41l-72 -84q-33 -41 -75 -117l-13 -10z" />
<glyph unicode="#" horiz-adv-x="679" d="M45 449q0 18 27 18h129l82 158h-125q-18 0 -19 14q0 14 29 16h129l84 166q6 14 20 17q12 0 13 -17l-4 -12l-78 -154h168l84 166l10 13q18 2 20 -15l-4 -16l-75 -148h118q18 0 23 -12q0 -18 -27 -18h-129l-82 -158h125q16 0 21 -12q0 -12 -31 -17h-131l-88 -176l-10 -10 l-7 -2q-12 0 -16 12l4 12l84 164h-168l-84 -168q-8 -8 -12 -10l-6 -2l-13 6l3 21l75 153h-118l-17 6zM236 467h167l82 158h-168z" />
<glyph unicode="$" horiz-adv-x="854" d="M45 203q0 49 27.5 77.5t66.5 28.5q31 0 54.5 -25.5t23.5 -58.5q0 -37 -25.5 -62.5t-68.5 -25.5h-31q29 -80 139 -117l189 441l-78 92q-41 63 -41 133q0 94 74 162q88 78 248 78l53 123q8 10 16 10q6 -2 8 -6t5 -6l-3 -7l-51 -120q80 -8 140 -52q59 -37 59 -94 q0 -35 -23.5 -61.5t-62.5 -26.5q-37 0 -62 25q-18 23 -22 57q0 31 24.5 57.5t55.5 26.5l12 -2l-37 24q-33 16 -92 27l-137 -317q96 -84 123 -121q73 -97 73 -203q0 -135 -124 -215q-106 -66 -240 -65q-51 0 -88 12l-68 -158l-18 -16q-12 0 -12 12l4 16l65 152 q-82 25 -131 82q-45 61 -45 123zM260 12l27 -6l35 -2q94 0 159 45q84 55 84 152q0 78 -41 141q-25 37 -82 94zM410 760q0 -47 24 -94l47 -62l131 299q-88 0 -137 -29q-65 -36 -65 -114z" />
<glyph unicode="%" horiz-adv-x="819" d="M96 604q0 47 15 78q25 74 106.5 132t153.5 58q41 0 62.5 -27.5t21.5 -74.5q0 -84 -68 -195q-82 -125 -182 -124q-45 0 -77 44t-32 109zM98 10q0 10 13 35q80 135 165 260l142 189l131 165q70 90 127 183l22 16l11 -12l-7 -19l-60 -103q-26 -44 -67 -103l-112 -158 l-158 -193q-94 -117 -178 -245q-6 -14 -14 -21l-7 -2zM160 524q0 -61 51 -61q74 0 140.5 96t66.5 221q0 33 -10.5 54.5t-38.5 25.5q-74 0 -148 -143q-61 -123 -61 -193zM393 158q0 45 15 80q25 72 106 133q82 57 154 57q41 0 62.5 -27.5t21.5 -74.5q0 -84 -68 -195 q-82 -125 -182 -125q-45 0 -77 44t-32 108zM459 80q0 -61 49 -62q74 0 140.5 96.5t66.5 219.5q0 35 -10.5 56.5t-38.5 25.5q-72 0 -146 -144q-61 -122 -61 -192z" />
<glyph unicode="&#x26;" horiz-adv-x="1122" d="M57 -358q0 88 68 153q66 59 184 72h15q20 0 22 -10q-4 -2 -11 -7.5t-22 -7.5q-104 -12 -165.5 -71.5t-61.5 -126.5q0 -70 67.5 -119t200.5 -49q178 0 287 88q123 98 123 299l-6 112l-33 162q-37 -68 -108.5 -111.5t-167.5 -43.5q-154 0 -244 81q-78 72 -78 181 q0 115 87 208t290 160q-35 63 -55.5 128t-20.5 112q0 88 56.5 135t131.5 47q82 0 139.5 -57t57.5 -135q0 -70 -45 -123q-63 -74 -211 -127l45 -83q27 -50 53 -106q55 -111 74 -172l59 205q37 82 91 117q49 37 112 37q55 0 92 -24.5t37 -69.5q0 -31 -19.5 -47.5t-53.5 -20.5 q-33 0 -55.5 15.5t-22.5 50.5l2 22l8 31l-10 8q-84 0 -150 -129l-35 -111l-34 -131q35 -82 57 -179t22 -179q0 -195 -135 -299q-119 -88 -315 -88q-162 0 -242 56t-80 147zM244 258q0 -86 45 -152q59 -84 170 -83q90 0 151.5 41.5t98.5 111.5q-20 68 -81 203t-106 201 q-129 -43 -198 -119q-80 -84 -80 -203zM463 852q0 -96 80 -229q98 31 155 75q80 62 80 146q0 63 -47 110q-43 49 -115 50q-55 0 -100 -33q-53 -41 -53 -119z" />
<glyph unicode="'" horiz-adv-x="352" d="M295 825l4 15q31 53 59 129l37 102q12 37 43 37q14 0 26.5 -10.5t12.5 -26.5q0 -23 -16 -41l-72 -84q-33 -41 -76 -117l-14 -10z" />
<glyph unicode="(" horiz-adv-x="471" d="M111 504q0 221 146 461.5t347 332.5q27 12 51 17l11 -4q0 -12 -45 -45q-137 -98 -234 -320q-106 -254 -106 -553q0 -152 23.5 -263.5t74.5 -215.5l8 -25l2 -10l-4 -6l-14 8l-31 27q-84 86 -147 229q-41 94 -61.5 181.5t-20.5 185.5z" />
<glyph unicode=")" horiz-adv-x="471" d="M53 -125q0 12 43 43q139 98 236 320q106 250 106 553q0 270 -98 479q-12 23 -12 37l4 6q8 -6 12 -8q16 -10 35 -27q86 -92 147 -229q41 -94 61.5 -183.5t20.5 -185.5q0 -223 -147.5 -465t-345.5 -330l-54 -14z" />
<glyph unicode="*" horiz-adv-x="675" d="M324 797q0 31 71 51l90 18l-49 19q-80 37 -82 69q0 27 29 29q29 0 70 -47l45 -59l-4 71q0 45 7 69.5t34 26.5q33 0 34 -32q0 -29 -16 -64q-12 -33 -43 -74l57 48q49 37 80 41q25 0 27 -27q0 -29 -72 -53l-88 -23l80 -26q68 -25 68 -56t-31 -30q-31 0 -90 57l-37 41l4 -72 q0 -41 -7 -62.5t-32 -25.5q-37 0 -37 39q0 25 14 55l46 72l-76 -61q-37 -25 -62 -25q-31 0 -30 31z" />
<glyph unicode="+" horiz-adv-x="589" d="M33 356l14 15q59 35 164 35l59 -3q10 51 46 103.5t87 77.5l9 2l8 -6l-6 -7q-41 -23 -60 -75q-8 -27 -12 -49.5t-4 -55.5l156 -22q29 0 53 12l14 6l-6 -14q-25 -27 -78 -45q-57 -14 -98 -15l-53 4q-25 -82 -59 -127t-79 -73l-12 -4l4 12q31 31 51 102l25 103l-86 18 q-27 6 -39 8t-37 2l-41 -6l-14 -2z" />
<glyph unicode="," horiz-adv-x="256" d="M-45 -215l14 16l97 82q53 53 53 90l-6 25q-23 33 -23 72t16.5 59.5t51.5 20.5q29 0 44 -18.5t19 -53.5q0 -29 -12 -58q-18 -45 -98 -118q-63 -57 -127 -101z" />
<glyph unicode="-" horiz-adv-x="520" d="M37 352l12 10q53 23 90 33l64 11q39 0 55 -2.5t41 -14.5l55 -12l64 -6q33 0 53 10l8 2l8 -6l-8 -12q-25 -18 -74 -33t-79 -15l-56 2l-43 15q-55 20 -116 20l-54 -6l-8 -2z" />
<glyph unicode="." horiz-adv-x="290" d="M86 59q0 31 21.5 57.5t58.5 26.5q29 0 47 -19t18 -48q0 -31 -20.5 -57.5t-58.5 -26.5q-31 0 -50 18q-12 16 -16 49z" />
<glyph unicode="/" horiz-adv-x="421" d="M6 -125l6 35q18 61 41 122.5t53 131.5q59 143 107 233l115 213q80 150 145.5 290t110.5 288q10 31 22 31l10 -21l-2 -20q-43 -141 -116 -304l-142 -278q-123 -231 -195.5 -398t-119.5 -307q-9 -30 -25 -34z" />
<glyph unicode="0" horiz-adv-x="733" d="M53 299v39q0 20 5 51t20 66q49 156 199.5 271.5t283.5 115.5q72 0 114 -54.5t42 -146.5q0 -180 -127 -397q-147 -256 -338 -256q-82 0 -140.5 94t-58.5 217zM172 135q0 -125 94 -125q141 0 263 194.5t122 452.5q0 82 -20 123q-18 45 -72 45q-139 0 -274 -293 q-113 -254 -113 -397z" />
<glyph unicode="1" horiz-adv-x="573" d="M35 0l545 786l-267 -180l-233 -149l-23 -8l-8 6l4 8l13 14q84 47 370 238l199 131l8 6l6 -6q-141 -295 -231 -539q-74 -207 -74 -307h-309z" />
<glyph unicode="2" horiz-adv-x="698" d="M-2 -18l4 34q18 66 76 117q8 8 223 139q90 53 141.5 108.5t79.5 147.5l21 86l10 80q0 51 -22.5 80t-75.5 29q-111 0 -191 -97.5t-80 -199.5q0 -80 74 -80q59 0 104 70q33 53 46 116l6 21l12 -17q0 -68 -49 -141q-51 -70 -117 -69q-49 0 -72.5 25.5t-23.5 74.5 q0 113 85 216t200 103t176 -69q51 -61 51 -154q0 -117 -61.5 -194.5t-213.5 -139.5l-168 -61q-88 -37 -122 -90l82 30q43 12 90 13q66 0 143 -27l74 -29l47 -6q51 0 84 58q2 10 14 22l8 6l6 -6l-10 -26q-37 -78 -69 -115q-57 -57 -150 -57q-53 0 -87 11t-46 18t-37 26 l-59 37q-27 16 -56 20q-43 0 -73.5 -22.5t-48.5 -75.5q-6 -14 -11.5 -18.5t-7.5 -6.5z" />
<glyph unicode="3" d="M27 150q0 37 22 71q27 33 70 33q29 0 50 -17.5t26 -52.5q0 -39 -22.5 -62.5t-63.5 -23.5l-27 2q-10 -4 -12 -8q0 -20 40 -50t99 -30q117 0 192 131q61 109 62 215q0 55 -21 74q-41 -20 -84 -20q-39 0 -39 22q0 10 19 21l45 6l51 -4q43 12 81 89t38 140q0 57 -19.5 89 t-68.5 32q-102 0 -166 -57q-55 -49 -55 -115q0 -33 18 -57q20 -20 60 -21q41 0 70.5 40t29.5 108q0 18 12 18l8 -23q0 -78 -34 -120q-31 -43 -86 -43q-47 0 -73 27.5t-26 68.5q0 76 60 129q69 65 182 65q94 0 154.5 -47t60.5 -127q0 -76 -39 -123q-53 -66 -170 -84 q51 -12 89 -65t38 -119q0 -123 -111.5 -196.5t-269.5 -73.5q-92 0 -141 48t-49 110z" />
<glyph unicode="4" horiz-adv-x="686" d="M23 274q0 23 23.5 34t70.5 11q123 123 192 236q57 92 109 242l184 34q-18 -109 -192 -284q-98 -104 -258 -234q43 0 67 -8l47 -12l119 -21q37 86 98 185q78 127 154 186l18 10l7 -4l-9 -14q-47 -80 -96 -199q-31 -76 -55 -166h35q20 0 42.5 3t40 8.5t39.5 15.5l11 2 l10 -6l-14 -17q-20 -10 -68 -20l-98 -6l-23 -125q-12 -74 -12 -125h-174q4 27 12 57.5t27 81.5l45 113q-41 0 -74 8l-47 12l-64 17l-51 4l-47 -31q-12 -6 -39 -10q-31 0 -30 22z" />
<glyph unicode="5" horiz-adv-x="747" d="M35 168q0 41 25.5 69.5t68.5 28.5q33 0 56.5 -22.5t23.5 -57.5q0 -86 -82 -86q-16 0 -41 13q0 -25 45 -58q59 -39 143 -39q125 0 197 134q57 109 57 221q1 121 -116 121q-61 0 -96 -10.5t-80 -41.5l-15 -8l-6 4l6 21l154 370l114 -16l129 -8q104 0 140 22l14 11l6 2l2 -7 l-8 -14q-37 -78 -67 -106q-57 -51 -173 -52l-104 7q-33 4 -49.5 7t-36.5 9l-84 -203q61 37 154 37q131 0 202 -72q66 -66 66 -168q0 -123 -100.5 -203.5t-290.5 -80.5q-117 0 -185.5 52t-68.5 124z" />
<glyph unicode="6" horiz-adv-x="714" d="M23 295q0 184 147 364.5t336 180.5q82 0 135 -36t53 -91q0 -63 -63 -64q-63 0 -64 62q0 29 19 47q16 12 45 16q-6 14 -44 27.5t-79 13.5q-129 0 -221 -199q-35 -74 -64 -178q29 27 77 44.5t108 17.5q94 0 160.5 -63t66.5 -163q0 -109 -88 -194q-49 -47 -114.5 -71.5 t-151.5 -24.5q-115 0 -186.5 88t-71.5 223zM170 168q0 -158 115 -158q90 0 153 125q56 108 56 221t-95 113q-59 0 -110 -22.5t-82 -63.5l-25 -102q-12 -55 -12 -113z" />
<glyph unicode="7" horiz-adv-x="518" d="M-6 0q0 119 174 332l377 448l-64 -45q-51 -29 -88 -28q-25 0 -46 7t-54 27l-51 29q-16 6 -47 10l-50 -12l-47 -94q-2 -12 -12 -19l-10 -6l-8 10l8 19l76 170l12 16l8 6l8 -14l-4 -16l-20 -47l86 34q45 16 82 17q29 0 38 -4l31 -13l47 -16l58 -4h37q18 6 26 8l23 33l12 12 l8 4l8 -12l-6 -14l-133 -209q-133 -213 -217 -377q-115 -225 -115 -320l4 -82q0 -18 -28 -20q-45 0 -76 25q-47 41 -47 145z" />
<glyph unicode="8" horiz-adv-x="636" d="M18 174q0 84 55.5 143.5t192.5 102.5l-61 76q-41 57 -41 116q0 90 76.5 154.5t201.5 64.5q78 0 130.5 -43.5t52.5 -113.5q0 -68 -39 -115t-158 -90q78 -82 113 -137q20 -33 30.5 -67t10.5 -70q0 -98 -83 -156.5t-212 -58.5q-113 0 -191 52t-78 142zM70 174q0 -70 60 -120 t157 -50q90 0 138 25.5t48 87.5q0 45 -43 112.5t-149 176.5q-119 -37 -165 -94.5t-46 -137.5zM268 694q0 -51 60 -119l84 -88q78 25 124 71t46 122q0 57 -35 95t-107 38q-66 0 -121 -31q-51 -33 -51 -88z" />
<glyph unicode="9" horiz-adv-x="743" d="M39 115q0 31 20 51q20 16 52 20q31 0 49 -19.5t18 -51.5q0 -31 -21.5 -46.5t-50.5 -19.5q33 -39 115 -39q139 0 221 152l97 248q-27 -33 -69 -56.5t-105 -23.5q-86 0 -149.5 57.5t-63.5 157.5q0 117 84 203q92 96 231 96q127 0 196.5 -79t69.5 -210q0 -229 -172 -405 q-158 -160 -338 -160q-80 0 -132 33.5t-52 91.5zM295 481q0 -63 28.5 -93t75.5 -30q49 0 90 34t62 73l22 106q12 55 13 105q0 74 -24.5 110.5t-84.5 36.5q-76 0 -129 -118t-53 -224z" />
<glyph unicode=":" horiz-adv-x="309" d="M86 59q0 31 21.5 57.5t58.5 26.5q29 0 47 -19t18 -48q0 -31 -20.5 -57.5t-58.5 -26.5q-31 0 -50 18q-12 16 -16 49zM141 455q0 33 21.5 57.5t58.5 24.5q29 0 47.5 -19.5t18.5 -48.5q0 -31 -20.5 -57.5t-59.5 -26.5q-31 0 -46.5 18.5t-19.5 51.5z" />
<glyph unicode=";" horiz-adv-x="292" d="M-45 -215l14 16l97 82q53 53 53 90l-6 25q-23 33 -23 72t16.5 59.5t51.5 20.5q29 0 44 -18.5t19 -53.5q0 -29 -12 -58q-18 -45 -98 -118q-63 -57 -127 -101zM141 455q0 33 21.5 57.5t58.5 24.5q29 0 47.5 -19.5t18.5 -48.5q0 -31 -20.5 -57.5t-59.5 -26.5 q-31 0 -46.5 18.5t-19.5 51.5z" />
<glyph unicode="&#x3c;" horiz-adv-x="495" d="M100 397q0 18 88 88l224 162l20 10l6 2l8 -10q-4 -6 -6 -10q-8 -12 -18 -23q-53 -43 -137 -129q-72 -78 -76 -94q0 -23 41 -86q16 -27 31 -47q29 -43 65 -84q10 -16 13 -22.5t6 -14.5l-9 -10l-10 4l-24 14q-59 49 -139.5 137t-82.5 113z" />
<glyph unicode="=" horiz-adv-x="567" d="M76 272l10 13l68 24q12 4 42.5 9.5t43.5 7.5q35 0 53 -4l45 -13l53 -12l66 -6q33 0 51 10l10 2l6 -6l-6 -10q-66 -49 -156 -49h-26h-17q-10 4 -14 4l-41 14q-55 18 -117 18l-53 -6l-8 -2zM90 455l10 10l78 27q51 14 78 14q35 0 53 -4l45 -13l54 -12l63 -6q31 0 53 10l8 4 l7 -8l-7 -10q-18 -14 -73 -33q-12 -4 -38 -9t-42 -7q-39 0 -55 4l-45 14l-54 15l-61 6q-35 0 -53 -8l-11 -3z" />
<glyph unicode="&#x3e;" horiz-adv-x="493" d="M68 145q0 10 24 33q51 39 132 124t81 99q0 16 -40 83t-95 134q-16 23 -20 37l8 11q14 0 37 -19q61 -49 140 -137t79 -111q0 -29 -140 -131l-170 -121l-18 -8l-8 -2z" />
<glyph unicode="?" horiz-adv-x="823" d="M152 59q0 31 21.5 57.5t57.5 26.5q29 0 47.5 -19t18.5 -48q0 -31 -20.5 -57.5t-59.5 -26.5q-31 0 -49 18q-12 16 -16 49zM254 342q0 74 80 145q27 20 158 103q100 61 143 143q27 57 27 123q0 59 -29 97t-90 38q-98 0 -154.5 -57t-56.5 -146q0 -43 22 -65q23 -16 56 -21 q88 0 108 138l4 10l4 4l6 -14q0 -74 -35.5 -121t-93.5 -47q-49 0 -80.5 28.5t-31.5 87.5q0 92 68.5 161t185.5 69q115 0 190.5 -57.5t75.5 -157.5q0 -88 -45 -148q-53 -68 -178 -108q-166 -49 -193 -64q-113 -57 -112 -141q0 -68 67 -68q49 0 84 54q12 18 23 20l6 -8l-2 -12 q-18 -39 -51 -62q-29 -16 -62 -20q-37 0 -65.5 25.5t-28.5 70.5z" />
<glyph unicode="@" horiz-adv-x="1040" d="M104 451q0 227 156 362q135 117 334 117q182 0 292.5 -97.5t110.5 -246.5v-47q-6 -25 -10 -50.5t-24 -66.5q-33 -72 -113 -127q-78 -49 -166 -49q-55 0 -80.5 19.5t-25.5 60.5l6 51q-45 -61 -74 -86q-49 -39 -104 -39q-61 0 -103 47q-37 49 -37 129q0 57 31 125 q43 88 127 136t160 48q39 0 67.5 -16t48.5 -49l27 55h92l-143 -340q-12 -35 -12 -55q0 -43 47 -43q94 0 170 76q84 88 84 225q0 133 -100.5 221t-274.5 88q-182 0 -309 -108q-145 -123 -146 -336q0 -184 121 -287q109 -92 281 -92q133 0 233 51q82 43 131 111l12 12 q16 2 21 -17l-8 -22q-80 -94 -179.5 -130t-214.5 -36q-186 0 -303 98q-125 106 -125 308zM354 354q0 -78 62 -78q39 0 85 42t103 128l86 195q-12 31 -34.5 48.5t-57.5 21.5q-45 0 -86 -35q-53 -43 -100 -133q-57 -119 -58 -189z" />
<glyph unicode="A" horiz-adv-x="1329" d="M37 180q0 59 33.5 95t85.5 36q41 0 70.5 -32.5t29.5 -77.5q0 -47 -29.5 -81t-89.5 -34l-10 -4l-4 -4q0 -18 50 -48t116 -30q94 0 184 57q70 45 160 138q-53 53 -83 119.5t-30 125.5q0 70 39 121q51 63 146 64q49 0 98 -25t102 -90l402 494q88 98 198 178q94 72 191 112 l-129 -231l-103 -195q-63 -129 -114 -256l-109 -293l-70 -208l46 28q14 10 36 31q33 33 70 86l14 8l9 -8l-7 -18q-35 -59 -86 -101q-33 -25 -90 -53l-22 -84h-209l14 37q-96 12 -164 45q-31 14 -65.5 38.5t-69.5 57.5q-96 -90 -158 -133q-102 -68 -202 -68q-106 0 -178 54.5 t-72 148.5zM578 399q0 -100 71 -186l121 131l113 137q-23 29 -65 51.5t-89 22.5q-59 0 -100 -33q-51 -41 -51 -123zM664 199q68 -61 133 -95q66 -29 161 -45l9 60l2 55q0 156 -70 289q-47 -63 -115 -139q-75 -86 -120 -125zM918 489q37 -66 56 -148.5t19 -180.5q18 47 39 96 q31 76 51 113q44 90 138 262q117 207 197.5 325.5t217.5 290.5q-86 -53 -159 -112q-92 -74 -160 -148l-119 -141q-23 -27 -90 -115z" />
<glyph unicode="B" horiz-adv-x="1454" d="M41 172q0 63 37 100t82 37q37 0 69.5 -26.5t32.5 -79.5q0 -43 -31.5 -80t-95.5 -45q-10 -6 -12 -10q0 -14 53 -41q57 -23 117 -23q102 0 195.5 85t183.5 247q55 104 168 356q78 176 157 289q106 152 238 225q-43 20 -105.5 32.5t-142.5 12.5q-330 0 -530 -182 q-170 -154 -170 -340q0 -80 37 -127q45 -51 137 -51q154 0 241 176q68 139 68 303l2 14h6q8 -39 14.5 -84t6.5 -83q0 -152 -72 -242q-86 -111 -270 -111q-96 0 -148.5 56.5t-52.5 146.5q0 193 178 356q209 190 545 191q201 0 321 -43q33 16 70 16q25 0 37 -6q-37 0 -49 -4 q-12 0 -35 -14q92 -37 144.5 -114t52.5 -173q0 -109 -62 -186q-49 -57 -151 -101q120 -49 120 -207q0 -162 -102 -303q-119 -162 -297 -162q-82 0 -116.5 34t-34.5 100q0 90 61 185t149 110q-68 -20 -125 -107.5t-57 -187.5q0 -51 22.5 -76t63.5 -25q131 0 221 203 q72 166 72 291q0 90 -31 121l-51 -19l-43 -4q-78 0 -78 37q0 41 88 41q29 0 45 -4q29 0 52 -10q47 35 77.5 102.5t30.5 167.5q0 98 -28 158q-25 59 -76 90q-82 -82 -152.5 -217.5t-134.5 -354.5q-104 -375 -324 -526q-147 -104 -354 -104q-119 0 -191.5 50t-72.5 140z M1106 639q0 -20 47 -21q27 0 45 9l35 14q-35 20 -76 21q-49 0 -51 -23z" />
<glyph unicode="C" horiz-adv-x="1114" d="M84 952q0 125 94 217q121 117 359 117l59 -2q31 0 45 -4q20 0 31 -12l-8 -4h-25q-238 0 -358 -95q-111 -86 -111 -241q0 -92 59 -170q59 -72 160 -103q123 244 311 402q230 194 491 194h3q80 0 121 -41q43 -37 43 -104q0 -100 -88 -203q-96 -113 -271 -194 q-59 -25 -109 -43.5t-108 -34.5q-96 -23 -196 -23q-43 -86 -74 -195.5t-31 -195.5q0 -94 40 -147.5t130 -53.5q166 0 293 146q115 131 115 264q0 55 -26.5 88t-80.5 33q-90 0 -143 -80q-41 -66 -41 -156q0 -57 14 -80l4 -10l-4 -8l-12 4q-57 41 -57 137q0 84 58 148.5 t177 64.5q68 0 100.5 -39t32.5 -102q0 -141 -118 -279q-134 -153 -310 -153h-2q-184 0 -272 96q-76 86 -76 232q0 84 19.5 160.5t56.5 154.5q-94 18 -180 90q-115 96 -115 225zM596 633q160 0 381 92q131 55 225 182q43 61 62.5 110.5t19.5 102.5q0 49 -21.5 75t-66.5 26 q-150 0 -332 -191q-154 -164 -268 -397z" />
<glyph unicode="D" horiz-adv-x="1495" d="M197 80q0 37 39.5 58.5t101.5 21.5q137 0 289 -60q86 86 159 236l115 280q63 178 113 269q66 129 151 202l99 76q-137 131 -381 131q-217 0 -363 -172q-129 -154 -129 -338q0 -102 49 -170q51 -63 150 -63q135 0 221 123q76 111 76 246q0 41 -2 59t-15 49q-12 43 -49 74 l-8 10l6 4l8 -2q41 -25 62.5 -80t21.5 -121q0 -145 -82 -258q-92 -127 -239 -127q-141 0 -218 79t-77 200q0 186 151 338q172 172 435 172q147 0 256 -39q80 -29 161 -88l91 49q18 10 43.5 18.5t40.5 8.5q-23 -10 -45.5 -23.5t-47.5 -36.5l-51 -47q141 -160 141 -430 q0 -338 -159.5 -539.5t-411.5 -201.5q-139 0 -250 49q-49 -23 -117 -39q-29 -8 -56 -12t-68 -4q-49 0 -87 6t-69 20q-55 25 -55 72zM225 80q0 -29 49 -51q49 -18 105 -19q78 0 133 21l74 35q-33 16 -67 29.5t-70 23.5q-66 16 -115 16q-109 0 -109 -55zM715 68l102 -31 q31 -6 57.5 -10t59.5 -4q197 0 348 190q78 102 117 224t39 278q0 254 -133 413q-57 -80 -105 -196q-14 -37 -106 -363q-43 -168 -103 -262q-74 -127 -198 -196z" />
<glyph unicode="E" horiz-adv-x="1036" d="M205 315q0 172 119.5 304.5t341.5 168.5l-21 35l-65 -2q-131 0 -218 37q-113 49 -112 156q0 129 117.5 216t302.5 87l8 -2l4 -4l-14 -6q-78 0 -141.5 -21.5t-112.5 -60.5q-88 -70 -88 -189q0 -104 106 -155q76 -35 182 -35h23l-14 39l-2 41q0 125 98 217q113 100 295 100 q74 0 110.5 -29.5t36.5 -78.5q0 -96 -98 -183q-111 -96 -301 -114l4 -41q104 0 162 -33q41 -24 45 -55q0 -39 -68 -39q-61 0 -114.5 19.5t-98.5 70.5q-133 -49 -213 -168q-88 -139 -88 -336q0 -109 49 -181.5t150 -72.5q176 0 301 137q111 123 110 256q0 137 -129 137 q-78 0 -120 -63q-37 -61 -37 -145q0 -41 4 -62l14 -45l4 -12l-4 -6l-8 4q-76 57 -76 172q0 74 43 123q53 57 156 57q176 0 176 -160q0 -139 -119 -270q-129 -145 -309 -146q-190 0 -297 107q-94 94 -94 231zM760 852q168 18 272.5 103t104.5 169q0 39 -24 63.5t-71 24.5 q-178 0 -251 -204l-25 -86zM772 770q29 -84 131 -84q39 0 41 23q0 20 -44 41.5t-97 21.5z" />
<glyph unicode="F" horiz-adv-x="1118" d="M29 178q0 61 32 94q16 16 35 24.5t47 8.5q41 0 75 -29.5t34 -72.5q0 -45 -38 -85t-99 -40q47 -61 161 -62q145 0 281 174q96 131 199 377q-100 -12 -181 -51q-57 -25 -137 -82q68 63 154 106.5t174 57.5q102 254 188 358q72 91 203 144q-45 -35 -82 -123l-96 -361 q25 0 39 5l33 10q12 59 43 106q41 57 100 58q16 0 33 -19q12 -18 12 -45q0 -39 -29 -65q-16 -16 -63 -33v-62q0 -31 10 -73l-129 -35q0 45 4 65l15 76l-39 -8l-35 -6q-31 -154 -101 -281q-92 -170 -229 -239q-35 -16 -73 -30.5t-87 -27t-98 -18.5t-96 -6q-121 0 -190.5 55 t-69.5 135zM238 748q0 178 155 333q184 180 471 181l109 -7l137 -22l121 -16l117 -7q82 0 139 35q39 18 74 64q-33 -88 -80 -140q-73 -77 -196 -77h-3q-57 0 -98 12l-97 39l-106 51q-43 16 -80 24.5t-82 8.5q-244 0 -409 -168q-144 -149 -144 -311q0 -74 36 -115t108 -41 q131 0 217 170q70 145 69 287l4 16q37 -66 37 -164q0 -139 -78 -229q-90 -104 -249 -105q-82 0 -129 49q-43 49 -43 132zM1147 659l47 23q19 14 23 49q0 37 -27 37q-18 0 -33 -29q-6 -16 -8 -29.5t-2 -39.5v-11z" />
<glyph unicode="G" horiz-adv-x="1349" d="M166 850q0 188 124 309t355 170l-2 -8q-176 -61 -272 -160q-113 -125 -113 -317q0 -131 45 -209q59 -100 191 -117l-5 66q0 260 211 483q233 246 574 246q80 0 123 -44t43 -122q0 -123 -90 -258q-104 -156 -291 -273q-41 -23 -94.5 -47t-126 -45.5t-174.5 -34.5 q0 -213 178 -213q143 0 297 148q88 82 176 221l14 8q12 0 17 -12l-5 -8q-45 -57 -108 -199q-72 -168 -141 -432q78 25 159 123l99 139l14 6l8 -8l-6 -16l-135 -180q-72 -72 -141 -91q-39 -135 -72 -204q-61 -135 -152 -205q-119 -88 -218 -121t-208 -33q-102 0 -159.5 39 t-57.5 117q0 106 142 203q162 109 499 182q23 125 60 212t98 134q-45 -25 -84 -37t-98 -12q-141 0 -228.5 64.5t-111.5 172.5q-154 16 -246 111q-88 98 -88 252zM293 -430q0 -123 168 -123q47 0 66.5 5t40 11.5t40.5 14.5q121 51 183 196q25 57 65 250q-301 -74 -432 -159.5 t-131 -194.5zM664 516q53 4 93 12.5t87 22.5q104 31 200 90q178 106 277 256q90 137 90 250q0 61 -30.5 100t-100.5 39q-211 0 -422 -291q-195 -272 -194 -479z" />
<glyph unicode="H" horiz-adv-x="1486" d="M10 180q0 53 31 88t92 35q43 0 74 -31.5t31 -76.5q0 -47 -36 -80t-98 -33h-18q20 -29 66 -53q43 -18 104 -19q123 0 223 133q63 82 123 244l80 207q-59 -18 -162 -74q-92 -47 -133 -80l-8 -4l-4 4l6 15q45 43 135 91t176 77l33 94l49 112q25 55 51 89l49 55l39 43l35 57 q-39 -31 -98 -57.5t-123 -26.5q-27 0 -39 2t-43 16.5t-31 53.5q0 31 11 59l12 41q0 18 -27 19q-41 0 -114 -62q-66 -55 -105 -114l-18 -25l-4 -4l-7 2l5 10l10 21q59 104 145 162.5t152 58.5q35 0 51 -17.5t16 -81.5q0 -47 9.5 -67.5t42.5 -22.5q37 0 149 58q131 68 193 149 q8 14 24 15q12 0 12 -13l-6 -20q-45 -66 -73 -119l-70 -154l-53 -159l-41 -113l131 35l100 24q135 262 303 400q147 123 281 123q68 0 101.5 -35t33.5 -90q0 -135 -170 -242q-127 -76 -340 -133l-88 -209q-74 -186 -105.5 -287.5t-31.5 -160.5q0 -96 67 -97q57 0 129 70 q88 82 148 186q4 10 10 15l8 4l8 -11l-2 -10l-12 -22q-78 -113 -123 -162q-86 -90 -174 -90q-217 0 -217 239q0 109 51 248q25 66 105 234l-121 -31q-55 -12 -107 -31q-74 -195 -149 -321q-94 -154 -211 -244q-133 -98 -291 -98q-111 0 -181.5 52t-70.5 140zM1376 797 q244 70 348 161q86 75 86 175q0 49 -19 76.5t-60 27.5q-92 0 -169 -94t-186 -346z" />
<glyph unicode="I" horiz-adv-x="966" d="M47 176q0 63 35 98t82 35q39 0 69.5 -28.5t30.5 -81.5q0 -51 -34.5 -87t-102.5 -36q55 -72 176 -72q106 0 203.5 110.5t155.5 323.5q-92 31 -146 84q-72 72 -72 176q0 238 271 414q248 158 534 158q-35 -12 -82 -72q-70 -88 -135 -244q-78 -193 -151 -505q78 0 139 63 q57 63 57 158l-6 57l-2 16l2 11l4 4l6 -6l13 -39l6 -45q0 -92 -45 -156q-61 -86 -181 -86q-55 -240 -231 -354q-145 -94 -342 -95q-92 0 -164 46q-90 55 -90 153zM528 666q0 -86 50 -146q37 -43 90 -57q70 324 239 557q135 184 262 227q-328 -70 -499 -252 q-142 -147 -142 -329z" />
<glyph unicode="J" horiz-adv-x="765" d="M-272 -371q0 145 129 248q156 121 448 121l14 -2l132 391q63 186 137 353t149 268q55 76 120 137t126 96q-319 -43 -518 -235q-182 -172 -182 -371q0 -80 39 -125q31 -31 98 -49q10 -6 12 -10l-12 -13q-90 10 -144 54q-76 63 -75 182q0 254 231 405q211 139 608 189l33 2 q-133 -68 -223 -240q-63 -119 -131 -381q-86 -338 -111 -411l-84 -242q80 0 126 -34t46 -89q0 -39 -28.5 -80t-83.5 -74l-15 -4l-10 9l16 14q37 20 66 61q6 8 16.5 29.5t10.5 42.5q0 43 -38 72.5t-114 29.5q-82 -195 -240 -346q-90 -86 -184 -131t-186 -45q-74 0 -126 48 t-52 130zM-182 -369q0 -147 102 -147q123 0 238 166q66 100 155 325q-252 0 -373.5 -87t-121.5 -257z" />
<glyph unicode="K" horiz-adv-x="1486" d="M10 172q0 61 37 95t82 34q47 0 76 -29q28 -24 28 -86q0 -49 -37.5 -84.5t-99.5 -35.5q23 -27 68 -46q47 -14 102 -14q117 0 215 135q51 72 121 246l53 145q8 20 25 58q47 117 111 248q29 59 73 116l111 133q-39 -29 -119 -60.5t-143 -31.5q-102 0 -103 80l4 41l4 35 q0 25 -30 29q-37 0 -103 -62q-47 -43 -94 -114l-20 -25l-6 -4l2 10l10 23q59 104 145 162.5t152 58.5q35 0 51 -17.5t16 -78.5q0 -47 9.5 -66.5t42.5 -22.5q57 0 141 43q98 51 170 146q12 18 29 18q4 -2 10 -10q0 -2 2 -4l-6 -16l-47 -78q-23 -39 -37 -66l-54 -139 l-106 -311q-76 -217 -123 -301q-80 -154 -203 -246q-137 -103 -282 -103q-123 0 -200 53.5t-77 141.5zM1006 760q29 0 64.5 -11.5t62.5 -39.5q47 27 102 108l78 129q102 176 147 221q102 103 266 103q16 0 25 -4l8 -4l-10 -7l-53 -8q-25 0 -39.5 -4t-40.5 -16 q-37 -12 -61.5 -44t-65.5 -122l-49 -109q-61 -125 -156 -200q-53 -43 -135 -72q12 -23 21.5 -64t9.5 -88l4 -184q0 -49 2 -127t2 -104q0 -88 49 -88q59 0 180 147l32 42q26 34 39 54.5t23 22.5l7 -8q0 -14 -15 -31l-106 -148q-101 -116 -195 -116h-2q-111 0 -167 41t-56 147 q0 59 18 137l27 113l41 156q12 45 16 88q-118 0 -118 54q0 36 45 36zM983 723q0 -12 24.5 -24.5t53.5 -12.5h18q0 18 -18 33.5t-53 19.5q-25 0 -25 -16z" />
<glyph unicode="L" horiz-adv-x="1165" d="M12 55q0 43 30 66.5t99 23.5q57 0 142 -18l129 -37q55 68 98 172q4 10 24 74l41 123q-125 0 -231 76q-129 92 -129 260q0 197 168 364q184 180 442 180l33 2l25 -2l4 -4l-4 -4q-12 -6 -39 -10q-252 -20 -410 -209q-131 -162 -131 -344q0 -117 70 -195q78 -88 211 -88 q86 340 225 545q178 264 416 264q66 0 102.5 -41.5t36.5 -111.5q0 -197 -174 -401.5t-402 -272.5q-55 -201 -102 -274q-41 -72 -125 -140l172 -39l107 -10q72 0 145 49q82 59 176 209l13 12l14 -8l-10 -24q-72 -117 -131 -172q-94 -88 -201 -88h-64q-25 6 -37 8l-213 43 q-125 -84 -294 -84q-225 0 -226 106zM41 57q0 -35 36 -54t91 -19q57 0 119.5 21.5t103.5 62.5l-135 34q-74 19 -117 19q-98 0 -98 -64zM795 498q221 78 368 284q137 197 137 385q0 51 -15 77t-52 26q-135 0 -234 -156q-68 -106 -131 -330z" />
<glyph unicode="M" horiz-adv-x="1767" d="M31 174q0 57 35.5 93t91.5 36q57 0 86 -35q32 -32 32 -85q0 -58 -38.5 -94t-116.5 -36q43 -49 123 -49q186 0 368 293l367 584q88 111 168 200q100 111 188 179l-221 -662l-82 -223q-98 -257 -98 -318q0 -37 24 -37q35 0 134 205l192 414q115 242 266 424 q53 61 104.5 112.5t96.5 84.5q-43 -94 -98 -289l-99 -371l-57 -244q-31 -141 -31 -217q0 -123 72 -123q63 0 152 125l77 125l13 13l12 -11l-4 -14q-78 -137 -115 -182q-68 -84 -149 -84q-98 0 -154 73q-51 78 -51 203q0 55 3 80t12 73t20.5 91t27.5 90q63 182 148 334 q57 106 156 239q-90 -78 -193 -221q-92 -135 -186 -325l-148 -312q-84 -184 -115 -231q-55 -90 -96 -90q-63 0 -98 43q-31 43 -31 125q0 176 115 448q78 188 184 357q35 57 72 107t86 110q-43 -37 -100 -103l-181 -215q-90 -113 -240.5 -377t-230.5 -356 q-133 -154 -282 -154q-88 0 -149.5 53.5t-61.5 143.5z" />
<glyph unicode="N" horiz-adv-x="1347" d="M12 170q0 59 38 95t83 36q47 0 78 -28.5t31 -88.5q0 -49 -39 -86q-38 -32 -107 -32h-4q55 -66 168 -66q106 0 183 61.5t171 210.5l199 353l231 434q106 182 187 201l14 2l10 -11l-6 -26q-27 -74 -49 -246q-8 -72 -14 -161t-6 -156l2 -396l41 129q47 139 119.5 306 t133 262.5t113.5 130.5q37 20 74 20q39 0 61 -16q27 -14 27 -41q0 -18 -18.5 -33.5t-46.5 -19.5l-44 6q-20 8 -34.5 21t-28.5 13l-10 -2q-35 -18 -94 -122q-27 -46 -55 -108l-60 -134l-94 -236l-82 -243l-4 -129l-172 -66v115l2 352q0 76 3 114t15 172t70 279q39 102 92 176 q-55 -45 -170 -251l-189 -347l-172 -313q-84 -150 -172 -231q-102 -93 -227 -93q-119 0 -183.5 57.5t-64.5 135.5z" />
<glyph unicode="O" horiz-adv-x="935" d="M115 354q0 184 73 351q98 217 267 358q129 109 288 160q115 37 218 37q94 0 141 -54q39 -45 39 -106q0 -33 -4 -45.5t-11 -18.5l-6 -4l-4 10l2 15l4 37q0 53 -30 94q-41 49 -125 49q-217 0 -400 -231q-147 -184 -248 -471q-83 -242 -83 -371q0 -76 30.5 -118t102.5 -42 q240 0 432 373q164 322 164 584q0 57 -19.5 91.5t-62.5 34.5q-158 0 -299 -286q-129 -268 -129 -527l2 -49q0 -18 -4 -24l-4 -4l-7 10l-4 20l-2 54q0 266 138.5 547.5t310.5 281.5q63 0 95 -45t32 -125q0 -313 -197 -627q-206 -331 -441 -331h-1q-127 0 -195 104 q-63 109 -63 268z" />
<glyph unicode="P" horiz-adv-x="1105" d="M47 178q0 49 37 88t82 39q104 0 104 -110q0 -53 -34.5 -90t-102.5 -37l31 -22q16 -12 47 -24t76 -12q135 0 270 191q72 100 156 295q-72 -16 -148 -58l-12 -2l8 13l84 43q8 4 40 14t40 12l66 174q72 205 178 342q73 92 149 137q-41 16 -98 25.5t-82 10.5t-39 1 q-324 0 -524 -182q-170 -154 -170 -336q0 -82 40 -129t115 -47q135 0 242 182q90 158 90 297l4 19l2 -6q6 -29 10.5 -58.5t4.5 -66.5q0 -156 -70 -258q-90 -135 -274 -136q-92 0 -141.5 55.5t-49.5 147.5q0 188 178 354q209 190 545 191h80q35 0 74 -8q35 -4 52 -8.5 t64 -18.5q57 29 119 29h27l6 -2l-6 -2q-27 0 -53 -11q-25 -6 -54 -26q82 -43 117 -82q70 -74 70 -166q0 -154 -152 -266q-133 -96 -325 -131q-92 -297 -265 -439q-151 -122 -368 -122h-4q-82 0 -152 45q-84 55 -84 151zM930 565q164 43 237 111q86 84 86 254q0 82 -22 133 q-16 47 -62 78q-76 -96 -136 -254t-103 -322z" />
<glyph unicode="Q" horiz-adv-x="1179" d="M37 90q0 59 74 100q78 39 204 39q96 0 187 -24q27 -6 55.5 -16.5t60.5 -28.5q236 195 349 448q84 193 84 400q0 92 -38 148t-114 56q-217 0 -389 -190q-154 -172 -154 -348q0 -68 37 -111t113 -43q123 0 211 164q74 141 74 285l-3 28l3 19l4 -4q30 -59 30 -156v-6 q0 -143 -67 -240q-83 -118 -249 -118h-3q-84 0 -133 49q-45 51 -45 135q0 184 161 366q180 199 412 199q172 0 260 -102q78 -90 78 -238q0 -180 -106 -344q-133 -213 -457 -416q39 -12 108.5 -24.5t135.5 -12.5q100 0 157 39q43 29 99 115l14 12l8 4l4 -6l-8 -24 q-117 -162 -166 -197q-97 -67 -225 -67h-4q-74 0 -154 24q-53 16 -121 53l-127 -53q-65 -22 -126 -22h-5q-121 0 -175 27.5t-54 80.5zM59 90q0 -86 205 -86q41 0 95.5 17.5t73 25.5t56.5 29l-122 65q-84 39 -146 39q-70 0 -116 -23.5t-46 -66.5z" />
<glyph unicode="R" horiz-adv-x="1484" d="M49 176q0 57 32 95t83 38q47 0 76.5 -31.5t29.5 -80.5q0 -51 -35.5 -90t-107.5 -39q23 -23 62.5 -40.5t93.5 -17.5q139 0 272 189q121 170 236 493q72 205 172 336q82 102 176 154l-82 18l-109 8q-324 0 -524 -180q-172 -154 -172 -338q0 -82 40 -129t120 -47 q135 0 237 182q84 156 84 297l4 19l2 -6q23 -57 23 -142q0 -145 -74 -250q-92 -127 -278 -127q-84 0 -138 56q-49 55 -49 147q0 197 180 359q211 186 549 186h60q26 0 82 -8q63 -6 100 -19q51 23 90 23l39 -4q-27 0 -52.5 -7.5t-41.5 -21.5q84 -25 147.5 -92.5t63.5 -161.5 q0 -109 -51 -186q-59 -92 -205 -152q45 -45 45 -147q0 -82 -29 -146q-39 -98 -39 -176q0 -121 74 -121q53 0 139 95q43 51 109 149l10 10l12 -8l-6 -18q-86 -125 -123 -166q-92 -96 -192 -96q-199 0 -199 165q0 70 29 142q10 27 23.5 58.5t33.5 70.5l43 74q29 47 29 96 l-43 -13l-35 -2q-68 0 -70 33q0 39 88 39q31 0 50 -6l36 -18q49 29 82 84q47 84 47 219q0 94 -30.5 151.5t-77.5 85.5q-70 -82 -133 -217q-27 -59 -57 -148l-58 -184q-100 -354 -285 -508q-146 -122 -370 -122h-4q-92 0 -163 53t-71 141zM1018 606q0 -16 51 -16q29 0 70 18 q-12 18 -58 19q-61 -1 -63 -21z" />
<glyph unicode="S" horiz-adv-x="1198" d="M35 174q0 49 31.5 87t78.5 38q115 0 115 -119q0 -43 -30.5 -82t-90.5 -39q31 -20 68 -36q37 -12 82 -13q166 0 295 172q80 111 137 275l-49 -2q-182 0 -305 92q-135 104 -136 284q0 209 150 353q159 149 401 149l31 -2l4 -4l-8 -4l-27 -6q-104 0 -190 -41t-148 -113 q-114 -132 -114 -350q0 -168 106 -254q92 -74 244 -74l51 2l66 277q45 158 102 260q88 150 188 215q53 33 115 49.5t141 16.5q82 0 132.5 -46.5t50.5 -123.5q0 -168 -180.5 -358.5t-409.5 -274.5q-80 -256 -203 -377q-154 -147 -428 -148q-115 0 -194 56q-76 57 -76 141z M944 532q223 98 356 248q146 165 146 353q0 137 -103 137q-55 0 -107 -25.5t-93 -75.5q-68 -80 -117 -297q-68 -305 -82 -340z" />
<glyph unicode="T" horiz-adv-x="1028" d="M29 180q0 51 30.5 87t77.5 36q104 0 105 -108q0 -47 -35 -82t-96 -35q29 -27 73 -45q20 -8 44 -12.5t63 -4.5q152 0 260 115q84 86 160 270l116 312q66 172 127 243q47 57 91.5 87t111.5 57q-43 -39 -78 -111q-23 -49 -51 -164l-39 -174q-10 -49 -16 -69 q-16 -63 -37 -123q-80 -231 -238.5 -351t-408.5 -120q-111 0 -185.5 53t-74.5 139zM238 741q0 178 161 338q186 182 465 183q41 0 96.5 -6.5t145.5 -22.5l111 -16l104 -9q90 0 141 23q29 14 51.5 30.5t47.5 47.5q-18 -82 -80 -142q-79 -75 -192 -75h-3q-63 0 -131 24 l-113 51l-124 45q-51 14 -99 15q-246 0 -413 -170q-144 -150 -144 -314q0 -70 37 -111.5t109 -41.5q127 0 217 172q72 143 71 287l4 16q37 -66 37 -164q0 -133 -71 -223q-86 -111 -258 -111q-82 0 -126 47.5t-44 126.5z" />
<glyph unicode="U" horiz-adv-x="1599" d="M305 770q0 199 146 363q160 178 391 178q162 0 254 -101q41 -47 61.5 -101t20.5 -130q0 -88 -33 -178t-103 -213l-157 -262q-35 -61 -55.5 -116.5t-20.5 -96.5t22.5 -65.5t63.5 -24.5q88 0 203 139q88 102 141 217l426 842l178 14l-504 -997q-49 -98 -49 -156 q0 -61 62 -62q59 0 159 125l86 117l11 10l12 -8l-8 -22q-92 -131 -123 -166q-82 -88 -170 -88q-76 0 -115 41q-35 41 -35 110l2 47q0 12 13 47q-72 -115 -131 -170q-79 -73 -162 -73h-2q-111 0 -166 61q-51 63 -51 162q0 131 90 303l115 197l122 207q47 90 48 167 q0 92 -48 142q-53 57 -155 57q-213 0 -373 -174q-141 -158 -141 -344q0 -80 38 -129t124 -49q121 0 206 180q68 147 68 289l-2 28v9l2 16l4 4q10 0 21 -31l16 -77l6 -84q0 -150 -72 -246q-84 -113 -245 -113q-90 0 -144 56q-47 57 -47 149z" />
<glyph unicode="V" horiz-adv-x="874" d="M145 977q0 14 11 31q59 104 146 162.5t153 58.5q68 0 67 -101l2 -45q10 -39 49 -39q80 0 181 64q78 49 123 125q12 23 36 27q23 0 23 -23q0 -12 -16 -29q-43 -37 -81 -99t-57 -132l-49 -180l-47 -154q-37 -115 -68.5 -201t-56.5 -133l-51 -98q-10 -18 -39 -66l-74 -118 q86 70 189 178q135 152 223 305l129 244q66 125 135.5 223t163.5 176q106 88 227 88q43 0 74 -10q18 -2 23 -25l-7 -22q-32 28 -86 28h-4q-55 0 -114.5 -22.5t-96.5 -52.5q-90 -76 -170 -185q-53 -74 -125 -204l-131 -246q-104 -197 -249 -342q-119 -121 -252 -195 q41 106 61.5 193.5t20.5 167.5q0 115 37.5 235.5t107.5 249.5q25 43 68 98l131 170q-51 -35 -132 -68.5t-133 -33.5q-84 0 -84 80l9 57l6 43q0 20 -29 23q-43 0 -106.5 -56.5t-108.5 -126.5q-6 -12 -16 -20l-8 -6z" />
<glyph unicode="W" horiz-adv-x="1357" d="M86 811q0 184 131 309t346 125q68 0 120 -13t96 -51t69.5 -89.5t25.5 -130.5q0 -94 -49 -261q-39 -127 -151 -297q-82 -129 -166 -227l182 191q74 86 146 194l239 361q133 193 260 346l13 8l10 -10l-2 -6q-23 -47 -44.5 -106.5t-51.5 -156.5l-111 -399l-33 -131 q-45 -193 -45 -262q0 -43 10 -62q68 178 113 271q20 43 47 94l55 104q98 172 215 308q88 102 224 219l20 10l10 2l9 -6l-19 -25q-131 -106 -235 -229q-115 -133 -203 -297q-94 -172 -168 -356l-98 -261q-59 47 -89 138.5t-30 195.5q0 109 20 178q23 102 71 217t159 324 q-76 -102 -150 -213l-176 -268q-98 -154 -213 -274.5t-334 -292.5l187 329q84 172 140 363.5t56 314.5q0 125 -53 178q-45 45 -123 45q-166 0 -284.5 -118.5t-118.5 -282.5q0 -92 41 -152q42 -55 120 -55q94 0 158 137q55 123 55 265v36l7 25l4 4q10 0 22 -31l17 -84l6 -67 q0 -133 -73 -222t-200 -89q-84 0 -134 64.5t-50 168.5z" />
<glyph unicode="X" horiz-adv-x="1280" d="M55 180q0 51 32 83t81 32q45 0 74 -29q31 -25 30 -78q0 -104 -131 -122q33 -25 70 -39.5t104 -14.5q164 0 321 184.5t238 462.5q57 205 58 328q0 123 -60 182q-43 43 -116 43q-233 0 -383 -161q-133 -143 -133 -318q0 -94 51 -158q53 -59 153 -59q106 0 180 140.5 t74 330.5l-2 55l2 25l4 4l5 -8l12 -23q29 -119 29 -200q0 -158 -81 -254.5t-218 -96.5q-111 0 -177 68q-59 70 -59 178q0 184 141 338q164 174 418 174q143 0 231.5 -91t88.5 -267q0 -23 -2.5 -51.5t-8.5 -63.5q37 123 91.5 213t142.5 166q31 31 84 50.5t94 19.5 q47 0 83 -30t36 -81q0 -41 -30 -67.5t-66 -26.5q-43 0 -69 24.5t-26 63.5t24.5 63.5t63.5 24.5l-14 4q-37 0 -77 -10t-89 -51q-84 -74 -149 -195q-27 -49 -152 -379l-72 -207q-18 -68 -28 -116.5t-10 -89.5q0 -61 24 -103q25 -35 84 -35q61 0 158 121l98 133l8 4l10 -10 l-4 -10l-96 -137q-96 -123 -176 -123q-70 0 -104 41q-33 45 -33 114q0 88 22 164l47 129q-80 -160 -241 -291q-200 -165 -402 -165h-2q-96 0 -170 47q-86 55 -86 151z" />
<glyph unicode="Y" horiz-adv-x="1110" d="M-27 -430q0 123 129 215q145 104 496 180l350 719l-92 -137q-35 -51 -68 -94q-92 -123 -165 -185q-90 -73 -172 -73q-80 0 -121 41q-39 45 -39 112q0 86 33.5 162t137 224.5t130.5 197.5q61 104 61 176q0 49 -41 81t-123 32q-211 0 -337 -125q-119 -115 -119 -277 q0 -145 143 -145q98 0 172 137q31 59 47.5 113.5t16.5 109.5l-2 29v14l2 8l14 -6l10 -28l10 -45l5 -62q0 -123 -64 -205q-74 -92 -213 -92q-78 0 -123 43t-45 129q0 168 125 293q135 135 358 135q158 0 234 -76q63 -63 63 -165q0 -82 -38 -160q-18 -39 -48 -87t-73 -110 l-101 -143q-110 -163 -110 -233q0 -48 55 -48q66 0 162 94q82 82 190 230l191 278q59 92 148 185.5t175 146.5l29 10l6 -4l-6 -8l-20 -20q-152 -121 -248 -381l-142 -447q-39 -106 -86 -207l-51 -106q74 12 154 92q72 72 135 176l14 10l11 -8l-9 -20q-76 -117 -120 -162 q-88 -90 -195 -115q-45 -82 -82 -141t-65.5 -99t-96.5 -110q-102 -104 -203.5 -150.5t-211.5 -46.5q-176 0 -177 148zM37 -428q0 -47 27.5 -82t91.5 -35q115 0 196.5 91.5t231.5 385.5q-256 -55 -383 -133q-164 -92 -164 -227z" />
<glyph unicode="Z" horiz-adv-x="1118" d="M10 49q0 57 60 105q35 29 98 49l127 35q45 51 113 159q78 133 118 254l-155 15q-35 0 -48.5 -7.5t-33.5 -33.5l-13 -9v15q25 51 48 69q39 33 112 33l64 -2q33 0 51 -4q53 137 98 217q12 23 26.5 44.5t33.5 41.5h-33q-70 0 -116 12.5t-83 53.5l-41 55q-35 43 -67.5 61.5 t-106.5 18.5q-86 0 -142.5 -53.5t-56.5 -133.5q0 -74 58 -133q55 -53 168 -75q29 -4 37 -11l12 -8l-21 -4l-26 2q-119 12 -189 76q-65 65 -65 155q0 95 65 154q76 66 207 66q129 0 197 -31q49 -25 82 -78l37 -59q20 -23 55 -33l51 -4l51 57l39 33q84 68 192.5 103.5 t196.5 35.5q104 0 105 -69q0 -74 -119 -136q-43 -20 -131 -41q-43 -6 -78 -10t-69 -4q-49 -70 -93 -160l-67 -165l63 -11q16 0 43 -10l43 -6q31 0 49 24l11 15l8 -4l-6 -17q-16 -29 -24.5 -40t-25 -26.5t-59.5 -15.5h-24q-10 0 -43 4l-62 9q-55 -131 -156 -232 q-31 -31 -165 -135q29 12 85 32.5t95 33.5q93 26 159 26h5q68 0 107.5 -26.5t39.5 -81.5q0 -37 -43 -92q-41 -45 -41 -97q0 -37 39 -37q68 0 162 107q41 47 96 137q6 10 19 14l6 -10q0 -16 -15 -33q-84 -129 -133 -174q-75 -71 -158 -71h-2q-155 0 -155 129q0 39 10 61 l25 41l30 41l9 37q0 27 -35 27q-55 0 -163 -36t-179 -77q-41 -57 -78 -96t-80 -70q-80 -55 -139 -55q-66 0 -66 59zM942 1061q63 0 132 12t118 39t72.5 54.5t23.5 54.5q0 41 -51 41q-63 0 -152.5 -58.5t-142.5 -142.5z" />
<glyph unicode="[" horiz-adv-x="464" d="M-158 -141l738 1497h215l-15 -35h-141l-705 -1432h166l-14 -30h-244z" />
<glyph unicode="\" horiz-adv-x="555" d="M90 1153h27l493 -1358h-26z" />
<glyph unicode="]" horiz-adv-x="591" d="M-231 -145l16 34h139l707 1432h-168l14 31h246l-739 -1497h-215z" />
<glyph unicode="^" horiz-adv-x="532" d="M147 682q6 23 11 31l90 164q74 129 84 131q6 -16 10 -29q16 -47 29 -92l43 -180l4 -23l-4 -8l-4 -4l-17 22l-76 207l-139 -201l-16 -18l-8 -6z" />
<glyph unicode="_" horiz-adv-x="550" d="M0 -23h565v-26h-565v26z" />
<glyph unicode="`" horiz-adv-x="352" d="M63 780q0 25 14.5 39.5t41.5 18.5q20 0 45 -27l98 -137l6 -15l-10 -10l-14 4l-152 82q-25 16 -29 45z" />
<glyph unicode="a" d="M-23 152q0 141 105 264q123 145 315 145q49 0 75 -19.5t32 -49.5l26 51l154 16l-227 -453l-19 -43l-8 -38q0 -16 25 -21q35 0 90 53.5t149 188.5l15 16l14 -8l-10 -23l-117 -157q-84 -92 -160 -92q-61 0 -85.5 27.5t-24.5 72.5q0 20 4 33l8 30q-78 -96 -125 -125.5 t-94 -29.5q-68 0 -107 45q-35 45 -35 117zM90 61q0 -51 45 -51q43 0 107.5 62.5t130.5 160.5l102 203l10 35q0 25 -18 48.5t-53 23.5q-41 0 -84 -37q-57 -54 -129 -187q-111 -201 -111 -258z" />
<glyph unicode="b" horiz-adv-x="645" d="M-10 244l4 14l180 248l166 223l190 377l152 14l-449 -882q-53 -106 -53 -166q0 -61 58 -62q57 0 121.5 43t107.5 107q-31 35 -49.5 90t-18.5 112q0 76 33 125.5t96 49.5q94 0 95 -91q0 -53 -36 -129.5t-91 -146.5q12 -12 28 -12q25 0 53.5 22.5t63.5 77.5l12 10l9 -8 l-9 -20q-12 -23 -22 -37q-18 -27 -43 -43q-12 -8 -25.5 -14.5t-34.5 -8.5q-23 0 -47 13q-33 -53 -104.5 -109.5t-140.5 -56.5q-74 0 -116 45t-42 116l6 64l31 78l153 301l-151 -197l-105 -147l-10 -11zM428 330q0 -39 13.5 -82t37.5 -68q23 33 37 56.5t35 62.5q29 57 29 90 q0 51 -60 51q-47 0 -71 -30q-21 -35 -21 -80z" />
<glyph unicode="c" horiz-adv-x="544" d="M-8 186q0 43 12 87t45 92q55 92 170 149q98 47 187 47q70 0 99.5 -22.5t29.5 -63.5q0 -29 -16.5 -47t-51.5 -18q-27 0 -41 15t-18 42q0 59 67 59q-12 12 -43 13q-43 0 -102 -58q-74 -70 -144 -211l-20 -45q-8 -18 -20.5 -58t-12.5 -77q0 -82 70 -82q82 0 155 47 q84 53 181 203l16 10l8 -8l-8 -20q-82 -123 -139 -172q-92 -80 -213 -80q-94 0 -154 53q-57 57 -57 145z" />
<glyph unicode="d" d="M-20 160q0 147 116 270q127 131 307 131q45 0 70 -18.5t31 -53.5l315 619l154 16l-516 -1018q-27 -49 -27 -75q0 -20 21 -23q53 0 145 107l104 141l9 10l12 -4l4 -6l-6 -16q-74 -109 -115 -152q-96 -106 -170 -106q-61 0 -85.5 24.5t-24.5 65.5v37q6 20 8 28 q-45 -61 -94 -100q-59 -47 -115 -47q-66 0 -104.5 48t-38.5 122zM88 57q0 -47 35 -47q55 0 133 78q49 53 109 139l61 113q25 47 53 111l6 20q0 27 -15 46.5t-48 21.5q-51 0 -94 -37q-53 -48 -127 -183q-113 -209 -113 -262z" />
<glyph unicode="e" horiz-adv-x="534" d="M-8 199q0 143 127 252.5t301 109.5q104 0 104 -67q0 -45 -52 -105.5t-122 -93.5q-43 -20 -86 -31l-80 -6l-28 -80l-11 -74q0 -41 19 -71q20 -27 61 -27q90 0 176 84q55 53 125 164l13 8l10 -10l-4 -14q-43 -61 -58 -80l-38 -49q-106 -125 -220 -125q-117 0 -182 65 q-55 55 -55 150zM197 283h24q12 0 45 6t76 26q63 29 110.5 85.5t47.5 93.5q0 43 -58 43q-49 0 -121.5 -75t-123.5 -179z" />
<glyph unicode="f" horiz-adv-x="503" d="M-324 -567l324 628q-18 12 -18 33q0 35 30 35q12 0 19 -6l194 379q-41 -25 -129 -144l-88 -120l-10 -7l-10 9q0 8 2 12q2 0 2 2l121 166q78 100 133 135l71 150q45 94 89 163q63 104 149 183q98 86 184 86t86 -74q0 -49 -25.5 -106.5t-78.5 -116.5q-68 -72 -165 -153 t-183 -126l-240 -526l37 -17q35 -12 76 -12q57 0 153 121l99 131l12 8q12 0 12 -12l-4 -12q-90 -131 -131 -176q-74 -84 -141 -84q-41 0 -65.5 5t-61.5 21l-295 -575h-148zM387 598q72 41 155.5 107.5t153.5 144.5q104 121 105 213q0 47 -45 47q-55 0 -138 -90 q-63 -70 -114 -162l-60 -123z" />
<glyph unicode="g" d="M-258 -449q0 137 145 240q123 90 328 141l88 174q-37 -45 -74 -73q-59 -43 -120 -43q-66 0 -103 45q-31 43 -31 117q0 139 117 268q63 70 141 106.5t170 36.5q49 0 75 -19.5t26 -49.5l26 49l156 16l-295 -579q86 23 154 79q47 41 160 203l10 8l10 -6l2 -6l-8 -20 l-121 -162q-92 -98 -219 -125l-74 -150l-88 -170q-49 -92 -146.5 -152.5t-195.5 -60.5q-66 0 -99.5 38t-33.5 95zM-201 -473q0 -82 76 -82q47 0 93 40t122 196l115 225q-186 -57 -296 -159.5t-110 -219.5zM90 47q0 -37 33 -37q45 0 111.5 55.5t117.5 141.5l82 149l51 103 q0 29 -12 51q-18 29 -61 29q-89 -1 -234 -263l-61 -131q-23 -61 -27 -98z" />
<glyph unicode="h" horiz-adv-x="817" d="M-33 0l297 586l-123 -164l-135 -186l-12 -11l-12 6l2 7l8 16l223 303l115 152l202 401l152 14l-442 -874q94 135 166 207q98 98 178 98q55 0 90 -35q35 -31 35 -90q0 -47 -17.5 -89t-68.5 -120l-50 -80q-40 -68 -40 -100q0 -29 32 -31q47 0 140 105q61 74 110 153l12 8 l9 -4l4 -6l-6 -16l-113 -154q-97 -116 -175 -116h-1q-66 0 -100.5 34.5t-34.5 91.5q0 84 102 220l74 110q25 39 26 66q0 27 -34 26q-90 0 -261 -219q-127 -164 -165 -248l-29 -61h-158z" />
<glyph unicode="i" horiz-adv-x="430" d="M-12 238l8 22l205 283l172 12l-234 -446q-10 -23 -14 -54q0 -47 45 -47q61 0 147 101q37 41 101 141l14 12l6 2l6 -6l-6 -20q-104 -158 -163.5 -204t-122.5 -46q-61 0 -93 37.5t-32 93.5q0 47 18 88l127 256l-162 -223l-10 -11zM313 764q0 35 22.5 59.5t61.5 24.5 q31 0 49.5 -19.5t18.5 -50.5t-20.5 -57.5t-61.5 -26.5q-31 0 -53 19q-12 16 -17 51z" />
<glyph unicode="j" horiz-adv-x="413" d="M-610 -463q0 111 141 203q102 63 205 117l172 80l272 536l-84 -117l-86 -116l-12 -11l-14 9l10 20l205 285l166 10l-289 -571q96 25 164.5 79t167.5 195l14 10l10 -8l-6 -18q-92 -147 -165 -201.5t-202 -87.5l-82 -166l-49 -94q-68 -115 -184 -191q-55 -37 -111.5 -57.5 t-107.5 -20.5q-61 0 -98 31t-37 84zM-557 -471q0 -43 20.5 -63.5t57.5 -20.5q68 0 135 66q68 61 119 155l49 96l63 138l-149 -76l-141 -80q-74 -47 -113 -102q-20 -29 -30.5 -55.5t-10.5 -57.5zM313 764q0 35 22.5 59.5t61.5 24.5q31 0 49.5 -19.5t18.5 -50.5t-20.5 -57.5 t-61.5 -26.5q-31 0 -53 19q-12 16 -17 51z" />
<glyph unicode="k" horiz-adv-x="708" d="M-33 0l297 584l-125 -166l-129 -178l-10 -11l-16 9l8 16l172 235l166 224l202 397l150 8l-569 -1118h-146zM330 391q0 29 49 29l41 -6l37 -17q43 0 63.5 18.5t40.5 49.5q27 47 48.5 68.5t54.5 25.5q49 0 49 -49q0 -47 -45 -47t-45 41l2 14q-12 -2 -27 -26l-16 -33 q-18 -37 -42 -54.5t-61 -25.5q23 -23 40.5 -52.5t17.5 -68.5l-7 -47q-4 -18 -20 -45q-25 -43 -25 -86q0 -31 23 -33q49 0 197 211l10 10l6 2l6 -8l-8 -24q-90 -131 -125 -170q-74 -80 -143 -80q-51 0 -77 25.5t-26 72.5q0 43 15.5 86t37.5 72l43 57q16 23 21 45l-6 27 l-45 -8l-25 -5q-27 0 -42 7.5t-17 23.5z" />
<glyph unicode="l" horiz-adv-x="432" d="M-18 233l10 21l158 219l176 229l206 408l150 10l-446 -882l-50 -111q-10 -27 -15 -45.5t-7 -40.5q0 -27 20 -29q53 0 140 101l94 133l18 16l6 -10l-6 -21q-92 -131 -123 -165q-76 -82 -157 -82q-43 0 -72 20q-25 23 -25 72q0 72 47 184q23 59 64 142t100 190l-264 -356 l-10 -11z" />
<glyph unicode="m" horiz-adv-x="1134" d="M-16 240l6 10l102 147q123 166 213 166q47 0 77 -29.5t30 -72.5l-6 -41q49 72 92 104q51 39 106 39q53 0 80 -32.5t27 -79.5l-4 -31q43 55 88 94q57 47 104 47q43 0 67.5 -31.5t24.5 -85.5q0 -94 -65 -186l-35 -52q-19 -30 -31 -54q-23 -49 -22 -86q0 -47 49 -48 q47 0 114 70q45 49 121 166l19 12l6 -8q-4 -20 -8 -25q-80 -123 -131 -174q-75 -71 -156 -71h-2q-57 0 -91 26.5t-34 85.5q0 63 33 129l51 93l65 106q31 51 35 82q0 25 -30 25q-41 0 -107 -66q-61 -66 -119 -164l-155 -305h-146l230 449l8 20q12 29 12 41q0 25 -29 27 q-41 0 -114 -82q-49 -53 -97 -129l-167 -326h-150l242 455l14 32l8 27q0 14 -22 16q-59 0 -174 -147l-107 -147l-10 -7z" />
<glyph unicode="n" horiz-adv-x="831" d="M-16 236q0 10 6 16l57 82q43 59 64 84q115 145 186 145q53 0 82 -34.5t29 -79.5l-5 -29q57 70 95 98q53 43 98 43q96 0 96 -115q0 -92 -69 -188q-45 -66 -69 -112t-28 -83q0 -45 56 -45q55 0 125 76q47 51 112 152q6 12 21 14l6 -6q-6 -18 -10 -27q-80 -117 -123 -161 q-74 -78 -158 -78q-61 0 -90 22q-37 29 -37 103q0 41 19.5 94t52.5 108l71 115q37 55 37 76q0 23 -24 26q-43 0 -116 -72.5t-108 -133.5l-167 -326h-152l244 455l18 37l6 26q0 14 -20 17q-49 0 -166 -144l-119 -158l-10 -8z" />
<glyph unicode="o" horiz-adv-x="552" d="M-12 197q0 123 102 233q117 129 275 129q76 0 108.5 -37.5t32.5 -103.5q0 -76 -35 -158q-31 -82 -70 -123q47 12 83 44t67 83l10 10l14 -8l-10 -22q-41 -63 -98 -103q-35 -25 -84 -32l-68 -70q-68 -55 -145 -55q-74 0 -128 62.5t-54 150.5zM123 92q0 -82 59 -82 q74 0 137 66q51 57 99 164l28 88q8 33 12.5 54t4.5 48q0 102 -76 102q-55 0 -123 -86q-18 -26 -36 -58l-48 -85l-43 -110q-6 -27 -10 -51.5t-4 -49.5z" />
<glyph unicode="p" horiz-adv-x="743" d="M-305 -567l633 1233l-197 -258l-125 -172l-12 -13h-10l-4 8l8 19l221 305l98 129q12 16 72 86l76 145l147 27l-227 -463q10 12 29.5 28.5t31.5 24.5q47 27 94 27q66 0 107 -42t41 -105q0 -68 -31 -124.5t-108 -105.5q-109 -66 -109 -129q0 -43 49 -43q57 0 129 74 q45 47 131 176l15 8l8 -10l-6 -18q-86 -125 -138 -177q-75 -75 -149 -75h-2q-139 0 -139 108q0 49 31.5 94.5t97 95.5t95.5 97t30 88q0 61 -54 61q-49 0 -114 -55q-68 -61 -131 -182l-449 -862h-139z" />
<glyph unicode="q" d="M-49 -590l358 699q-45 -55 -82 -82q-49 -37 -106 -37q-70 0 -108 48t-38 120q0 156 129 280.5t281 124.5q55 0 82 -20q27 -16 35 -54l28 54l154 16l-432 -852q12 18 46 61.5t91 110.5l189 219q106 125 122 158l13 10l10 -8l-4 -16q-25 -43 -154 -195l-223 -260 q-123 -147 -162 -231l-69 -146h-160zM94 61q0 -45 47 -45q41 0 121 80t109 135l110 218q0 37 -16 62.5t-57 25.5q-61 0 -134 -91q-45 -57 -92 -149l-57 -121q-31 -74 -31 -115z" />
<glyph unicode="r" horiz-adv-x="448" d="M-18 238l8 16l188 260q-25 12 -24 37q0 43 41 43q39 0 38 -37q0 -25 -20 -39q70 -39 102.5 -68.5t36.5 -52.5q0 -25 -26 -71l-62 -103l-65 -108q-25 -47 -29 -80q0 -25 27 -25q49 0 116 74q23 27 59 74t77 108l14 15l12 -9l-10 -22q-102 -158 -163.5 -210t-113.5 -52 q-55 0 -87.5 34.5t-32.5 86.5q0 29 12 74.5t57 115.5q23 41 49 74q10 13 36 39l44 45q-20 23 -67 43l-109 -150l-84 -117l-12 -8q-6 2 -8 6.5t-4 6.5z" />
<glyph unicode="s" horiz-adv-x="448" d="M-31 92q0 29 19.5 47.5t46.5 18.5q18 0 32.5 -12.5t18.5 -34.5q0 -55 -66 -64l-8 -6q0 -10 27 -23l45 -10q66 0 101.5 97.5t35.5 242.5q0 49 -5 82t-15 68l-109 -146l-86 -116l-10 -9l-12 6q0 10 6 17l123 172l80 108l-7 35q0 23 8.5 37t32.5 19q33 0 33 -33 q0 -16 -16 -35l-23 -27q53 -68 98.5 -155.5t45.5 -169.5q0 -27 -9 -66l43 58l47 71l15 8l8 -8l-8 -22q-74 -117 -122 -165t-95 -72.5t-94 -24.5q-78 0 -123 22q-57 29 -58 90z" />
<glyph unicode="t" horiz-adv-x="436" d="M-12 240l6 18l127 178l203 264l118 230l150 12l-115 -223h141l17 -6l2 -6l-23 -11h-147l-283 -553l-18 -45l-6 -41q0 -45 35 -45q55 0 157 133l80 113l8 10l11 -10l-7 -20q-78 -117 -125 -168q-80 -86 -147 -86q-68 0 -99.5 31.5t-31.5 88.5q0 45 27 99l196 383 l-256 -348l-12 -9z" />
<glyph unicode="u" horiz-adv-x="819" d="M-12 240l6 18l100 143l105 142l194 12l-160 -317l-51 -117q-12 -35 -16 -66q0 -39 39 -39q31 0 80 49.5t104 135.5l82 141l57 119l37 82l197 12l-197 -385q-37 -80 -37 -117q0 -41 37 -41q53 0 140 94q41 49 112 156q12 18 23 21l6 -11l-8 -20q-39 -59 -69 -100t-54 -70 q-88 -94 -168 -94q-127 0 -127 116q0 35 2 52.5t14 52.5q4 14 11.5 31.5t23.5 50.5l-63 -103q-63 -94 -111 -141q-59 -59 -115 -59q-121 0 -121 135q0 76 39 180q25 68 43 105q4 8 39 67l-90 -121l-84 -116l-12 -9z" />
<glyph unicode="v" horiz-adv-x="727" d="M-25 227l5 11l147 208q78 96 135 97q68 0 95.5 -33t27.5 -92q0 -31 -11.5 -73t-33.5 -89l-59 -109q-31 -55 -31 -90q0 -49 39 -49q66 0 145 62q27 20 53.5 50t55.5 73q-61 43 -62 145q0 90 41 155.5t111 65.5q80 0 80 -82q0 -49 -36 -120.5t-97 -153.5q16 -6 38 -6 q29 0 59 15t52 56q6 12 19 17l6 -11l-6 -18q-23 -43 -60 -62.5t-74 -19.5q-23 0 -49 8q-57 -82 -123 -133q-80 -61 -161 -61q-61 0 -103 28q-49 37 -49 111q0 51 13.5 97t45.5 98q8 14 28 46l38 60q31 49 31 61q0 27 -33 29q-39 0 -148 -145l-106 -150l-14 -8zM510 313 q0 -66 45 -102q39 47 76 116.5t37 108.5q0 37 -45 37q-49 0 -81 -50.5t-32 -109.5z" />
<glyph unicode="w" horiz-adv-x="1030" d="M-16 240l8 16l207 287l194 12l-190 -377l-23 -57l-10 -62q0 -43 31 -43q51 0 142 120t185 325l37 82l195 12l-195 -385l-22 -55l-8 -56q0 -23 10 -35t35 -12q59 0 137 68q23 20 43 43.5t59 73.5q-59 43 -59 141q0 90 41 155.5t108 65.5q78 0 78 -74q0 -59 -43 -145 q-33 -66 -92 -137q27 -12 63 -17q31 0 63 18.5t54 65.5l10 11l11 -11l-4 -14q-31 -47 -66 -72q-35 -20 -70 -20q-25 0 -39 4l-34 14q-47 -74 -121 -129q-83 -65 -150 -65h-2h-2q-139 0 -139 116q0 37 2 54.5t14 54.5l31 86q-37 -66 -65.5 -112t-57.5 -83q-91 -116 -169 -116 h-1q-123 0 -123 141q0 51 39 156q16 47 38 96t46 92l-84 -111l-88 -124l-12 -9zM786 313q0 -68 45 -98l78 123q35 63 35 96q0 39 -45 39q-47 0 -80 -48.5t-33 -111.5z" />
<glyph unicode="x" horiz-adv-x="757" d="M-16 236l10 22l143 195q84 98 158 98q61 0 94 -32t57 -109q39 61 82 102q43 37 86 37q49 0 78 -19.5t29 -56.5q0 -57 -49 -57q-55 0 -56 49q0 45 46 45q-12 16 -48 16q-39 0 -79 -41q-18 -18 -37 -43.5t-41 -66.5l12 -99l4 -104q0 -84 7 -119t42 -35q49 0 140 115l92 127 l12 10l14 -6l-4 -8l-8 -16l-70 -97q-35 -47 -47 -61q-80 -90 -141 -90q-88 0 -136 38t-69 134q-35 -72 -80 -119q-53 -55 -110 -55q-51 0 -83 16.5t-32 56.5q0 31 16 48q14 10 39 14q53 0 54 -47q0 -53 -46 -53q16 -12 46 -13q53 0 106 60q43 49 82 133l-6 45l-2 33l2 51 q0 27 8 51l12 57l6 45q0 37 -36 37q-59 0 -164 -135l-109 -151l-10 -11z" />
<glyph unicode="y" horiz-adv-x="874" d="M-141 -444q0 115 127 211q135 102 397 165l139 265q-80 -104 -131 -150q-74 -63 -135 -63q-59 0 -97 28.5t-38 91.5q0 55 20.5 117t53.5 117l59 98q12 20 19.5 36.5t9.5 27.5q0 18 -25 18q-45 0 -160 -153l-102 -142l-12 -8l-11 12l4 9l138 194q90 113 149 113 q57 0 93 -29t36 -94q0 -29 -11 -72t-50 -119l-64 -114q-18 -41 -22 -70q0 -25 30 -29q39 0 120 78t179 207l123 242l154 16l-297 -582q109 41 170 97q31 27 65.5 70.5t75.5 109.5l15 10l8 -8l-6 -20q-70 -111 -131 -168q-41 -37 -91.5 -66t-115.5 -51l-183 -344 q-49 -96 -149 -147.5t-203 -51.5q-59 0 -105 42t-46 106zM-80 -465q0 -102 90 -102q47 0 103 43q61 53 127 174l131 254q-217 -61 -334 -160.5t-117 -208.5z" />
<glyph unicode="z" horiz-adv-x="651" d="M-160 -440q0 127 135 237q111 86 351 191l4 22q0 61 -28 88t-99 27l-43 -2l-45 -6l-74 -99q-23 -27 -47 -28q-20 0 -23 20q0 29 30 58.5t87 58.5l139 156l115 137q-29 2 -52.5 4t-35.5 6q-41 6 -82 31l-74 -99l-82 -116l-14 -6l-10 10l6 16l147 205q-45 18 -45 57 q0 29 45 29q20 0 39 -18q12 -12 17 -37l-13 -25q59 -33 166 -33q68 84 131 117q45 23 78 23q39 0 41 -33q0 -45 -63 -84q-57 -31 -162 -47l-252 -281l61 11l72 6q86 0 134 -23.5t61 -95.5q51 25 112 104l84 123l13 10l12 -6l-6 -16q-76 -115 -119 -160q-51 -57 -90 -76 q0 -174 -119 -368q-143 -229 -326 -230q-74 0 -118 27q-57 35 -58 115zM-127 -444q0 -41 18 -70q29 -37 105 -37q86 0 197 203q90 168 129 309q-252 -104 -359 -211q-90 -90 -90 -194z" />
<glyph unicode="{" horiz-adv-x="473" d="M-20 27q0 63 36 135q16 33 84 127l78 125q37 74 37 137q0 33 -20.5 53.5t-106.5 54.5q74 12 128 47t87 95q16 35 80 225q47 139 115 211q59 59 115.5 80.5t121.5 21.5h56q51 0 51 -16q0 -14 -49 -14q-92 0 -132 -19.5t-102 -89.5q-57 -70 -98 -201q-53 -178 -72 -211 q-33 -74 -90 -100q-25 -10 -67 -18t-87 -8q61 -12 98.5 -48t37.5 -98q0 -76 -35 -151q-12 -29 -31.5 -62t-46.5 -70l-78 -116q-35 -63 -35 -115q0 -66 31 -89.5t121 -33.5q47 0 47 -16q0 -14 -59 -15q-100 0 -150 35q-66 43 -65 144z" />
<glyph unicode="|" horiz-adv-x="344" d="M-33 -205l494 1358h26l-493 -1358h-27z" />
<glyph unicode="}" horiz-adv-x="899" d="M-6 -125q0 16 51 16q135 0 189.5 54.5t121.5 255.5q20 74 45 131t62 110.5t93 74t130 20.5q-55 12 -90 41q-43 35 -43 88q0 78 37 163q12 27 29.5 59t48.5 81q43 70 63 112q29 61 29 109q0 68 -38 97.5t-104 29.5q-43 0 -43 16q0 14 50 15q84 0 139 -31q72 -43 72 -143 q0 -57 -31 -123l-74 -123q-70 -113 -92.5 -176.5t-22.5 -116.5q0 -27 35 -53q29 -20 99 -47q-57 -8 -99 -31q-70 -35 -123 -107q-25 -33 -51 -92l-43 -127q-55 -186 -112 -246q-72 -74 -230 -73h-51q-45 0 -47 16z" />
<glyph unicode="~" horiz-adv-x="546" d="M119 434l4 15q12 31 38.5 44t61.5 17l37 -2l41 -12l39 -19q25 -12 51 -16q33 0 51 31l11 10l10 -6l-4 -19q-12 -25 -45 -43q-29 -10 -64 -14l-47 2q-12 0 -39 14l-33 19q-12 6 -36 10q-35 0 -54 -27l-10 -10z" />
<glyph horiz-adv-x="1554" d="M360 1055l15 28q68 102 155.5 170t163.5 68q33 0 44.5 -9t19.5 -34t8 -68q0 -47 10 -69.5t45 -22.5q49 0 174 70q135 76 195 153l14 9l15 -15q-16 -111 -33 -164q-4 -16 -13.5 -41.5t-27.5 -64.5l-49 -121h198l-14 -33h-197l-151 -362q68 94 137 162q125 119 240 118 q106 0 165.5 -59t59.5 -164q0 -84 -63.5 -256t-157.5 -330q61 27 129 109q47 59 112 162l15 8l10 -10l-4 -17q-68 -109 -115 -163q-84 -102 -168 -127q-41 -74 -89 -138.5t-118 -132.5q-184 -184 -348 -184q-63 0 -63 43q0 76 144.5 209t291.5 186q35 66 74 154t90 215 q102 266 102 348q0 115 -88 115q-82 0 -196 -105q-121 -113 -232 -295l-170 -397h-180l397 913h-123l15 31h125l49 115q25 57 31 84l-7 14l-8 -4l-117 -59q-86 -37 -139 -37q-37 0 -61 16q-35 23 -35 68q0 27 8 61l10 45q0 18 -28 21q-43 0 -115 -62q-51 -45 -115 -131 l-20 -20l-8 -6zM700 -420q0 -27 37 -26q70 0 150 73q100 94 209 305q-127 -51 -261.5 -173t-134.5 -179z" />
<glyph unicode="&#x402;" horiz-adv-x="1554" d="M360 1055l15 28q68 102 155.5 170t163.5 68q33 0 44.5 -9t19.5 -34t8 -68q0 -47 10 -69.5t45 -22.5q49 0 174 70q135 76 195 153l14 9l15 -15q-16 -111 -33 -164q-4 -16 -13.5 -41.5t-27.5 -64.5l-49 -121h198l-14 -33h-197l-151 -362q68 94 137 162q125 119 240 118 q106 0 165.5 -59t59.5 -164q0 -84 -63.5 -256t-157.5 -330q61 27 129 109q47 59 112 162l15 8l10 -10l-4 -17q-68 -109 -115 -163q-84 -102 -168 -127q-41 -74 -89 -138.5t-118 -132.5q-184 -184 -348 -184q-63 0 -63 43q0 76 144.5 209t291.5 186q35 66 74 154t90 215 q102 266 102 348q0 115 -88 115q-82 0 -196 -105q-121 -113 -232 -295l-170 -397h-180l397 913h-123l15 31h125l49 115q25 57 31 84l-7 14l-8 -4l-117 -59q-86 -37 -139 -37q-37 0 -61 16q-35 23 -35 68q0 27 8 61l10 45q0 18 -28 21q-43 0 -115 -62q-51 -45 -115 -131 l-20 -20l-8 -6zM700 -420q0 -27 37 -26q70 0 150 73q100 94 209 305q-127 -51 -261.5 -173t-134.5 -179z" />
<glyph horiz-adv-x="1261" d="M39 180q0 96 98.5 157.5t243.5 61.5l27 -6l4 -4l-13 -4q-129 0 -228 -54.5t-99 -150.5q0 -68 59 -115t166 -47q145 0 266 99q135 113 273 440l110 270q57 131 115.5 198t111 104.5t109.5 52.5v-6q-76 -55 -137 -246l-115 -375q-88 -270 -227 -399q-180 -168 -492 -168 q-129 0 -202 55q-70 57 -70 137zM293 801q0 195 172 364q197 190 498 191q74 0 196 -13q20 0 72.5 -6t120.5 -16l241 -21l97 -2q51 0 94 6.5t88 22.5q80 27 158 80q-12 -31 -43 -68q-41 -51 -91 -88q-23 -18 -50 -31.5t-66 -27.5q-31 -8 -75 -14.5t-93 -6.5 q-80 0 -143.5 7.5t-174.5 38.5q-29 6 -51 12t-65 22q-168 45 -252 45q-270 0 -453 -172q-154 -147 -154 -323q0 -74 39 -120t115 -46q141 0 236 170q78 145 77 305l2 35l5 -4q39 -68 38 -172q0 -145 -77 -242q-92 -117 -279 -117q-88 0 -137 52q-45 55 -45 139zM1300 1395 l11 18l106 150q18 25 47 26q25 0 43.5 -18.5t18.5 -42.5q0 -31 -29 -43l-92 -49l-80 -41l-16 -9z" />
<glyph unicode="&#x403;" horiz-adv-x="1261" d="M39 180q0 96 98.5 157.5t243.5 61.5l27 -6l4 -4l-13 -4q-129 0 -228 -54.5t-99 -150.5q0 -68 59 -115t166 -47q145 0 266 99q135 113 273 440l110 270q57 131 115.5 198t111 104.5t109.5 52.5v-6q-76 -55 -137 -246l-115 -375q-88 -270 -227 -399q-180 -168 -492 -168 q-129 0 -202 55q-70 57 -70 137zM293 801q0 195 172 364q197 190 498 191q74 0 196 -13q20 0 72.5 -6t120.5 -16l241 -21l97 -2q51 0 94 6.5t88 22.5q80 27 158 80q-12 -31 -43 -68q-41 -51 -91 -88q-23 -18 -50 -31.5t-66 -27.5q-31 -8 -75 -14.5t-93 -6.5 q-80 0 -143.5 7.5t-174.5 38.5q-29 6 -51 12t-65 22q-168 45 -252 45q-270 0 -453 -172q-154 -147 -154 -323q0 -74 39 -120t115 -46q141 0 236 170q78 145 77 305l2 35l5 -4q39 -68 38 -172q0 -145 -77 -242q-92 -117 -279 -117q-88 0 -137 52q-45 55 -45 139zM1300 1395 l11 18l106 150q18 25 47 26q25 0 43.5 -18.5t18.5 -42.5q0 -31 -29 -43l-92 -49l-80 -41l-16 -9z" />
<glyph horiz-adv-x="1599" d="M10 170q0 94 103.5 155.5t218.5 61.5h20l23 -6l-17 -4q-113 0 -204 -53q-106 -63 -107 -154q0 -74 72 -121q78 -45 166 -45q123 0 231 148q65 92 131 264l84 219q51 131 119 266q43 90 104 166q27 35 95 102l-129 -59q-92 -37 -158 -37q-55 0 -82 24.5t-27 78.5v32 q0 29 -5 39t-25 13q-37 0 -103 -64q-51 -49 -100 -117l-21 -26l-6 -4q2 18 13 34q63 113 157 175.5t162 62.5q35 0 53.5 -19.5t18.5 -82.5q0 -61 11 -77t44 -20q84 0 186 64q84 49 150 139q12 18 31 18q4 -2 10 -10q0 -2 2 -4l-6 -16q-51 -74 -88 -148l-60 -157l-149 -430 q-55 -154 -99 -228q-92 -166 -236 -270.5t-310 -104.5q-117 0 -191 50q-82 57 -82 145zM1030 782q0 10 15.5 22.5t37.5 12.5q45 0 80 -14q39 -12 56 -41q55 31 192 256q119 195 160 235q113 113 284 113q23 0 31 -4l10 -6l-8 -4l-26 -6q-164 -14 -224 -123l-90 -199 q-55 -115 -135 -188.5t-178 -104.5q12 -20 21.5 -60t9.5 -85l8 -215q0 -84 2 -149.5t10 -130t43 -64.5q61 0 158 108q53 61 115 156q6 14 14 20l6 2l8 -10l-2 -10l-12 -23q-43 -66 -74 -106q-37 -49 -59 -72q-98 -104 -193 -104q-238 0 -237 205v39q0 20 4 44l20 97l39 143 q45 168 45 205q-59 0 -95 17.5t-36 43.5zM1055 784q0 -14 24 -30q25 -12 84 -13q0 18 -20.5 37t-61.5 19q-12 0 -22 -6zM1425 1395l9 18l108 150q18 25 45 26q25 0 43.5 -18.5t18.5 -42.5q0 -31 -29 -43l-92 -49l-78 -41l-18 -9z" />
<glyph unicode="&#x40c;" horiz-adv-x="1599" d="M10 170q0 94 103.5 155.5t218.5 61.5h20l23 -6l-17 -4q-113 0 -204 -53q-106 -63 -107 -154q0 -74 72 -121q78 -45 166 -45q123 0 231 148q65 92 131 264l84 219q51 131 119 266q43 90 104 166q27 35 95 102l-129 -59q-92 -37 -158 -37q-55 0 -82 24.5t-27 78.5v32 q0 29 -5 39t-25 13q-37 0 -103 -64q-51 -49 -100 -117l-21 -26l-6 -4q2 18 13 34q63 113 157 175.5t162 62.5q35 0 53.5 -19.5t18.5 -82.5q0 -61 11 -77t44 -20q84 0 186 64q84 49 150 139q12 18 31 18q4 -2 10 -10q0 -2 2 -4l-6 -16q-51 -74 -88 -148l-60 -157l-149 -430 q-55 -154 -99 -228q-92 -166 -236 -270.5t-310 -104.5q-117 0 -191 50q-82 57 -82 145zM1030 782q0 10 15.5 22.5t37.5 12.5q45 0 80 -14q39 -12 56 -41q55 31 192 256q119 195 160 235q113 113 284 113q23 0 31 -4l10 -6l-8 -4l-26 -6q-164 -14 -224 -123l-90 -199 q-55 -115 -135 -188.5t-178 -104.5q12 -20 21.5 -60t9.5 -85l8 -215q0 -84 2 -149.5t10 -130t43 -64.5q61 0 158 108q53 61 115 156q6 14 14 20l6 2l8 -10l-2 -10l-12 -23q-43 -66 -74 -106q-37 -49 -59 -72q-98 -104 -193 -104q-238 0 -237 205v39q0 20 4 44l20 97l39 143 q45 168 45 205q-59 0 -95 17.5t-36 43.5zM1055 784q0 -14 24 -30q25 -12 84 -13q0 18 -20.5 37t-61.5 19q-12 0 -22 -6zM1425 1395l9 18l108 150q18 25 45 26q25 0 43.5 -18.5t18.5 -42.5q0 -31 -29 -43l-92 -49l-78 -41l-18 -9z" />
<glyph horiz-adv-x="1662" d="M348 1053l12 30q74 115 170 181q86 57 150 57q43 0 58.5 -26.5t15.5 -82.5q0 -49 10 -71.5t45 -22.5q49 0 174 70q133 76 193 153l16 9q8 -6 9 -9.5t3 -5.5q0 -33 -18 -104q-6 -29 -20.5 -75t-32.5 -91l-50 -121h199l-16 -33h-195l-153 -362q74 104 137 162 q125 119 239 118q104 0 165 -62t61 -163q0 -53 -11 -90q-6 -43 -39 -111q-8 -27 -57 -129q-68 -147 -67 -204q0 -37 30 -41q72 0 164 94q55 59 117 153l12 13l14 -8l-10 -23q-96 -141 -127 -172q-98 -104 -200 -104q-72 0 -115 40.5t-43 120.5q0 59 35 136l73 155 q31 68 49.5 129.5t18.5 118.5q0 115 -90 115q-86 0 -197 -105q-121 -115 -229 -295l-172 -397h-178l397 913h-125l16 31h123l56 125l26 78l-6 10l-10 -4l-117 -59q-86 -37 -137 -37q-98 0 -98 84l4 33l8 28l8 45q0 18 -29 21q-41 0 -118 -68q-61 -55 -113 -125l-18 -20 l-13 -6z" />
<glyph unicode="&#x40b;" horiz-adv-x="1662" d="M348 1053l12 30q74 115 170 181q86 57 150 57q43 0 58.5 -26.5t15.5 -82.5q0 -49 10 -71.5t45 -22.5q49 0 174 70q133 76 193 153l16 9q8 -6 9 -9.5t3 -5.5q0 -33 -18 -104q-6 -29 -20.5 -75t-32.5 -91l-50 -121h199l-16 -33h-195l-153 -362q74 104 137 162 q125 119 239 118q104 0 165 -62t61 -163q0 -53 -11 -90q-6 -43 -39 -111q-8 -27 -57 -129q-68 -147 -67 -204q0 -37 30 -41q72 0 164 94q55 59 117 153l12 13l14 -8l-10 -23q-96 -141 -127 -172q-98 -104 -200 -104q-72 0 -115 40.5t-43 120.5q0 59 35 136l73 155 q31 68 49.5 129.5t18.5 118.5q0 115 -90 115q-86 0 -197 -105q-121 -115 -229 -295l-172 -397h-178l397 913h-125l16 31h123l56 125l26 78l-6 10l-10 -4l-117 -59q-86 -37 -137 -37q-98 0 -98 84l4 33l8 28l8 45q0 18 -29 21q-41 0 -118 -68q-61 -55 -113 -125l-18 -20 l-13 -6z" />
<glyph horiz-adv-x="1613" d="M209 827q0 197 158 379q176 203 419 203q176 0 273 -104q43 -49 65.5 -109.5t22.5 -140.5q0 -55 -10.5 -108.5t-53.5 -151t-106 -207.5l-164 -275q-61 -104 -61 -190q0 -104 92 -105q111 0 268 215q58 81 105 175l454 905l193 14l-543 -1071q-51 -102 -51 -166 q0 -72 65 -72q59 0 144 91q57 66 129 167l12 13l6 2l8 -10q0 -14 -8 -25q-78 -117 -127 -166q-98 -102 -182 -102q-100 0 -138 43t-38 112q0 37 4 54l12 55q-70 -119 -153.5 -190.5t-159.5 -71.5q-123 0 -187 69q-53 63 -53 170q0 35 6 72t23 86q27 84 98 219q35 66 87 152 l120 192q68 105 68 219q0 92 -54.5 153.5t-163.5 61.5q-229 0 -399 -194q-154 -176 -153 -365q0 -86 44 -139t134 -53q135 0 221 192q70 158 70 312l-3 41l5 16l4 6l8 -6l12 -27q25 -84 25 -176q0 -164 -76 -264q-90 -119 -266 -119q-102 0 -153.5 60.5t-51.5 158.5z M532 -463q0 72 74 133q43 33 142 80l53 172q4 12 12 19l10 6l8 -15q-4 -14 -6 -24l-22 -72l-25 -76l119 43l10 2l11 -12l-11 -10l-61 -27l-76 -30q-86 -254 -176 -254q-61 0 -62 65zM561 -459q0 -43 35 -43q39 0 68.5 43t74.5 172q-100 -47 -135 -80q-43 -43 -43 -92z" />
<glyph unicode="&#x40f;" horiz-adv-x="1613" d="M209 827q0 197 158 379q176 203 419 203q176 0 273 -104q43 -49 65.5 -109.5t22.5 -140.5q0 -55 -10.5 -108.5t-53.5 -151t-106 -207.5l-164 -275q-61 -104 -61 -190q0 -104 92 -105q111 0 268 215q58 81 105 175l454 905l193 14l-543 -1071q-51 -102 -51 -166 q0 -72 65 -72q59 0 144 91q57 66 129 167l12 13l6 2l8 -10q0 -14 -8 -25q-78 -117 -127 -166q-98 -102 -182 -102q-100 0 -138 43t-38 112q0 37 4 54l12 55q-70 -119 -153.5 -190.5t-159.5 -71.5q-123 0 -187 69q-53 63 -53 170q0 35 6 72t23 86q27 84 98 219q35 66 87 152 l120 192q68 105 68 219q0 92 -54.5 153.5t-163.5 61.5q-229 0 -399 -194q-154 -176 -153 -365q0 -86 44 -139t134 -53q135 0 221 192q70 158 70 312l-3 41l5 16l4 6l8 -6l12 -27q25 -84 25 -176q0 -164 -76 -264q-90 -119 -266 -119q-102 0 -153.5 60.5t-51.5 158.5z M532 -463q0 72 74 133q43 33 142 80l53 172q4 12 12 19l10 6l8 -15q-4 -14 -6 -24l-22 -72l-25 -76l119 43l10 2l11 -12l-11 -10l-61 -27l-76 -30q-86 -254 -176 -254q-61 0 -62 65zM561 -459q0 -43 35 -43q39 0 68.5 43t74.5 172q-100 -47 -135 -80q-43 -43 -43 -92z" />
<glyph horiz-adv-x="886" d="M-20 0l464 913h-163l14 31h168q84 174 84 244q0 74 -76 74q-80 0 -127 -54q-23 -25 -35 -53.5t-12 -64.5q-6 -14 -10 -21l-4 -4q-18 0 -19 27q0 72 53 133q63 70 154 69q51 0 86 -10t64 -37q43 -41 43 -117q0 -90 -48 -186h199l-18 -33h-201l-213 -415q55 78 106 104 q33 16 57.5 21.5t49.5 5.5q86 0 137 -57.5t51 -157.5q0 -111 -79 -277q-25 -53 -89 -160q61 25 144 125q63 78 125 185l12 8l10 -12l-4 -17q-80 -125 -127 -180q-98 -123 -182 -143q-74 -141 -205 -273q-182 -184 -348 -184q-61 0 -61 41q0 70 158.5 209t303.5 188 q33 61 68 135q29 61 65 154q74 184 74 270q0 109 -92 109q-57 0 -143 -101q-57 -70 -131 -196l-150 -293h-153zM6 -467q0 -25 35 -25q92 0 219 140q45 49 89 110.5t81 128.5q-68 -25 -136.5 -67.5t-141.5 -108.5q-146 -123 -146 -178z" />
<glyph unicode="&#x452;" horiz-adv-x="886" d="M-20 0l464 913h-163l14 31h168q84 174 84 244q0 74 -76 74q-80 0 -127 -54q-23 -25 -35 -53.5t-12 -64.5q-6 -14 -10 -21l-4 -4q-18 0 -19 27q0 72 53 133q63 70 154 69q51 0 86 -10t64 -37q43 -41 43 -117q0 -90 -48 -186h199l-18 -33h-201l-213 -415q55 78 106 104 q33 16 57.5 21.5t49.5 5.5q86 0 137 -57.5t51 -157.5q0 -111 -79 -277q-25 -53 -89 -160q61 25 144 125q63 78 125 185l12 8l10 -12l-4 -17q-80 -125 -127 -180q-98 -123 -182 -143q-74 -141 -205 -273q-182 -184 -348 -184q-61 0 -61 41q0 70 158.5 209t303.5 188 q33 61 68 135q29 61 65 154q74 184 74 270q0 109 -92 109q-57 0 -143 -101q-57 -70 -131 -196l-150 -293h-153zM6 -467q0 -25 35 -25q92 0 219 140q45 49 89 110.5t81 128.5q-68 -25 -136.5 -67.5t-141.5 -108.5q-146 -123 -146 -178z" />
<glyph horiz-adv-x="761" d="M-35 0l279 547l-99 -113q-78 -96 -139 -182l-6 -8q-8 0 -16 12l8 16q35 51 74.5 101.5t97.5 118.5l98 110l19 16l163 19l-323 -637h-156zM352 422q0 33 62 33q25 0 47 -11l39 -22q66 0 94 86q8 25 15 40t15.5 27.5t34 27.5t60.5 15q31 0 49 -18q12 -16 16 -43 q0 -27 -16 -44t-43 -17t-47 14q-12 12 -16 45l6 35q-31 -6 -58 -90q-16 -47 -36.5 -66.5t-53.5 -25.5q61 -31 62 -113q0 -33 -9 -57l-24 -60q-29 -51 -29 -92q0 -33 27 -35q47 0 119 96l92 129l10 11l6 2l10 -8l-2 -9l-10 -16q-90 -139 -158.5 -203.5t-128.5 -64.5 q-55 0 -82 26q-23 27 -22 76q0 49 18.5 104.5t53.5 94.5l36 45q12 18 17 37q0 18 -12 30l-45 -8l-21 -2q-72 0 -76 31zM545 702l8 21l109 149q18 25 45 27q25 0 43 -18.5t18 -42.5q0 -31 -29 -45l-172 -91l-16 -6z" />
<glyph unicode="&#x45c;" horiz-adv-x="761" d="M-35 0l279 547l-99 -113q-78 -96 -139 -182l-6 -8q-8 0 -16 12l8 16q35 51 74.5 101.5t97.5 118.5l98 110l19 16l163 19l-323 -637h-156zM352 422q0 33 62 33q25 0 47 -11l39 -22q66 0 94 86q8 25 15 40t15.5 27.5t34 27.5t60.5 15q31 0 49 -18q12 -16 16 -43 q0 -27 -16 -44t-43 -17t-47 14q-12 12 -16 45l6 35q-31 -6 -58 -90q-16 -47 -36.5 -66.5t-53.5 -25.5q61 -31 62 -113q0 -33 -9 -57l-24 -60q-29 -51 -29 -92q0 -33 27 -35q47 0 119 96l92 129l10 11l6 2l10 -8l-2 -9l-10 -16q-90 -139 -158.5 -203.5t-128.5 -64.5 q-55 0 -82 26q-23 27 -22 76q0 49 18.5 104.5t53.5 94.5l36 45q12 18 17 37q0 18 -12 30l-45 -8l-21 -2q-72 0 -76 31zM545 702l8 21l109 149q18 25 45 27q25 0 43 -18.5t18 -42.5q0 -31 -29 -45l-172 -91l-16 -6z" />
<glyph horiz-adv-x="972" d="M-20 -2l466 915h-165l14 31h168q84 174 84 244q0 74 -76 74q-80 0 -127 -54q-23 -25 -35 -53.5t-12 -64.5q-6 -14 -10 -21l-4 -4q-18 0 -19 27q0 72 53 133q63 70 154 69q51 0 86 -10t64 -37q43 -41 43 -117q0 -90 -48 -186h199l-16 -33h-205l-248 -493q59 82 109 123 q94 78 194 77q182 0 182 -167q0 -41 -12 -95q-4 -20 -14 -50t-27 -54l-86 -160q-18 -37 -18 -61q0 -25 22 -25q55 0 150 109q66 76 112 149l15 17l10 4l8 -11l-2 -8l-10 -16l-61 -86q-33 -45 -48 -62q-104 -123 -184 -122q-66 0 -96 30q-27 33 -27 78q0 47 31 119l49 108 l45 101q18 49 19 94q0 76 -74 76q-102 0 -225 -131q-80 -88 -170 -248l-103 -207z" />
<glyph unicode="&#x45b;" horiz-adv-x="972" d="M-20 -2l466 915h-165l14 31h168q84 174 84 244q0 74 -76 74q-80 0 -127 -54q-23 -25 -35 -53.5t-12 -64.5q-6 -14 -10 -21l-4 -4q-18 0 -19 27q0 72 53 133q63 70 154 69q51 0 86 -10t64 -37q43 -41 43 -117q0 -90 -48 -186h199l-16 -33h-205l-248 -493q59 82 109 123 q94 78 194 77q182 0 182 -167q0 -41 -12 -95q-4 -20 -14 -50t-27 -54l-86 -160q-18 -37 -18 -61q0 -25 22 -25q55 0 150 109q66 76 112 149l15 17l10 4l8 -11l-2 -8l-10 -16l-61 -86q-33 -45 -48 -62q-104 -123 -184 -122q-66 0 -96 30q-27 33 -27 78q0 47 31 119l49 108 l45 101q18 49 19 94q0 76 -74 76q-102 0 -225 -131q-80 -88 -170 -248l-103 -207z" />
<glyph unicode="&#xa1;" horiz-adv-x="1370" d="M182 879q0 164 133 303q154 160 394 159q166 0 247 -81q68 -68 68 -179q0 -20 -2 -42.5t-9 -53.5t-55 -111q-23 -41 -92 -143l-84 -125q-37 -55 -55 -98t-22 -78q0 -51 59 -51q80 0 215 142.5t276 367.5q61 102 162 200.5t197 157.5l26 10l7 -6l-5 -8q-6 -12 -16 -20 q-86 -70 -141 -172q-43 -82 -86 -211l-80 -262q-51 -158 -115 -246q-154 -217 -358 -309q-154 -68 -367 -68q-285 0 -284 149q0 90 96 143.5t215 53.5l63 -4l11 -2l-15 -2q-113 0 -192 -33q-104 -43 -105 -133q0 -76 50.5 -111.5t154.5 -35.5q121 0 219 43q141 63 262 233 q37 51 125 231l138 281l-246 -303q-129 -119 -228 -119q-86 0 -130 46t-44 122q0 31 9 64q6 41 20 73q29 78 119 211l71 105q43 66 68 122t25 105q0 53 -43 90q-43 33 -136 33q-217 0 -364 -154q-127 -137 -127 -286q0 -70 34 -111t99 -41q121 0 207 141q70 121 70 242 l-3 35v14l3 10q6 -2 11 -7t12 -25.5t13.5 -56.5t6.5 -62q0 -135 -74 -221q-84 -98 -246 -99q-74 0 -121 49q-41 51 -41 134zM1085 1485q0 23 18.5 41t45.5 18q20 0 39 -18q12 -16 16 -41q0 -35 -28 -51q63 -57 145 -58q80 0 158 51q-12 14 -17 41q0 29 18.5 49.5t45.5 22.5 q57 0 57 -57q0 -16 -15.5 -42t-57.5 -52.5t-90 -40t-99 -13.5q-100 0 -176 58q-60 43 -60 92z" />
<glyph unicode="&#x40e;" horiz-adv-x="1370" d="M182 879q0 164 133 303q154 160 394 159q166 0 247 -81q68 -68 68 -179q0 -20 -2 -42.5t-9 -53.5t-55 -111q-23 -41 -92 -143l-84 -125q-37 -55 -55 -98t-22 -78q0 -51 59 -51q80 0 215 142.5t276 367.5q61 102 162 200.5t197 157.5l26 10l7 -6l-5 -8q-6 -12 -16 -20 q-86 -70 -141 -172q-43 -82 -86 -211l-80 -262q-51 -158 -115 -246q-154 -217 -358 -309q-154 -68 -367 -68q-285 0 -284 149q0 90 96 143.5t215 53.5l63 -4l11 -2l-15 -2q-113 0 -192 -33q-104 -43 -105 -133q0 -76 50.5 -111.5t154.5 -35.5q121 0 219 43q141 63 262 233 q37 51 125 231l138 281l-246 -303q-129 -119 -228 -119q-86 0 -130 46t-44 122q0 31 9 64q6 41 20 73q29 78 119 211l71 105q43 66 68 122t25 105q0 53 -43 90q-43 33 -136 33q-217 0 -364 -154q-127 -137 -127 -286q0 -70 34 -111t99 -41q121 0 207 141q70 121 70 242 l-3 35v14l3 10q6 -2 11 -7t12 -25.5t13.5 -56.5t6.5 -62q0 -135 -74 -221q-84 -98 -246 -99q-74 0 -121 49q-41 51 -41 134zM1085 1485q0 23 18.5 41t45.5 18q20 0 39 -18q12 -16 16 -41q0 -35 -28 -51q63 -57 145 -58q80 0 158 51q-12 14 -17 41q0 29 18.5 49.5t45.5 22.5 q57 0 57 -57q0 -16 -15.5 -42t-57.5 -52.5t-90 -40t-99 -13.5q-100 0 -176 58q-60 43 -60 92z" />
<glyph unicode="&#xa2;" horiz-adv-x="940" d="M-150 -465q0 133 193 250q152 90 367 139l151 293q-74 -104 -131 -156q-84 -80 -156 -79q-66 0 -108 30q-37 31 -37 101q0 68 28.5 141.5t67.5 136.5l51 88q25 41 27 60q0 18 -27 18q-45 0 -174 -172l-106 -145l-14 -7l-11 11l4 10l207 274q23 23 50.5 37.5t66.5 18.5 q47 0 88 -30t41 -93q0 -78 -74 -219l-59 -103l-21 -47l-8 -45q0 -37 31 -37q57 0 207 170l114 144l134 260l163 18l-319 -627q115 45 203 134q59 57 133 163q10 10 16 13l10 -11l-10 -20q-70 -104 -135 -166q-90 -86 -229 -145l-172 -340q-53 -109 -161 -168.5t-226 -59.5 q-78 0 -126.5 43t-48.5 117zM-76 -485q0 -51 29 -80q25 -31 70 -31q63 0 115 46t120 173l143 273q-231 -61 -366 -181q-111 -98 -111 -200zM408 944q0 25 15 42.5t44 17.5q55 0 55 -62q0 -31 -26 -59q59 -53 145 -54q82 0 154 48q-10 16 -15 49q0 29 18.5 51t47.5 22 q23 0 39 -16q18 -12 18 -43q0 -20 -18.5 -45t-53.5 -43q-53 -29 -98 -43t-94 -14q-92 0 -174 57q-57 45 -57 92z" />
<glyph unicode="&#x45e;" horiz-adv-x="940" d="M-150 -465q0 133 193 250q152 90 367 139l151 293q-74 -104 -131 -156q-84 -80 -156 -79q-66 0 -108 30q-37 31 -37 101q0 68 28.5 141.5t67.5 136.5l51 88q25 41 27 60q0 18 -27 18q-45 0 -174 -172l-106 -145l-14 -7l-11 11l4 10l207 274q23 23 50.5 37.5t66.5 18.5 q47 0 88 -30t41 -93q0 -78 -74 -219l-59 -103l-21 -47l-8 -45q0 -37 31 -37q57 0 207 170l114 144l134 260l163 18l-319 -627q115 45 203 134q59 57 133 163q10 10 16 13l10 -11l-10 -20q-70 -104 -135 -166q-90 -86 -229 -145l-172 -340q-53 -109 -161 -168.5t-226 -59.5 q-78 0 -126.5 43t-48.5 117zM-76 -485q0 -51 29 -80q25 -31 70 -31q63 0 115 46t120 173l143 273q-231 -61 -366 -181q-111 -98 -111 -200zM408 944q0 25 15 42.5t44 17.5q55 0 55 -62q0 -31 -26 -59q59 -53 145 -54q82 0 154 48q-10 16 -15 49q0 29 18.5 51t47.5 22 q23 0 39 -16q18 -12 18 -43q0 -20 -18.5 -45t-53.5 -43q-53 -29 -98 -43t-94 -14q-92 0 -174 57q-57 45 -57 92z" />
<glyph unicode="&#xa3;" horiz-adv-x="823" d="M-293 -399q0 86 52.5 171t142.5 132q104 55 254 80q47 6 93 10t93 4l135 403q82 233 144 371q77 172 165 293q37 53 62.5 84t64.5 70q84 86 144 116q-403 -70 -606 -307q-147 -172 -148 -379q0 -80 53 -119q27 -18 95 -34q14 -2 16 -17l-12 -8h-11q-100 25 -139 53 q-90 61 -90 203q0 229 195 387q238 195 729 252l10 2l-8 -10q-104 -55 -180 -170q-61 -92 -117 -246q-33 -94 -117 -428q-37 -154 -74 -258l-61 -184l-31 -80l29 2q76 0 119 -35t43 -88q0 -43 -31 -89t-94 -83l-15 -4l-10 6q6 10 16 16q45 25 75 68t30 82q0 43 -33 74 q-33 27 -100 26l-37 -2q-43 -88 -82 -147q-61 -96 -143 -180q-123 -129 -254 -187q-98 -39 -174 -39q-74 0 -127 39q-66 49 -66 150zM-197 -397q0 -70 30 -118t83 -48q74 0 150 63q33 25 61.5 62t62 92t74.5 147l74 172q-88 0 -189.5 -12t-180.5 -56t-122 -130t-43 -172z " />
<glyph unicode="&#x408;" horiz-adv-x="823" d="M-293 -399q0 86 52.5 171t142.5 132q104 55 254 80q47 6 93 10t93 4l135 403q82 233 144 371q77 172 165 293q37 53 62.5 84t64.5 70q84 86 144 116q-403 -70 -606 -307q-147 -172 -148 -379q0 -80 53 -119q27 -18 95 -34q14 -2 16 -17l-12 -8h-11q-100 25 -139 53 q-90 61 -90 203q0 229 195 387q238 195 729 252l10 2l-8 -10q-104 -55 -180 -170q-61 -92 -117 -246q-33 -94 -117 -428q-37 -154 -74 -258l-61 -184l-31 -80l29 2q76 0 119 -35t43 -88q0 -43 -31 -89t-94 -83l-15 -4l-10 6q6 10 16 16q45 25 75 68t30 82q0 43 -33 74 q-33 27 -100 26l-37 -2q-43 -88 -82 -147q-61 -96 -143 -180q-123 -129 -254 -187q-98 -39 -174 -39q-74 0 -127 39q-66 49 -66 150zM-197 -397q0 -70 30 -118t83 -48q74 0 150 63q33 25 61.5 62t62 92t74.5 147l74 172q-88 0 -189.5 -12t-180.5 -56t-122 -130t-43 -172z " />
<glyph unicode="&#xa4;" horiz-adv-x="1228" d="M0 59l207 207q-47 55 -76 129q-25 72 -25 152q0 76 25 148.5t76 129.5l-207 207l59 60l207 -207q121 98 277 98q82 0 149 -27q72 -25 131 -75l207 206l60 -59l-207 -207q96 -119 96 -274q0 -152 -98 -275l213 -213l-60 -59l-213 213q-53 -43 -129 -76q-76 -27 -149 -26 q-152 0 -275 98l-209 -209zM188 547q0 -150 104.5 -252t250.5 -102q147 0 250.5 103t103.5 251q0 145 -103.5 249.5t-250.5 104.5t-251 -103.5t-104 -250.5z" />
<glyph unicode="&#xa5;" horiz-adv-x="1261" d="M39 178q0 92 100.5 156.5t216.5 64.5h25l16 -8l4 -4q-129 0 -229 -56.5t-100 -150.5q0 -78 73 -125q59 -37 152 -37q180 0 315 144q101 107 197 330l123 303q68 162 131 233q53 61 100 93t117 61q-76 -63 -145 -264l-134 -398q-55 -154 -122 -260q-80 -123 -187 -184 q-76 -43 -178 -68q-45 -8 -99.5 -14t-103.5 -6q-145 0 -217 61q-55 49 -55 129zM293 801q0 188 172 360q199 195 498 195q55 0 83.5 -2t153.5 -16.5t195 -14.5h94q45 -6 65 -8l191 -15q113 0 167 37t54 95q0 37 -19.5 69.5t-52.5 50.5q53 0 101 -49q43 -49 43 -117 q0 -86 -82 -143q-100 -70 -291 -69h-27q-96 0 -140 8t-89 17.5t-86 19.5l-197 51q-129 27 -200 26q-270 0 -453 -172q-154 -147 -154 -323q0 -74 39 -120t115 -46q141 0 238 184q76 158 75 309l2 19l7 -10q8 -18 12 -29.5t12 -40.5t10 -46t2 -52q0 -145 -77 -242 q-92 -117 -279 -117q-88 0 -137 52q-45 55 -45 139z" />
<glyph unicode="&#x490;" horiz-adv-x="1261" d="M39 178q0 92 100.5 156.5t216.5 64.5h25l16 -8l4 -4q-129 0 -229 -56.5t-100 -150.5q0 -78 73 -125q59 -37 152 -37q180 0 315 144q101 107 197 330l123 303q68 162 131 233q53 61 100 93t117 61q-76 -63 -145 -264l-134 -398q-55 -154 -122 -260q-80 -123 -187 -184 q-76 -43 -178 -68q-45 -8 -99.5 -14t-103.5 -6q-145 0 -217 61q-55 49 -55 129zM293 801q0 188 172 360q199 195 498 195q55 0 83.5 -2t153.5 -16.5t195 -14.5h94q45 -6 65 -8l191 -15q113 0 167 37t54 95q0 37 -19.5 69.5t-52.5 50.5q53 0 101 -49q43 -49 43 -117 q0 -86 -82 -143q-100 -70 -291 -69h-27q-96 0 -140 8t-89 17.5t-86 19.5l-197 51q-129 27 -200 26q-270 0 -453 -172q-154 -147 -154 -323q0 -74 39 -120t115 -46q141 0 238 184q76 158 75 309l2 19l7 -10q8 -18 12 -29.5t12 -40.5t10 -46t2 -52q0 -145 -77 -242 q-92 -117 -279 -117q-88 0 -137 52q-45 55 -45 139z" />
<glyph unicode="&#xa6;" horiz-adv-x="272" d="M111 0v670h71v-670h-71zM111 893v653h71v-653h-71z" />
<glyph unicode="&#xa7;" horiz-adv-x="999" d="M-96 -233q0 43 25.5 74.5t70.5 31.5q41 0 63.5 -28.5t22.5 -71.5q0 -31 -18.5 -60.5t-55.5 -40.5l35 -8l33 -4q213 0 213 301l-2 70q0 57 -10 98l-13 113l-4 161q0 154 109 281q94 109 245 162l-4 80q0 207 97 315q84 96 223 96q82 0 131 -41t49 -92q0 -41 -26.5 -70.5 t-71.5 -29.5q-41 0 -66.5 27.5t-25.5 66.5q0 33 16 58.5t55 41.5q-25 14 -63 15q-76 0 -117 -39q-57 -57 -57 -191v-46q0 -21 4 -44l4 -49l25 -201q8 -74 9 -98t1 -53q0 -209 -72 -326q-90 -152 -287 -151v-33q0 -225 -118 -344q-100 -100 -246 -100q-74 0 -124 35.5 t-50 93.5zM399 535q0 -59 13 -150q29 -207 28 -248q115 18 150 47q69 58 69 228q0 104 -9 193t-15 131t-14 87q-78 -25 -144 -92q-78 -88 -78 -196z" />
<glyph unicode="&#xa8;" horiz-adv-x="1114" d="M221 340q0 193 132 334t362 174l-21 37l-69 -2q-143 0 -234 41q-123 53 -123 163q0 145 130 236.5t315 91.5l20 -6l-14 -6q-182 -18 -274.5 -88t-92.5 -203q0 -117 113 -168q80 -37 199 -37h20l-10 41l-4 39q0 139 110.5 243.5t300.5 104.5q84 0 124 -31.5t40 -84.5 q0 -90 -78 -175q-86 -92 -225 -124l-123 -21l4 -45q102 0 161.5 -24.5t59.5 -69.5q0 -47 -73 -47q-53 0 -116.5 24.5t-111.5 77.5q-141 -49 -227 -180q-96 -150 -96 -367q0 -119 55 -193.5t160 -74.5q186 0 323 150q121 133 121 276q0 66 -39 104.5t-100 38.5 q-84 0 -133 -73q-37 -61 -37 -152l6 -65l15 -52l2 -10l-5 -6l-6 2q-31 20 -59 76q-25 55 -25 110q0 78 50 133q59 61 172 62q182 0 182 -168q0 -160 -123 -299q-135 -152 -338 -152q-211 0 -324 113q-96 100 -96 252zM817 920l107 18q131 31 217 121q78 82 78 158 q0 37 -31 65q-8 6 -27.5 16.5t-50.5 10.5q-111 0 -199 -101q-94 -113 -94 -288zM829 827q18 -49 58.5 -69.5t81.5 -20.5q49 0 49 25q0 18 -49 42.5t-105 24.5zM958 1503q0 29 18.5 51.5t53.5 22.5q57 0 57 -64q0 -25 -17 -46t-52 -25q-60 0 -60 61zM1167 1503 q0 29 18.5 51.5t53.5 22.5q57 0 57 -64q0 -35 -24 -57q-14 -10 -45 -14q-29 0 -45 14q-13 14 -15 47z" />
<glyph unicode="&#x401;" horiz-adv-x="1114" d="M221 340q0 193 132 334t362 174l-21 37l-69 -2q-143 0 -234 41q-123 53 -123 163q0 145 130 236.5t315 91.5l20 -6l-14 -6q-182 -18 -274.5 -88t-92.5 -203q0 -117 113 -168q80 -37 199 -37h20l-10 41l-4 39q0 139 110.5 243.5t300.5 104.5q84 0 124 -31.5t40 -84.5 q0 -90 -78 -175q-86 -92 -225 -124l-123 -21l4 -45q102 0 161.5 -24.5t59.5 -69.5q0 -47 -73 -47q-53 0 -116.5 24.5t-111.5 77.5q-141 -49 -227 -180q-96 -150 -96 -367q0 -119 55 -193.5t160 -74.5q186 0 323 150q121 133 121 276q0 66 -39 104.5t-100 38.5 q-84 0 -133 -73q-37 -61 -37 -152l6 -65l15 -52l2 -10l-5 -6l-6 2q-31 20 -59 76q-25 55 -25 110q0 78 50 133q59 61 172 62q182 0 182 -168q0 -160 -123 -299q-135 -152 -338 -152q-211 0 -324 113q-96 100 -96 252zM817 920l107 18q131 31 217 121q78 82 78 158 q0 37 -31 65q-8 6 -27.5 16.5t-50.5 10.5q-111 0 -199 -101q-94 -113 -94 -288zM829 827q18 -49 58.5 -69.5t81.5 -20.5q49 0 49 25q0 18 -49 42.5t-105 24.5zM958 1503q0 29 18.5 51.5t53.5 22.5q57 0 57 -64q0 -25 -17 -46t-52 -25q-60 0 -60 61zM1167 1503 q0 29 18.5 51.5t53.5 22.5q57 0 57 -64q0 -35 -24 -57q-14 -10 -45 -14q-29 0 -45 14q-13 14 -15 47z" />
<glyph unicode="&#xa9;" horiz-adv-x="874" d="M96 494q0 162 120 286.5t292 124.5q145 0 229 -79t84 -224q0 -160 -118.5 -278.5t-292.5 -118.5q-145 0 -229.5 81t-84.5 208zM131 500q0 -119 75 -190.5t210 -71.5q152 0 262 108.5t110 251.5q0 133 -75.5 206t-214.5 73q-147 0 -257 -119t-110 -258zM285 532 q0 76 53 129.5t145 53.5q55 0 86 -17q18 -8 41 -34l-8 -37q-14 27 -43 43t-86 16q-74 0 -117 -45q-20 -23 -30.5 -47.5t-10.5 -58.5q0 -125 125 -125q49 0 86 22l60 45l-11 -43q-43 -27 -70.5 -38t-66.5 -11q-154 0 -153 147z" />
<glyph unicode="&#xaa;" horiz-adv-x="1198" d="M213 403q0 285 305 609q319 342 647 342q86 0 141.5 -43t55.5 -107q0 -92 -118 -185t-210 -93q-29 0 -51 18q-12 16 -16 51q0 41 26.5 91.5t75.5 89.5l16 10l7 2l4 -4l-6 -8q-39 -31 -70 -84.5t-31 -94.5q0 -49 43 -49q80 0 166 86t86 183q0 47 -28.5 75.5t-86.5 28.5 q-154 0 -346 -201q-174 -184 -302 -446t-128 -441q0 -98 46 -156.5t145 -58.5q174 0 299 132q109 119 108 243q0 63 -29.5 97t-97.5 34q-82 0 -125 -51q-20 -25 -30.5 -53.5t-10.5 -65.5q0 -57 27 -108l2 -10l-4 -7q-78 47 -78 144q0 70 52.5 122t160.5 52q82 0 124 -38 t42 -122q0 -135 -113 -256q-131 -137 -327 -137q-188 0 -279.5 106.5t-91.5 302.5zM582 762l12 12l104 45q45 19 82 23q43 0 62 -35q8 -23 30 -39q16 -6 56 -10q31 0 64.5 9t51.5 21l9 3l8 -9l-4 -10q-23 -16 -86.5 -43t-104.5 -27t-55 24t-41 36t-59 12q-31 0 -64 -8 l-45 -10l-10 -2z" />
<glyph unicode="&#x404;" horiz-adv-x="1198" d="M213 403q0 285 305 609q319 342 647 342q86 0 141.5 -43t55.5 -107q0 -92 -118 -185t-210 -93q-29 0 -51 18q-12 16 -16 51q0 41 26.5 91.5t75.5 89.5l16 10l7 2l4 -4l-6 -8q-39 -31 -70 -84.5t-31 -94.5q0 -49 43 -49q80 0 166 86t86 183q0 47 -28.5 75.5t-86.5 28.5 q-154 0 -346 -201q-174 -184 -302 -446t-128 -441q0 -98 46 -156.5t145 -58.5q174 0 299 132q109 119 108 243q0 63 -29.5 97t-97.5 34q-82 0 -125 -51q-20 -25 -30.5 -53.5t-10.5 -65.5q0 -57 27 -108l2 -10l-4 -7q-78 47 -78 144q0 70 52.5 122t160.5 52q82 0 124 -38 t42 -122q0 -135 -113 -256q-131 -137 -327 -137q-188 0 -279.5 106.5t-91.5 302.5zM582 762l12 12l104 45q45 19 82 23q43 0 62 -35q8 -23 30 -39q16 -6 56 -10q31 0 64.5 9t51.5 21l9 3l8 -9l-4 -10q-23 -16 -86.5 -43t-104.5 -27t-55 24t-41 36t-59 12q-31 0 -64 -8 l-45 -10l-10 -2z" />
<glyph unicode="&#xab;" horiz-adv-x="778" d="M41 436q0 25 152 137l184 132l16 8l10 2l11 -8q0 -14 -27 -35q-68 -45 -148.5 -128t-80.5 -104q0 -23 67 -131q37 -57 80 -110q19 -23 23 -41l-11 -11l-6 3q-18 6 -30 18q-59 49 -148.5 145.5t-91.5 122.5zM317 436q0 18 95 94l239 175l19 8l8 2l12 -8q0 -10 -26 -35 q-66 -41 -148 -127t-82 -105q0 -20 47 -100t101 -141q18 -25 22 -41l-12 -11l-10 5l-27 16q-59 51 -148.5 148.5t-89.5 119.5z" />
<glyph unicode="&#xac;" horiz-adv-x="718" d="M115 514v92h475v-184h-92v92h-383z" />
<glyph unicode="&#xad;" horiz-adv-x="559" d="M88 381l12 10l80 27q29 6 52.5 10t43.5 4q59 0 107 -12l76 -14l59 -7q25 0 41 9l8 2l8 -7l-12 -16q-14 -12 -70.5 -26.5t-95.5 -14.5q-74 0 -110 10l-76 17l-68 6l-32 -4l-13 -2z" />
<glyph unicode="&#xae;" horiz-adv-x="917" d="M358 1274q0 121 87 211t217 90q111 0 182 -66q71 -61 71 -176q0 -117 -85 -208t-220 -91q-115 0 -186 62q-66 61 -66 178zM383 1274q0 -215 229 -215q123 0 200 83t77 191q0 98 -63.5 158.5t-166.5 60.5q-111 0 -194 -84q-43 -43 -62.5 -89t-19.5 -105zM506 1159l80 293 h108q63 0 64 -72q0 -35 -21.5 -60.5t-72.5 -25.5h-52l90 -135h-26l-90 135h-21l-37 -135h-22zM571 1315h101q25 0 44 15.5t19 49.5q0 49 -41 50h-92z" />
<glyph unicode="&#xaf;" horiz-adv-x="1040" d="M51 188q0 66 37 105t92 39q43 0 74 -32t31 -89q0 -49 -39 -89t-109 -40q35 -33 82 -57q20 -8 47 -14.5t53 -6.5q117 0 224.5 127t167.5 340q-88 27 -152 88q-82 82 -82 193q0 274 332 462q272 152 534 152q-43 -25 -86 -80q-70 -90 -145 -260q-92 -223 -166 -545 q98 0 154.5 73t56.5 169q0 35 -6 59l-2 19l4 10l4 4l6 -8l11 -25l6 -67q0 -90 -50 -164q-66 -92 -190 -92q-59 -252 -248 -381q-152 -102 -344 -103q-117 0 -201 52q-96 59 -96 161zM567 715q0 -86 49 -148q37 -49 103 -69q74 352 256 598q147 200 282 245 q-311 -61 -500.5 -235t-189.5 -391zM1016 1503q0 29 18.5 51.5t52.5 22.5q57 0 58 -64q0 -25 -17.5 -46t-52.5 -25q-59 0 -59 61zM1225 1503q0 29 18.5 51.5t52.5 22.5q57 0 58 -64q0 -25 -17.5 -46t-52.5 -25q-29 0 -45 14q-12 14 -14 47z" />
<glyph unicode="&#x407;" horiz-adv-x="1040" d="M51 188q0 66 37 105t92 39q43 0 74 -32t31 -89q0 -49 -39 -89t-109 -40q35 -33 82 -57q20 -8 47 -14.5t53 -6.5q117 0 224.5 127t167.5 340q-88 27 -152 88q-82 82 -82 193q0 274 332 462q272 152 534 152q-43 -25 -86 -80q-70 -90 -145 -260q-92 -223 -166 -545 q98 0 154.5 73t56.5 169q0 35 -6 59l-2 19l4 10l4 4l6 -8l11 -25l6 -67q0 -90 -50 -164q-66 -92 -190 -92q-59 -252 -248 -381q-152 -102 -344 -103q-117 0 -201 52q-96 59 -96 161zM567 715q0 -86 49 -148q37 -49 103 -69q74 352 256 598q147 200 282 245 q-311 -61 -500.5 -235t-189.5 -391zM1016 1503q0 29 18.5 51.5t52.5 22.5q57 0 58 -64q0 -25 -17.5 -46t-52.5 -25q-59 0 -59 61zM1225 1503q0 29 18.5 51.5t52.5 22.5q57 0 58 -64q0 -25 -17.5 -46t-52.5 -25q-29 0 -45 14q-12 14 -14 47z" />
<glyph unicode="&#xb0;" horiz-adv-x="405" d="M109 881q0 39 31.5 72.5t82.5 33.5q43 0 67.5 -23.5t24.5 -60.5q0 -41 -31.5 -74.5t-82.5 -33.5q-45 0 -68.5 25.5t-23.5 60.5zM139 883q0 -59 64 -60q37 0 59 23q18 23 23 55q0 57 -64 57q-37 0 -61 -24q-17 -20 -21 -51z" />
<glyph unicode="&#xb1;" horiz-adv-x="589" d="M33 406l14 14q59 35 164 35l59 -2q10 51 46 103t87 77l9 2l8 -6l-6 -6q-41 -23 -60 -76q-8 -27 -12 -49.5t-4 -55.5l156 -22q29 0 53 12l14 6l-6 -14q-25 -27 -78 -45q-57 -14 -98 -14l-53 4q-25 -82 -59 -127t-79 -74l-12 -4l4 12q31 31 51 103l25 102l-86 18l-39 9 q-12 2 -37 2l-41 -7l-14 -2zM51 43l12 10q53 23 91 33l63 10q39 0 55.5 -2t40.5 -14l56 -12l63 -7q33 0 53 11l9 2l8 -6l-8 -13q-25 -18 -74 -32.5t-80 -14.5l-55 2l-43 15q-55 20 -117 20l-53 -6l-9 -2z" />
<glyph unicode="&#xb2;" horiz-adv-x="1040" d="M51 188q0 66 37 105t92 39q43 0 74 -32t31 -89q0 -49 -39 -89t-109 -40q35 -33 82 -57q20 -8 47 -14.5t53 -6.5q117 0 224.5 127t167.5 340q-88 27 -152 88q-82 82 -82 193q0 279 322 462q266 152 544 152q-43 -25 -86 -80q-70 -90 -145 -260q-92 -223 -166 -545 q98 0 154.5 73t56.5 169q0 35 -6 59l-2 19l4 10l4 4l6 -8l11 -25l6 -67q0 -90 -50 -164q-66 -92 -190 -92q-59 -252 -248 -381q-152 -102 -344 -103q-117 0 -201 52q-96 59 -96 161zM567 715q0 -86 49 -148q37 -49 103 -69q74 352 256 598q147 200 282 245 q-311 -61 -500.5 -235t-189.5 -391z" />
<glyph unicode="&#x406;" horiz-adv-x="1040" d="M51 188q0 66 37 105t92 39q43 0 74 -32t31 -89q0 -49 -39 -89t-109 -40q35 -33 82 -57q20 -8 47 -14.5t53 -6.5q117 0 224.5 127t167.5 340q-88 27 -152 88q-82 82 -82 193q0 279 322 462q266 152 544 152q-43 -25 -86 -80q-70 -90 -145 -260q-92 -223 -166 -545 q98 0 154.5 73t56.5 169q0 35 -6 59l-2 19l4 10l4 4l6 -8l11 -25l6 -67q0 -90 -50 -164q-66 -92 -190 -92q-59 -252 -248 -381q-152 -102 -344 -103q-117 0 -201 52q-96 59 -96 161zM567 715q0 -86 49 -148q37 -49 103 -69q74 352 256 598q147 200 282 245 q-311 -61 -500.5 -235t-189.5 -391z" />
<glyph unicode="&#xb3;" horiz-adv-x="462" d="M-16 258l12 25l108 151l111 150l186 12l-251 -479q-12 -29 -13 -56q0 -23 10 -38q12 -12 35 -15q70 0 160 109q43 49 107 151l14 11l8 6l8 -11l-8 -18q-72 -102 -106 -145q-104 -123 -187 -123q-74 0 -111.5 42t-37.5 105q0 49 20 88l135 275l-174 -238l-10 -10zM334 815 q0 39 25.5 67.5t72.5 28.5q31 0 49.5 -19.5t18.5 -51.5q0 -35 -23.5 -63.5t-68.5 -28.5q-37 0 -55.5 19t-18.5 48z" />
<glyph unicode="&#x456;" horiz-adv-x="462" d="M-16 258l12 25l108 151l111 150l186 12l-251 -479q-12 -29 -13 -56q0 -23 10 -38q12 -12 35 -15q70 0 160 109q43 49 107 151l14 11l8 6l8 -11l-8 -18q-72 -102 -106 -145q-104 -123 -187 -123q-74 0 -111.5 42t-37.5 105q0 49 20 88l135 275l-174 -238l-10 -10zM334 815 q0 39 25.5 67.5t72.5 28.5q31 0 49.5 -19.5t18.5 -51.5q0 -35 -23.5 -63.5t-68.5 -28.5q-37 0 -55.5 19t-18.5 48z" />
<glyph unicode="&#xb4;" horiz-adv-x="532" d="M-125 -98l62 168l-5 20q0 37 35 37q27 0 27 -27q0 -14 -23 -30q35 -49 125 -50q113 0 178 142q14 31 33 97.5t45 176.5q37 156 70 201q47 66 158 65l86 -6q51 0 82 19q12 6 32 33q0 -47 -37.5 -73t-99.5 -26l-51 4l-35 6q-45 0 -70 -49q-20 -55 -20 -170 q0 -233 -82 -339.5t-281 -106.5q-111 0 -149 51l-55 -141q-6 -10 -10.5 -13.5t-6.5 -5.5q-10 0 -8 17z" />
<glyph unicode="&#x491;" horiz-adv-x="532" d="M-125 -98l62 168l-5 20q0 37 35 37q27 0 27 -27q0 -14 -23 -30q35 -49 125 -50q113 0 178 142q14 31 33 97.5t45 176.5q37 156 70 201q47 66 158 65l86 -6q51 0 82 19q12 6 32 33q0 -47 -37.5 -73t-99.5 -26l-51 4l-35 6q-45 0 -70 -49q-20 -55 -20 -170 q0 -233 -82 -339.5t-281 -106.5q-111 0 -149 51l-55 -141q-6 -10 -10.5 -13.5t-6.5 -5.5q-10 0 -8 17z" />
<glyph unicode="&#xb5;" horiz-adv-x="921" d="M2 -315l113 1165q10 14 22 16h88q12 0 23 -10l4 -6l-49 -500l-2 -43q0 -84 36.5 -129t100.5 -45q113 0 186 111q55 86 68 209l41 397q10 12 20 16h90q12 0 23 -10l4 -6l-86 -834q-10 -14 -22 -16h-80q-12 0 -23 10l-4 6l20 160l-4 4q-55 -88 -112 -129q-74 -51 -164 -51 q-37 0 -65.5 10t-53.5 49l-37 -374q-10 -12 -20 -17h-90q-12 0 -23 10z" />
<glyph unicode="&#xb6;" horiz-adv-x="788" d="M-4 -238l366 719q-63 -53 -88 -67q-55 -31 -124 -31q-61 0 -91 35q-27 41 -26 98q0 143 112 264q121 129 283 129l152 -10l88 -4l-574 -1133h-98zM176 -238l590 1133h82l-574 -1133h-98z" />
<glyph unicode="&#xb7;" horiz-adv-x="555" d="M233 428q0 37 24 63.5t62 26.5q33 0 52.5 -19.5t19.5 -52.5t-23.5 -61.5t-62.5 -28.5q-33 0 -52.5 19.5t-19.5 52.5z" />
<glyph unicode="&#x2219;" horiz-adv-x="555" d="M233 428q0 37 24 63.5t62 26.5q33 0 52.5 -19.5t19.5 -52.5t-23.5 -61.5t-62.5 -28.5q-33 0 -52.5 19.5t-19.5 52.5z" />
<glyph unicode="&#xb8;" horiz-adv-x="575" d="M-8 215q0 137 121 256q137 133 338 133q112 0 112 -74q0 -45 -56 -113.5t-132 -101.5q-20 -8 -33.5 -12t-52.5 -14l-90 -13l-33 -81q-10 -47 -10 -84q0 -47 19.5 -76t66.5 -29q94 0 190 92q51 51 133 174l15 11l10 -15l-8 -18q-84 -123 -138 -176q-92 -92 -198 -92 q-115 0 -184.5 61t-69.5 172zM211 303q37 0 69.5 7t48 12.5t40.5 17.5q68 33 118 92.5t50 99.5q0 45 -58 46q-23 0 -48 -11.5t-62 -47.5t-90 -105q-43 -62 -68 -111zM231 821q0 37 24 63.5t67 26.5q39 0 55 -22q18 -16 20 -51q0 -35 -25.5 -62.5t-66.5 -27.5q-35 0 -54.5 21 t-19.5 52zM496 821q0 37 23.5 63.5t66.5 26.5q39 0 55 -22q18 -16 21 -51q0 -35 -26 -62.5t-67 -27.5q-35 0 -54 21t-19 52z" />
<glyph unicode="&#x451;" horiz-adv-x="575" d="M-8 215q0 137 121 256q137 133 338 133q112 0 112 -74q0 -45 -56 -113.5t-132 -101.5q-20 -8 -33.5 -12t-52.5 -14l-90 -13l-33 -81q-10 -47 -10 -84q0 -47 19.5 -76t66.5 -29q94 0 190 92q51 51 133 174l15 11l10 -15l-8 -18q-84 -123 -138 -176q-92 -92 -198 -92 q-115 0 -184.5 61t-69.5 172zM211 303q37 0 69.5 7t48 12.5t40.5 17.5q68 33 118 92.5t50 99.5q0 45 -58 46q-23 0 -48 -11.5t-62 -47.5t-90 -105q-43 -62 -68 -111zM231 821q0 37 24 63.5t67 26.5q39 0 55 -22q18 -16 20 -51q0 -35 -25.5 -62.5t-66.5 -27.5q-35 0 -54.5 21 t-19.5 52zM496 821q0 37 23.5 63.5t66.5 26.5q39 0 55 -22q18 -16 21 -51q0 -35 -26 -62.5t-67 -27.5q-35 0 -54 21t-19 52z" />
<glyph unicode="&#xb9;" horiz-adv-x="1990" d="M-31 127q0 57 36 96t104 39q51 0 85.5 -34.5t34.5 -88.5q0 -86 -77 -110q121 0 247 108q115 95 234 275q94 141 172 315l125 309h170v-942q68 211 133 352q92 207 197 345q125 164 284 256q23 12 51 18l68 8q98 0 98 -65q0 -25 -22.5 -44.5t-65.5 -19.5q-39 0 -69.5 16.5 t-49.5 43.5q-147 -76 -276 -259q-49 -70 -101.5 -164t-102.5 -208.5t-144 -372.5h-191v870l-51 -123q-24 -55 -47 -102q-63 -137 -147 -262q-109 -166 -218 -262q-150 -133 -294 -133q-80 0 -131.5 36.5t-51.5 102.5zM1417 199l8 18q12 31 48 49.5t77 18.5l37 -2 q16 0 70 -19l110 -35q41 0 68 33l12 10l13 -6l-5 -12q-12 -29 -54 -49.5t-83 -20.5q-70 0 -104 15l-53 22q-33 10 -66 15q-24 0 -49 -25l-23 -16zM1520 510q0 117 98 229.5t227 112.5q78 0 121 -49q35 -46 35 -109q0 -119 -94 -227q-102 -121 -230 -121q-70 0 -113.5 44 t-43.5 120zM1606 442q0 -33 15 -52t58 -19q63 0 105 41q35 31 55 88l51 139q29 86 33 115q0 31 -20.5 52t-67.5 21q-59 0 -100 -43q-27 -27 -47 -86l-62 -178z" />
<glyph unicode="&#x2116;" horiz-adv-x="1990" d="M-31 127q0 57 36 96t104 39q51 0 85.5 -34.5t34.5 -88.5q0 -86 -77 -110q121 0 247 108q115 95 234 275q94 141 172 315l125 309h170v-942q68 211 133 352q92 207 197 345q125 164 284 256q23 12 51 18l68 8q98 0 98 -65q0 -25 -22.5 -44.5t-65.5 -19.5q-39 0 -69.5 16.5 t-49.5 43.5q-147 -76 -276 -259q-49 -70 -101.5 -164t-102.5 -208.5t-144 -372.5h-191v870l-51 -123q-24 -55 -47 -102q-63 -137 -147 -262q-109 -166 -218 -262q-150 -133 -294 -133q-80 0 -131.5 36.5t-51.5 102.5zM1417 199l8 18q12 31 48 49.5t77 18.5l37 -2 q16 0 70 -19l110 -35q41 0 68 33l12 10l13 -6l-5 -12q-12 -29 -54 -49.5t-83 -20.5q-70 0 -104 15l-53 22q-33 10 -66 15q-24 0 -49 -25l-23 -16zM1520 510q0 117 98 229.5t227 112.5q78 0 121 -49q35 -46 35 -109q0 -119 -94 -227q-102 -121 -230 -121q-70 0 -113.5 44 t-43.5 120zM1606 442q0 -33 15 -52t58 -19q63 0 105 41q35 31 55 88l51 139q29 86 33 115q0 31 -20.5 52t-67.5 21q-59 0 -100 -43q-27 -27 -47 -86l-62 -178z" />
<glyph unicode="&#xba;" horiz-adv-x="585" d="M-10 199q0 141 121 268q133 137 325 137q139 0 139 -96q0 -23 -18 -47q-20 -20 -55 -21q-20 0 -37 11q-27 16 -27 51q0 63 72 63q-10 10 -37 15q-100 0 -215 -174.5t-115 -309.5q0 -88 72 -88q100 0 205 80q86 68 149 176l17 10l8 -10l-6 -20q-66 -111 -164 -183.5 t-213 -72.5q-102 0 -161.5 53t-59.5 158zM215 297l8 16l33 23l37 18q26 13 55 17q35 0 60 -47q18 -47 57 -48q20 0 39 11l31 18l12 4l4 -4l-6 -10l-60 -41q-16 -8 -30.5 -12t-34.5 -4q-31 0 -58.5 44t-66.5 44l-33 -7l-35 -18z" />
<glyph unicode="&#x454;" horiz-adv-x="585" d="M-10 199q0 141 121 268q133 137 325 137q139 0 139 -96q0 -23 -18 -47q-20 -20 -55 -21q-20 0 -37 11q-27 16 -27 51q0 63 72 63q-10 10 -37 15q-100 0 -215 -174.5t-115 -309.5q0 -88 72 -88q100 0 205 80q86 68 149 176l17 10l8 -10l-6 -20q-66 -111 -164 -183.5 t-213 -72.5q-102 0 -161.5 53t-59.5 158zM215 297l8 16l33 23l37 18q26 13 55 17q35 0 60 -47q18 -47 57 -48q20 0 39 11l31 18l12 4l4 -4l-6 -10l-60 -41q-16 -8 -30.5 -12t-34.5 -4q-31 0 -58.5 44t-66.5 44l-33 -7l-35 -18z" />
<glyph unicode="&#xbb;" horiz-adv-x="866" d="M158 170q0 10 26 35q68 43 148 127t82 104q0 23 -47 99q-43 78 -101 143q-18 25 -22 41l12 10l10 -4l27 -16q63 -55 150 -149.5t87 -119.5q0 -20 -94 -96l-239 -172l-21 -10l-6 -2zM434 170q0 14 27 35q68 47 147.5 129t81.5 102q0 23 -67 131q-37 59 -80 111 q-19 23 -23 41l10 10l7 -2q18 -6 30 -18q74 -61 157 -152.5t83 -116.5q0 -27 -152 -139l-184 -129l-20 -10l-7 -2z" />
<glyph unicode="&#xbc;" horiz-adv-x="444" d="M-649 -500q0 57 37 114.5t108 104.5q86 57 246 138l160 75l293 576l-185 -250l-10 -12l-6 -2l-10 12l10 20l106 154l113 154l178 10l-313 -619l82 25q33 10 71 37q57 41 90 79t117 158q4 12 19 13l8 -11l-6 -18q-98 -156 -183 -219q-76 -55 -213 -92l-61 -127l-80 -152 q-70 -121 -196.5 -203.5t-233.5 -82.5q-63 0 -102 28.5t-39 89.5zM-590 -528q0 -68 70 -68q76 0 155 78q57 55 123 160l78 153l51 101l-137 -66q-90 -43 -184 -104q-68 -45 -112 -119t-44 -135zM334 815q0 39 25.5 67.5t72.5 28.5q31 0 49.5 -19.5t18.5 -51.5 q0 -35 -23.5 -63.5t-68.5 -28.5q-37 0 -55.5 19t-18.5 48z" />
<glyph unicode="&#x458;" horiz-adv-x="444" d="M-649 -500q0 57 37 114.5t108 104.5q86 57 246 138l160 75l293 576l-185 -250l-10 -12l-6 -2l-10 12l10 20l106 154l113 154l178 10l-313 -619l82 25q33 10 71 37q57 41 90 79t117 158q4 12 19 13l8 -11l-6 -18q-98 -156 -183 -219q-76 -55 -213 -92l-61 -127l-80 -152 q-70 -121 -196.5 -203.5t-233.5 -82.5q-63 0 -102 28.5t-39 89.5zM-590 -528q0 -68 70 -68q76 0 155 78q57 55 123 160l78 153l51 101l-137 -66q-90 -43 -184 -104q-68 -45 -112 -119t-44 -135zM334 815q0 39 25.5 67.5t72.5 28.5q31 0 49.5 -19.5t18.5 -51.5 q0 -35 -23.5 -63.5t-68.5 -28.5q-37 0 -55.5 19t-18.5 48z" />
<glyph unicode="&#xbd;" horiz-adv-x="1288" d="M39 180q0 66 37 104t90 38q41 0 74.5 -30t33.5 -81q0 -53 -36 -102q-39 -45 -103 -46l76 -43q23 -6 45.5 -10t54.5 -4q170 0 310 178q98 129 153 308l-53 -3q-190 0 -318 91q-154 109 -153 315q0 215 158 373q166 166 434 166l26 -2l11 -5l-11 -4l-26 -8 q-281 -25 -404 -217q-84 -131 -84 -326q0 -178 113 -272q102 -86 264 -86l53 2l70 236q61 182 135 313t182 221q141 117 297 117q68 0 120 -48t52 -134q0 -78 -45 -168q-25 -51 -63.5 -104.5t-93.5 -110.5q-123 -129 -262 -217q-84 -51 -170 -82q-49 -168 -107 -260 q-80 -141 -205 -216q-152 -88 -366 -88q-143 0 -224 72q-66 59 -65 133zM1014 567q90 39 164 84q123 76 229 193q63 70 105 177t42 198q0 74 -25.5 113.5t-84.5 39.5q-31 0 -59.5 -6t-63.5 -23q-59 -27 -115 -88q-66 -74 -110 -315q-55 -305 -82 -373z" />
<glyph unicode="&#x405;" horiz-adv-x="1288" d="M39 180q0 66 37 104t90 38q41 0 74.5 -30t33.5 -81q0 -53 -36 -102q-39 -45 -103 -46l76 -43q23 -6 45.5 -10t54.5 -4q170 0 310 178q98 129 153 308l-53 -3q-190 0 -318 91q-154 109 -153 315q0 215 158 373q166 166 434 166l26 -2l11 -5l-11 -4l-26 -8 q-281 -25 -404 -217q-84 -131 -84 -326q0 -178 113 -272q102 -86 264 -86l53 2l70 236q61 182 135 313t182 221q141 117 297 117q68 0 120 -48t52 -134q0 -78 -45 -168q-25 -51 -63.5 -104.5t-93.5 -110.5q-123 -129 -262 -217q-84 -51 -170 -82q-49 -168 -107 -260 q-80 -141 -205 -216q-152 -88 -366 -88q-143 0 -224 72q-66 59 -65 133zM1014 567q90 39 164 84q123 76 229 193q63 70 105 177t42 198q0 74 -25.5 113.5t-84.5 39.5q-31 0 -59.5 -6t-63.5 -23q-59 -27 -115 -88q-66 -74 -110 -315q-55 -305 -82 -373z" />
<glyph unicode="&#xbe;" horiz-adv-x="481" d="M-33 98q0 31 20.5 52.5t47.5 21.5q23 0 39 -16q18 -12 18 -35q0 -27 -18.5 -45.5t-55.5 -24.5l-8 -6q4 -6 9.5 -12t23.5 -15.5t41 -9.5q49 0 73.5 40t55.5 151q10 37 16.5 81t6.5 93q0 106 -21 162l-209 -281q-6 -10 -10 -12l-14 10l8 16l78 113l145 203q6 31 22.5 49 t38.5 22q37 0 37 -32q0 -33 -32 -41q-31 -2 -41 -17q53 -68 96 -143q57 -115 57 -205q0 -43 -8 -74l53 70q29 41 30 44t13 28l15 10l8 -10l-6 -25q-66 -109 -129 -174q-104 -109 -207 -109q-106 0 -156 37q-37 29 -37 84z" />
<glyph unicode="&#x455;" horiz-adv-x="481" d="M-33 98q0 31 20.5 52.5t47.5 21.5q23 0 39 -16q18 -12 18 -35q0 -27 -18.5 -45.5t-55.5 -24.5l-8 -6q4 -6 9.5 -12t23.5 -15.5t41 -9.5q49 0 73.5 40t55.5 151q10 37 16.5 81t6.5 93q0 106 -21 162l-209 -281q-6 -10 -10 -12l-14 10l8 16l78 113l145 203q6 31 22.5 49 t38.5 22q37 0 37 -32q0 -33 -32 -41q-31 -2 -41 -17q53 -68 96 -143q57 -115 57 -205q0 -43 -8 -74l53 70q29 41 30 44t13 28l15 10l8 -10l-6 -25q-66 -109 -129 -174q-104 -109 -207 -109q-106 0 -156 37q-37 29 -37 84z" />
<glyph unicode="&#xbf;" horiz-adv-x="462" d="M-16 258l12 25l108 151l111 150l186 12l-251 -479q-12 -29 -13 -56q0 -23 10 -38q12 -12 35 -15q70 0 160 109q43 49 107 151l14 11l8 6l8 -11l-8 -18q-72 -102 -106 -145q-104 -123 -187 -123q-74 0 -111.5 42t-37.5 105q0 49 20 88l135 275l-174 -238l-10 -10zM158 821 q0 35 25.5 62.5t66.5 27.5q33 0 53 -22q18 -16 21 -51q0 -33 -24 -61.5t-67 -28.5q-37 0 -56 21t-19 52zM422 821q0 35 25.5 62.5t66.5 27.5q33 0 53 -22q18 -16 21 -51q0 -33 -23.5 -61.5t-66.5 -28.5q-37 0 -56.5 21t-19.5 52z" />
<glyph unicode="&#x457;" horiz-adv-x="462" d="M-16 258l12 25l108 151l111 150l186 12l-251 -479q-12 -29 -13 -56q0 -23 10 -38q12 -12 35 -15q70 0 160 109q43 49 107 151l14 11l8 6l8 -11l-8 -18q-72 -102 -106 -145q-104 -123 -187 -123q-74 0 -111.5 42t-37.5 105q0 49 20 88l135 275l-174 -238l-10 -10zM158 821 q0 35 25.5 62.5t66.5 27.5q33 0 53 -22q18 -16 21 -51q0 -33 -24 -61.5t-67 -28.5q-37 0 -56 21t-19 52zM422 821q0 35 25.5 62.5t66.5 27.5q33 0 53 -22q18 -16 21 -51q0 -33 -23.5 -61.5t-66.5 -28.5q-37 0 -56.5 21t-19.5 52z" />
<glyph unicode="&#xc0;" horiz-adv-x="1521" d="M20 170q0 94 95.5 156.5t214.5 62.5l28 -2q12 0 17 -4l4 -4q-123 0 -226.5 -58.5t-103.5 -150.5q0 -88 62 -131q66 -39 182 -39q106 0 219 76q74 51 174 157q129 133 227 265l-69 2q-43 0 -43 14l10 4l27 6l102 4l446 551q301 332 343 332l8 -14q0 -18 -12.5 -58.5 t-41.5 -105.5l-124 -283l-129 -291l-58 -143l72 -6h74q18 0 20 -14q0 -18 -29 -21l-151 4l-68 -186q-37 -123 -37 -182q0 -55 31 -56q39 0 99.5 54.5t136.5 175.5q8 8 12 10l6 2l8 -10l-4 -17q-78 -129 -141 -192q-100 -100 -203 -101q-82 0 -116.5 34t-34.5 102 q0 104 73 276l45 92l-217 17q-100 -137 -266 -303q-92 -94 -168 -146q-111 -74 -221 -74q-141 0 -209 43q-63 45 -64 152zM971 526l213 -4l82 156q123 223 200 348q88 152 201 315l-149 -153l-119 -127l-217 -266z" />
<glyph unicode="&#x410;" horiz-adv-x="1521" d="M20 170q0 94 95.5 156.5t214.5 62.5l28 -2q12 0 17 -4l4 -4q-123 0 -226.5 -58.5t-103.5 -150.5q0 -88 62 -131q66 -39 182 -39q106 0 219 76q74 51 174 157q129 133 227 265l-69 2q-43 0 -43 14l10 4l27 6l102 4l446 551q301 332 343 332l8 -14q0 -18 -12.5 -58.5 t-41.5 -105.5l-124 -283l-129 -291l-58 -143l72 -6h74q18 0 20 -14q0 -18 -29 -21l-151 4l-68 -186q-37 -123 -37 -182q0 -55 31 -56q39 0 99.5 54.5t136.5 175.5q8 8 12 10l6 2l8 -10l-4 -17q-78 -129 -141 -192q-100 -100 -203 -101q-82 0 -116.5 34t-34.5 102 q0 104 73 276l45 92l-217 17q-100 -137 -266 -303q-92 -94 -168 -146q-111 -74 -221 -74q-141 0 -209 43q-63 45 -64 152zM971 526l213 -4l82 156q123 223 200 348q88 152 201 315l-149 -153l-119 -127l-217 -266z" />
<glyph unicode="&#xc1;" horiz-adv-x="1583" d="M39 164q0 113 115 178q51 29 105 43t122 14q16 -4 20 -8l-12 -6q-119 0 -209 -51q-109 -61 -108 -166q0 -61 56 -105.5t169 -44.5q184 0 317 158q96 115 187 352l106 283q59 147 117 213q23 25 53.5 53.5t57.5 48.5q39 29 102 54l10 2l-2 -6q-70 -49 -125 -232l-61 -254 q45 18 83 27.5t65.5 13.5t56.5 4q106 0 178 -59q92 -74 92 -209q0 -166 -109 -317q-127 -174 -315 -175q-88 0 -128 38t-40 102q0 113 66.5 208t160.5 113q-80 -25 -138 -122t-58 -197q0 -45 20 -78q23 -29 72 -29q139 0 240 236q80 188 79 321q0 131 -137 131 q-57 0 -106 -13t-92 -38q-35 -156 -72 -235q-68 -162 -174 -258q-195 -166 -492 -166q-135 0 -207 49q-66 49 -65 127zM256 801q0 193 168 360q199 195 502 195q18 0 53 -2t84 -8q49 0 69.5 -2.5t153.5 -20.5l178 -16l156 -9q96 0 154.5 21.5t113.5 87.5q-31 -98 -96 -158 q-82 -78 -205 -78q-53 0 -77.5 3.5t-73.5 13.5l-189 51l-186 53q-98 25 -178 25q-264 0 -445 -182q-156 -162 -155 -334q0 -72 36 -121q39 -45 113 -45q143 0 240 184q78 156 78 309l2 17l4 -4q39 -68 39 -172q0 -145 -78 -242q-92 -117 -279 -117q-88 0 -137 52 q-45 55 -45 139z" />
<glyph unicode="&#x411;" horiz-adv-x="1583" d="M39 164q0 113 115 178q51 29 105 43t122 14q16 -4 20 -8l-12 -6q-119 0 -209 -51q-109 -61 -108 -166q0 -61 56 -105.5t169 -44.5q184 0 317 158q96 115 187 352l106 283q59 147 117 213q23 25 53.5 53.5t57.5 48.5q39 29 102 54l10 2l-2 -6q-70 -49 -125 -232l-61 -254 q45 18 83 27.5t65.5 13.5t56.5 4q106 0 178 -59q92 -74 92 -209q0 -166 -109 -317q-127 -174 -315 -175q-88 0 -128 38t-40 102q0 113 66.5 208t160.5 113q-80 -25 -138 -122t-58 -197q0 -45 20 -78q23 -29 72 -29q139 0 240 236q80 188 79 321q0 131 -137 131 q-57 0 -106 -13t-92 -38q-35 -156 -72 -235q-68 -162 -174 -258q-195 -166 -492 -166q-135 0 -207 49q-66 49 -65 127zM256 801q0 193 168 360q199 195 502 195q18 0 53 -2t84 -8q49 0 69.5 -2.5t153.5 -20.5l178 -16l156 -9q96 0 154.5 21.5t113.5 87.5q-31 -98 -96 -158 q-82 -78 -205 -78q-53 0 -77.5 3.5t-73.5 13.5l-189 51l-186 53q-98 25 -178 25q-264 0 -445 -182q-156 -162 -155 -334q0 -72 36 -121q39 -45 113 -45q143 0 240 184q78 156 78 309l2 17l4 -4q39 -68 39 -172q0 -145 -78 -242q-92 -117 -279 -117q-88 0 -137 52 q-45 55 -45 139z" />
<glyph unicode="&#xc2;" horiz-adv-x="1562" d="M51 172q0 94 95.5 156.5t213.5 62.5l29 -2q12 0 17 -4l4 -4q-125 0 -225.5 -58.5t-100.5 -148.5q0 -74 66.5 -120t164.5 -46q117 0 220 94q86 80 186 260q72 125 182 381q82 195 168 314q113 162 256 239q-49 25 -111.5 37.5t-154.5 12.5q-350 0 -569 -197 q-182 -166 -183 -365q0 -90 45 -141t119 -51q182 0 281 190q74 145 73 326l4 20l9 -16l14 -82l6 -88q0 -162 -78 -258q-96 -121 -303 -121q-94 0 -151 58q-53 59 -54 161q0 209 193 383q113 102 258 153.5t328 51.5q57 0 104 -2t107.5 -10t124.5 -33q47 14 81 14l50 -4h-17 q-31 0 -47 -4q-18 0 -41 -14q102 -37 160 -123q59 -82 59 -190q0 -100 -55 -178t-174 -128q129 -53 129 -223q0 -174 -109 -325q-125 -174 -305 -175q-90 0 -137 37q-41 37 -41 105q0 88 49 180q63 117 178 139q-68 -18 -131 -114q-31 -45 -47 -92.5t-16 -94.5 q0 -117 94 -117q135 0 234 232q78 186 77 317q0 72 -32 105l-54 -19q-18 -6 -49 -6q-82 0 -82 43q0 45 94 45l48 -6l57 -14q55 37 86 110.5t31 180.5q0 104 -31 170.5t-82 97.5q-90 -94 -161.5 -228.5t-147.5 -386.5q-117 -410 -355 -571q-158 -109 -385 -108 q-117 0 -194 49q-72 49 -72 143zM1190 684q0 -18 49 -18q29 0 45 6l41 18l-27 15q-16 6 -43 6q-66 0 -65 -27z" />
<glyph unicode="&#x412;" horiz-adv-x="1562" d="M51 172q0 94 95.5 156.5t213.5 62.5l29 -2q12 0 17 -4l4 -4q-125 0 -225.5 -58.5t-100.5 -148.5q0 -74 66.5 -120t164.5 -46q117 0 220 94q86 80 186 260q72 125 182 381q82 195 168 314q113 162 256 239q-49 25 -111.5 37.5t-154.5 12.5q-350 0 -569 -197 q-182 -166 -183 -365q0 -90 45 -141t119 -51q182 0 281 190q74 145 73 326l4 20l9 -16l14 -82l6 -88q0 -162 -78 -258q-96 -121 -303 -121q-94 0 -151 58q-53 59 -54 161q0 209 193 383q113 102 258 153.5t328 51.5q57 0 104 -2t107.5 -10t124.5 -33q47 14 81 14l50 -4h-17 q-31 0 -47 -4q-18 0 -41 -14q102 -37 160 -123q59 -82 59 -190q0 -100 -55 -178t-174 -128q129 -53 129 -223q0 -174 -109 -325q-125 -174 -305 -175q-90 0 -137 37q-41 37 -41 105q0 88 49 180q63 117 178 139q-68 -18 -131 -114q-31 -45 -47 -92.5t-16 -94.5 q0 -117 94 -117q135 0 234 232q78 186 77 317q0 72 -32 105l-54 -19q-18 -6 -49 -6q-82 0 -82 43q0 45 94 45l48 -6l57 -14q55 37 86 110.5t31 180.5q0 104 -31 170.5t-82 97.5q-90 -94 -161.5 -228.5t-147.5 -386.5q-117 -410 -355 -571q-158 -109 -385 -108 q-117 0 -194 49q-72 49 -72 143zM1190 684q0 -18 49 -18q29 0 45 6l41 18l-27 15q-16 6 -43 6q-66 0 -65 -27z" />
<glyph unicode="&#xc3;" horiz-adv-x="1261" d="M39 180q0 96 98.5 157.5t243.5 61.5l27 -6l4 -4l-13 -4q-129 0 -228 -54.5t-99 -150.5q0 -68 59 -115t166 -47q145 0 266 99q135 113 273 440l110 270q57 131 115.5 198t111 104.5t109.5 52.5v-6q-76 -55 -137 -246l-115 -375q-88 -270 -227 -399q-180 -168 -492 -168 q-129 0 -202 55q-70 57 -70 137zM293 801q0 195 172 364q197 190 498 191q74 0 196 -13q20 0 72.5 -6t120.5 -16l241 -21l97 -2q51 0 94 6.5t88 22.5q80 27 158 80q-12 -31 -43 -68q-41 -51 -91 -88q-23 -18 -50 -31.5t-66 -27.5q-31 -8 -75 -14.5t-93 -6.5 q-80 0 -143.5 7.5t-174.5 38.5q-29 6 -51 12t-65 22q-168 45 -252 45q-270 0 -453 -172q-154 -147 -154 -323q0 -74 39 -120t115 -46q141 0 236 170q78 145 77 305l2 35l5 -4q39 -68 38 -172q0 -145 -77 -242q-92 -117 -279 -117q-88 0 -137 52q-45 55 -45 139z" />
<glyph unicode="&#x413;" horiz-adv-x="1261" d="M39 180q0 96 98.5 157.5t243.5 61.5l27 -6l4 -4l-13 -4q-129 0 -228 -54.5t-99 -150.5q0 -68 59 -115t166 -47q145 0 266 99q135 113 273 440l110 270q57 131 115.5 198t111 104.5t109.5 52.5v-6q-76 -55 -137 -246l-115 -375q-88 -270 -227 -399q-180 -168 -492 -168 q-129 0 -202 55q-70 57 -70 137zM293 801q0 195 172 364q197 190 498 191q74 0 196 -13q20 0 72.5 -6t120.5 -16l241 -21l97 -2q51 0 94 6.5t88 22.5q80 27 158 80q-12 -31 -43 -68q-41 -51 -91 -88q-23 -18 -50 -31.5t-66 -27.5q-31 -8 -75 -14.5t-93 -6.5 q-80 0 -143.5 7.5t-174.5 38.5q-29 6 -51 12t-65 22q-168 45 -252 45q-270 0 -453 -172q-154 -147 -154 -323q0 -74 39 -120t115 -46q141 0 236 170q78 145 77 305l2 35l5 -4q39 -68 38 -172q0 -145 -77 -242q-92 -117 -279 -117q-88 0 -137 52q-45 55 -45 139z" />
<glyph unicode="&#xc4;" horiz-adv-x="1513" d="M86 86q0 37 43 66q43 25 107 24q43 0 65.5 -2t65.5 -10t84 -20.5t98 -34.5q96 96 174 245q55 109 125 312q88 246 168 369.5t217 215.5q-139 135 -410 135q-231 0 -389 -184q-139 -168 -139 -360q0 -113 55.5 -181.5t157.5 -68.5q145 0 240 133q82 119 81 266 q0 135 -71 193l-8 12l6 4l8 -2q43 -27 66.5 -85t23.5 -130q0 -154 -88 -278q-100 -137 -258 -138q-143 0 -229 77t-86 222q0 203 161 365q184 184 467 184q164 0 275 -41q90 -33 174 -96l88 51q53 25 104 37l-78 -51l-79 -68q72 -84 110.5 -201.5t38.5 -254.5 q0 -326 -141 -547q-166 -256 -471 -256q-158 0 -269 51l-102 -37q-37 -10 -77 -16t-81 -6q-102 0 -155 22q-72 29 -72 84zM117 84q0 -33 53 -57q61 -20 113 -21q80 0 141 27l80 39q-82 39 -147 57t-126 18q-47 0 -80.5 -17t-33.5 -46zM643 72l113 -31q72 -16 123 -16 q248 0 403 237q139 217 139 506q0 270 -143 444q-61 -84 -111 -204l-112 -383q-63 -236 -150 -349q-74 -98 -262 -204z" />
<glyph unicode="&#x414;" horiz-adv-x="1513" d="M86 86q0 37 43 66q43 25 107 24q43 0 65.5 -2t65.5 -10t84 -20.5t98 -34.5q96 96 174 245q55 109 125 312q88 246 168 369.5t217 215.5q-139 135 -410 135q-231 0 -389 -184q-139 -168 -139 -360q0 -113 55.5 -181.5t157.5 -68.5q145 0 240 133q82 119 81 266 q0 135 -71 193l-8 12l6 4l8 -2q43 -27 66.5 -85t23.5 -130q0 -154 -88 -278q-100 -137 -258 -138q-143 0 -229 77t-86 222q0 203 161 365q184 184 467 184q164 0 275 -41q90 -33 174 -96l88 51q53 25 104 37l-78 -51l-79 -68q72 -84 110.5 -201.5t38.5 -254.5 q0 -326 -141 -547q-166 -256 -471 -256q-158 0 -269 51l-102 -37q-37 -10 -77 -16t-81 -6q-102 0 -155 22q-72 29 -72 84zM117 84q0 -33 53 -57q61 -20 113 -21q80 0 141 27l80 39q-82 39 -147 57t-126 18q-47 0 -80.5 -17t-33.5 -46zM643 72l113 -31q72 -16 123 -16 q248 0 403 237q139 217 139 506q0 270 -143 444q-61 -84 -111 -204l-112 -383q-63 -236 -150 -349q-74 -98 -262 -204z" />
<glyph unicode="&#xc5;" horiz-adv-x="1114" d="M221 340q0 193 132 334t362 174l-21 37l-69 -2q-143 0 -234 41q-123 53 -123 163q0 145 130 236.5t315 91.5l20 -6l-14 -6q-182 -18 -274.5 -88t-92.5 -203q0 -117 113 -168q80 -37 199 -37h20l-10 41l-4 39q0 139 110.5 243.5t300.5 104.5q84 0 124 -31.5t40 -84.5 q0 -90 -78 -175q-86 -92 -225 -124l-123 -21l4 -45q102 0 161.5 -24.5t59.5 -69.5q0 -47 -73 -47q-53 0 -116.5 24.5t-111.5 77.5q-141 -49 -227 -180q-96 -150 -96 -367q0 -119 55 -193.5t160 -74.5q186 0 323 150q121 133 121 276q0 66 -39 104.5t-100 38.5 q-84 0 -133 -73q-37 -61 -37 -152l6 -65l15 -52l2 -10l-5 -6l-6 2q-31 20 -59 76q-25 55 -25 110q0 78 50 133q59 61 172 62q182 0 182 -168q0 -160 -123 -299q-135 -152 -338 -152q-211 0 -324 113q-96 100 -96 252zM817 920l107 18q131 31 217 121q78 82 78 158 q0 37 -31 65q-8 6 -27.5 16.5t-50.5 10.5q-111 0 -199 -101q-94 -113 -94 -288zM829 827q18 -49 58.5 -69.5t81.5 -20.5q49 0 49 25q0 18 -49 42.5t-105 24.5z" />
<glyph unicode="&#x415;" horiz-adv-x="1114" d="M221 340q0 193 132 334t362 174l-21 37l-69 -2q-143 0 -234 41q-123 53 -123 163q0 145 130 236.5t315 91.5l20 -6l-14 -6q-182 -18 -274.5 -88t-92.5 -203q0 -117 113 -168q80 -37 199 -37h20l-10 41l-4 39q0 139 110.5 243.5t300.5 104.5q84 0 124 -31.5t40 -84.5 q0 -90 -78 -175q-86 -92 -225 -124l-123 -21l4 -45q102 0 161.5 -24.5t59.5 -69.5q0 -47 -73 -47q-53 0 -116.5 24.5t-111.5 77.5q-141 -49 -227 -180q-96 -150 -96 -367q0 -119 55 -193.5t160 -74.5q186 0 323 150q121 133 121 276q0 66 -39 104.5t-100 38.5 q-84 0 -133 -73q-37 -61 -37 -152l6 -65l15 -52l2 -10l-5 -6l-6 2q-31 20 -59 76q-25 55 -25 110q0 78 50 133q59 61 172 62q182 0 182 -168q0 -160 -123 -299q-135 -152 -338 -152q-211 0 -324 113q-96 100 -96 252zM817 920l107 18q131 31 217 121q78 82 78 158 q0 37 -31 65q-8 6 -27.5 16.5t-50.5 10.5q-111 0 -199 -101q-94 -113 -94 -288zM829 827q18 -49 58.5 -69.5t81.5 -20.5q49 0 49 25q0 18 -49 42.5t-105 24.5z" />
<glyph unicode="&#xc6;" horiz-adv-x="1900" d="M-31 117q0 33 11 55q6 25 20 27q8 -4 10 -17l-4 -22l-6 -43q0 -49 43 -84q45 -29 107 -29q137 0 234 85t179 247q47 98 152 371q49 147 73 241q33 137 33 211q0 154 -145 154q-84 0 -148.5 -68.5t-64.5 -179.5q0 -27 -17 -29q-10 10 -14 43q0 121 83 200t194 79 q100 0 157 -51q68 -61 68 -201q0 -135 -57 -326q-18 -66 -48 -145.5t-65 -155.5l323 488l211 284l58 103h131q-37 -76 -70 -152l-76 -184q-98 -240 -180 -488q59 111 172 265q98 133 197 239q147 164 260 236.5t209 72.5q66 0 106 -55q39 -59 39 -135q0 -72 -28 -127 q-12 -31 -27 -31l-4 9q0 14 10 30q23 51 23 113q0 66 -30 118t-79 52q-59 0 -95 -13.5t-79 -46.5l-86 -262q-27 -82 -57 -186l-45 -160q-25 -102 -38.5 -163.5t-25.5 -131.5q-6 -51 -10 -93t-4 -81q0 -74 18.5 -118t67.5 -44q63 0 147 111l99 158l12 10l6 2l10 -10l-6 -17 l-104 -170q-86 -115 -172 -114q-113 0 -174 80q-57 82 -58 217q0 156 70 358q33 96 72.5 188.5t80.5 172.5q20 43 49 91t72 111q-61 -43 -133 -114q-49 -49 -94 -99q-51 -57 -98 -116q-176 -223 -256 -379q-92 -180 -166 -498h-181l91 274l100 283q121 324 235 576 q-41 -41 -85 -96.5t-99 -135.5q-80 -113 -192 -287l-166 -256l-76 -112l-59 -80q-78 -92 -177.5 -141.5t-255.5 -49.5q-78 0 -128 40t-50 102z" />
<glyph unicode="&#x416;" horiz-adv-x="1900" d="M-31 117q0 33 11 55q6 25 20 27q8 -4 10 -17l-4 -22l-6 -43q0 -49 43 -84q45 -29 107 -29q137 0 234 85t179 247q47 98 152 371q49 147 73 241q33 137 33 211q0 154 -145 154q-84 0 -148.5 -68.5t-64.5 -179.5q0 -27 -17 -29q-10 10 -14 43q0 121 83 200t194 79 q100 0 157 -51q68 -61 68 -201q0 -135 -57 -326q-18 -66 -48 -145.5t-65 -155.5l323 488l211 284l58 103h131q-37 -76 -70 -152l-76 -184q-98 -240 -180 -488q59 111 172 265q98 133 197 239q147 164 260 236.5t209 72.5q66 0 106 -55q39 -59 39 -135q0 -72 -28 -127 q-12 -31 -27 -31l-4 9q0 14 10 30q23 51 23 113q0 66 -30 118t-79 52q-59 0 -95 -13.5t-79 -46.5l-86 -262q-27 -82 -57 -186l-45 -160q-25 -102 -38.5 -163.5t-25.5 -131.5q-6 -51 -10 -93t-4 -81q0 -74 18.5 -118t67.5 -44q63 0 147 111l99 158l12 10l6 2l10 -10l-6 -17 l-104 -170q-86 -115 -172 -114q-113 0 -174 80q-57 82 -58 217q0 156 70 358q33 96 72.5 188.5t80.5 172.5q20 43 49 91t72 111q-61 -43 -133 -114q-49 -49 -94 -99q-51 -57 -98 -116q-176 -223 -256 -379q-92 -180 -166 -498h-181l91 274l100 283q121 324 235 576 q-41 -41 -85 -96.5t-99 -135.5q-80 -113 -192 -287l-166 -256l-76 -112l-59 -80q-78 -92 -177.5 -141.5t-255.5 -49.5q-78 0 -128 40t-50 102z" />
<glyph unicode="&#xc7;" horiz-adv-x="1212" d="M213 246q0 121 68.5 216t177.5 95q82 0 132 -41t50 -108q0 -59 -43 -111.5t-123 -73.5l-6 4l6 11q45 29 78 79q27 49 27 99q0 53 -29 84q-25 31 -90 30q-86 0 -151.5 -88t-65.5 -190t64.5 -172t205.5 -70q201 0 330 252q94 195 94 344q0 72 -33 105l-69 -23 q-27 -6 -39.5 -8t-36.5 -2q-61 0 -62 33q0 25 30 37t79 12l82 -6q104 70 155 207q41 106 41 217q0 74 -28 114q-35 49 -115 49q-111 0 -210 -67.5t-148 -171.5q-10 -31 -29 -31l-10 16q0 20 8 37q43 102 143 172q111 80 246 80q145 0 229 -71.5t84 -200.5q0 -131 -69 -227 q-78 -115 -234 -140q72 -14 120 -97t48 -179q0 -176 -123 -311q-162 -174 -481 -175q-156 0 -233 84q-70 74 -70 187z" />
<glyph unicode="&#x417;" horiz-adv-x="1212" d="M213 246q0 121 68.5 216t177.5 95q82 0 132 -41t50 -108q0 -59 -43 -111.5t-123 -73.5l-6 4l6 11q45 29 78 79q27 49 27 99q0 53 -29 84q-25 31 -90 30q-86 0 -151.5 -88t-65.5 -190t64.5 -172t205.5 -70q201 0 330 252q94 195 94 344q0 72 -33 105l-69 -23 q-27 -6 -39.5 -8t-36.5 -2q-61 0 -62 33q0 25 30 37t79 12l82 -6q104 70 155 207q41 106 41 217q0 74 -28 114q-35 49 -115 49q-111 0 -210 -67.5t-148 -171.5q-10 -31 -29 -31l-10 16q0 20 8 37q43 102 143 172q111 80 246 80q145 0 229 -71.5t84 -200.5q0 -131 -69 -227 q-78 -115 -234 -140q72 -14 120 -97t48 -179q0 -176 -123 -311q-162 -174 -481 -175q-156 0 -233 84q-70 74 -70 187z" />
<glyph unicode="&#xc8;" horiz-adv-x="1613" d="M209 827q0 197 158 379q176 203 419 203q176 0 273 -104q43 -49 65.5 -109.5t22.5 -140.5q0 -55 -10.5 -108.5t-53.5 -151t-106 -207.5l-164 -275q-61 -104 -61 -190q0 -104 92 -105q111 0 268 215q58 81 105 175l454 905l193 14l-543 -1071q-51 -102 -51 -166 q0 -72 65 -72q59 0 144 91q57 66 129 167l12 13l6 2l8 -10q0 -14 -8 -25q-78 -117 -127 -166q-98 -102 -182 -102q-100 0 -138 43t-38 112q0 37 4 54l12 55q-70 -119 -153.5 -190.5t-159.5 -71.5q-123 0 -187 69q-53 63 -53 170q0 35 6 72t23 86q27 84 98 219q35 66 87 152 l120 192q68 105 68 219q0 92 -54.5 153.5t-163.5 61.5q-229 0 -399 -194q-154 -176 -153 -365q0 -86 44 -139t134 -53q135 0 221 192q70 158 70 312l-3 41l5 16l4 6l8 -6l12 -27q25 -84 25 -176q0 -164 -76 -264q-90 -119 -266 -119q-102 0 -153.5 60.5t-51.5 158.5z" />
<glyph unicode="&#x418;" horiz-adv-x="1613" d="M209 827q0 197 158 379q176 203 419 203q176 0 273 -104q43 -49 65.5 -109.5t22.5 -140.5q0 -55 -10.5 -108.5t-53.5 -151t-106 -207.5l-164 -275q-61 -104 -61 -190q0 -104 92 -105q111 0 268 215q58 81 105 175l454 905l193 14l-543 -1071q-51 -102 -51 -166 q0 -72 65 -72q59 0 144 91q57 66 129 167l12 13l6 2l8 -10q0 -14 -8 -25q-78 -117 -127 -166q-98 -102 -182 -102q-100 0 -138 43t-38 112q0 37 4 54l12 55q-70 -119 -153.5 -190.5t-159.5 -71.5q-123 0 -187 69q-53 63 -53 170q0 35 6 72t23 86q27 84 98 219q35 66 87 152 l120 192q68 105 68 219q0 92 -54.5 153.5t-163.5 61.5q-229 0 -399 -194q-154 -176 -153 -365q0 -86 44 -139t134 -53q135 0 221 192q70 158 70 312l-3 41l5 16l4 6l8 -6l12 -27q25 -84 25 -176q0 -164 -76 -264q-90 -119 -266 -119q-102 0 -153.5 60.5t-51.5 158.5z" />
<glyph unicode="&#xc9;" horiz-adv-x="1613" d="M209 827q0 197 158 379q176 203 419 203q176 0 273 -104q43 -49 65.5 -109.5t22.5 -140.5v-58l-8 -39q-25 -150 -199 -436l-127 -209q-61 -104 -61 -192q0 -51 21.5 -80t68.5 -29q92 0 221 156q93 111 154 240l454 905l193 14l-543 -1071q-51 -102 -51 -168q0 -76 63 -76 q68 0 180 138q51 59 95 126l12 13l6 2l8 -10l-8 -25q-78 -117 -127 -166q-98 -102 -182 -102q-100 0 -138 49t-38 115q0 45 10 81l6 19q-70 -119 -153.5 -190.5t-159.5 -71.5q-123 0 -187 69q-53 63 -53 170q0 35 6 72t23 86q27 84 98 219q35 66 87 152l120 192 q68 105 68 219q0 92 -54.5 153.5t-163.5 61.5h-8q-225 0 -393 -194q-152 -176 -151 -365q0 -86 44 -139t134 -53q135 0 221 192q70 158 70 312l-3 32v9l5 16l4 6q12 0 20 -33q25 -84 25 -176q0 -164 -76 -264q-90 -119 -266 -119q-102 0 -153.5 60.5t-51.5 158.5zM1208 1485 q0 23 18.5 41t47.5 18q20 0 37 -18q14 -12 16 -41q0 -35 -29 -51q63 -57 146 -58q80 0 158 51q-12 14 -17 41q0 29 18.5 49.5t45.5 22.5q57 0 57 -57q0 -16 -12 -39q-20 -33 -60 -55q-88 -53 -190 -54q-100 0 -176 58q-60 43 -60 92z" />
<glyph unicode="&#x419;" horiz-adv-x="1613" d="M209 827q0 197 158 379q176 203 419 203q176 0 273 -104q43 -49 65.5 -109.5t22.5 -140.5v-58l-8 -39q-25 -150 -199 -436l-127 -209q-61 -104 -61 -192q0 -51 21.5 -80t68.5 -29q92 0 221 156q93 111 154 240l454 905l193 14l-543 -1071q-51 -102 -51 -168q0 -76 63 -76 q68 0 180 138q51 59 95 126l12 13l6 2l8 -10l-8 -25q-78 -117 -127 -166q-98 -102 -182 -102q-100 0 -138 49t-38 115q0 45 10 81l6 19q-70 -119 -153.5 -190.5t-159.5 -71.5q-123 0 -187 69q-53 63 -53 170q0 35 6 72t23 86q27 84 98 219q35 66 87 152l120 192 q68 105 68 219q0 92 -54.5 153.5t-163.5 61.5h-8q-225 0 -393 -194q-152 -176 -151 -365q0 -86 44 -139t134 -53q135 0 221 192q70 158 70 312l-3 32v9l5 16l4 6q12 0 20 -33q25 -84 25 -176q0 -164 -76 -264q-90 -119 -266 -119q-102 0 -153.5 60.5t-51.5 158.5zM1208 1485 q0 23 18.5 41t47.5 18q20 0 37 -18q14 -12 16 -41q0 -35 -29 -51q63 -57 146 -58q80 0 158 51q-12 14 -17 41q0 29 18.5 49.5t45.5 22.5q57 0 57 -57q0 -16 -12 -39q-20 -33 -60 -55q-88 -53 -190 -54q-100 0 -176 58q-60 43 -60 92z" />
<glyph unicode="&#xca;" horiz-adv-x="1599" d="M10 170q0 94 103.5 155.5t218.5 61.5h20l23 -6l-17 -4q-113 0 -204 -53q-106 -63 -107 -154q0 -74 72 -121q78 -45 166 -45q123 0 231 148q65 92 131 264l84 219q51 131 119 266q43 90 104 166q27 35 95 102l-129 -59q-92 -37 -158 -37q-55 0 -82 24.5t-27 78.5v32 q0 29 -5 39t-25 13q-37 0 -103 -64q-51 -49 -100 -117l-21 -26l-6 -4q2 18 13 34q63 113 157 175.5t162 62.5q35 0 53.5 -19.5t18.5 -82.5q0 -61 11 -77t44 -20q84 0 186 64q84 49 150 139q12 18 31 18q4 -2 10 -10q0 -2 2 -4l-6 -16q-51 -74 -88 -148l-60 -157l-149 -430 q-55 -154 -99 -228q-92 -166 -236 -270.5t-310 -104.5q-117 0 -191 50q-82 57 -82 145zM1030 782q0 10 15.5 22.5t37.5 12.5q45 0 80 -14q39 -12 56 -41q55 31 192 256q119 195 160 235q113 113 284 113q23 0 31 -4l10 -6l-8 -4l-26 -6q-164 -14 -224 -123l-90 -199 q-55 -115 -135 -188.5t-178 -104.5q12 -20 21.5 -60t9.5 -85l8 -215q0 -84 2 -149.5t10 -130t43 -64.5q61 0 158 108q53 61 115 156q6 14 14 20l6 2l8 -10l-2 -10l-12 -23q-43 -66 -74 -106q-37 -49 -59 -72q-98 -104 -193 -104q-238 0 -237 205v39q0 20 4 44l20 97l39 143 q45 168 45 205q-59 0 -95 17.5t-36 43.5zM1055 784q0 -14 24 -30q25 -12 84 -13q0 18 -20.5 37t-61.5 19q-12 0 -22 -6z" />
<glyph unicode="&#x41a;" horiz-adv-x="1599" d="M10 170q0 94 103.5 155.5t218.5 61.5h20l23 -6l-17 -4q-113 0 -204 -53q-106 -63 -107 -154q0 -74 72 -121q78 -45 166 -45q123 0 231 148q65 92 131 264l84 219q51 131 119 266q43 90 104 166q27 35 95 102l-129 -59q-92 -37 -158 -37q-55 0 -82 24.5t-27 78.5v32 q0 29 -5 39t-25 13q-37 0 -103 -64q-51 -49 -100 -117l-21 -26l-6 -4q2 18 13 34q63 113 157 175.5t162 62.5q35 0 53.5 -19.5t18.5 -82.5q0 -61 11 -77t44 -20q84 0 186 64q84 49 150 139q12 18 31 18q4 -2 10 -10q0 -2 2 -4l-6 -16q-51 -74 -88 -148l-60 -157l-149 -430 q-55 -154 -99 -228q-92 -166 -236 -270.5t-310 -104.5q-117 0 -191 50q-82 57 -82 145zM1030 782q0 10 15.5 22.5t37.5 12.5q45 0 80 -14q39 -12 56 -41q55 31 192 256q119 195 160 235q113 113 284 113q23 0 31 -4l10 -6l-8 -4l-26 -6q-164 -14 -224 -123l-90 -199 q-55 -115 -135 -188.5t-178 -104.5q12 -20 21.5 -60t9.5 -85l8 -215q0 -84 2 -149.5t10 -130t43 -64.5q61 0 158 108q53 61 115 156q6 14 14 20l6 2l8 -10l-2 -10l-12 -23q-43 -66 -74 -106q-37 -49 -59 -72q-98 -104 -193 -104q-238 0 -237 205v39q0 20 4 44l20 97l39 143 q45 168 45 205q-59 0 -95 17.5t-36 43.5zM1055 784q0 -14 24 -30q25 -12 84 -13q0 18 -20.5 37t-61.5 19q-12 0 -22 -6z" />
<glyph unicode="&#xcb;" horiz-adv-x="1509" d="M33 164q0 98 102.5 160.5t218.5 62.5h21l14 -4l4 -4q-127 0 -229.5 -59.5t-102.5 -159.5q0 -59 62 -113q63 -47 186 -47q106 0 219 76q39 27 81 64.5t91 92.5q86 92 240 283l244 305q145 182 219 258l213 230q98 104 127 104l8 -12q0 -39 -53 -170l-123 -281l-125 -291 l-123 -325q-66 -186 -65 -244q0 -29 18 -33l8 2q61 18 121 86q25 31 96 144l17 10l10 -14l-4 -15q-55 -96 -113 -161q-68 -80 -122 -104.5t-113 -24.5q-72 0 -103 38q-16 21 -16 64q0 90 66.5 265t154.5 331l119 211l110 188q115 190 175 266l-134 -135l-139 -147 q-70 -76 -219 -262l-258 -324q-154 -195 -239 -283t-169 -143q-111 -74 -219 -74q-135 0 -205.5 53.5t-70.5 135.5z" />
<glyph unicode="&#x41b;" horiz-adv-x="1509" d="M33 164q0 98 102.5 160.5t218.5 62.5h21l14 -4l4 -4q-127 0 -229.5 -59.5t-102.5 -159.5q0 -59 62 -113q63 -47 186 -47q106 0 219 76q39 27 81 64.5t91 92.5q86 92 240 283l244 305q145 182 219 258l213 230q98 104 127 104l8 -12q0 -39 -53 -170l-123 -281l-125 -291 l-123 -325q-66 -186 -65 -244q0 -29 18 -33l8 2q61 18 121 86q25 31 96 144l17 10l10 -14l-4 -15q-55 -96 -113 -161q-68 -80 -122 -104.5t-113 -24.5q-72 0 -103 38q-16 21 -16 64q0 90 66.5 265t154.5 331l119 211l110 188q115 190 175 266l-134 -135l-139 -147 q-70 -76 -219 -262l-258 -324q-154 -195 -239 -283t-169 -143q-111 -74 -219 -74q-135 0 -205.5 53.5t-70.5 135.5z" />
<glyph unicode="&#xcc;" horiz-adv-x="1949" d="M25 172q0 92 101 153.5t220 61.5l43 -6l-8 -4q-123 0 -223.5 -57.5t-100.5 -147.5q0 -84 78 -129q68 -39 160 -39q115 0 217 88q84 73 180 225l395 629l136 164l110 123q31 31 53 51l82 70l-237 -711l-86 -248q-98 -276 -98 -342q0 -31 16 -30q25 0 84 102q43 78 123 252 q106 240 143 309q92 197 215 361q80 104 189 213l98 94q-43 -100 -105 -310q-39 -129 -106 -401l-62 -260q-31 -147 -30 -233q0 -131 76 -132q61 0 147 105l107 153l12 11l12 -11l-6 -16l-105 -158q-92 -115 -176 -114q-111 0 -172 80q-57 82 -57 219q0 162 68.5 357.5 t167.5 367.5q53 92 159 248q-68 -55 -149 -162q-131 -174 -258 -426l-221 -475q-102 -205 -164 -205q-141 0 -142 182q0 88 31 204t94 275q86 215 195 381q80 129 174 236l-105 -107q-86 -94 -196 -233q-90 -115 -205 -312l-184 -315q-100 -160 -189 -233q-111 -94 -233 -95 q-117 0 -192.5 47.5t-75.5 149.5z" />
<glyph unicode="&#x41c;" horiz-adv-x="1949" d="M25 172q0 92 101 153.5t220 61.5l43 -6l-8 -4q-123 0 -223.5 -57.5t-100.5 -147.5q0 -84 78 -129q68 -39 160 -39q115 0 217 88q84 73 180 225l395 629l136 164l110 123q31 31 53 51l82 70l-237 -711l-86 -248q-98 -276 -98 -342q0 -31 16 -30q25 0 84 102q43 78 123 252 q106 240 143 309q92 197 215 361q80 104 189 213l98 94q-43 -100 -105 -310q-39 -129 -106 -401l-62 -260q-31 -147 -30 -233q0 -131 76 -132q61 0 147 105l107 153l12 11l12 -11l-6 -16l-105 -158q-92 -115 -176 -114q-111 0 -172 80q-57 82 -57 219q0 162 68.5 357.5 t167.5 367.5q53 92 159 248q-68 -55 -149 -162q-131 -174 -258 -426l-221 -475q-102 -205 -164 -205q-141 0 -142 182q0 88 31 204t94 275q86 215 195 381q80 129 174 236l-105 -107q-86 -94 -196 -233q-90 -115 -205 -312l-184 -315q-100 -160 -189 -233q-111 -94 -233 -95 q-117 0 -192.5 47.5t-75.5 149.5z" />
<glyph unicode="&#xcd;" horiz-adv-x="1689" d="M156 147q0 104 94 156l18 8l8 -8l-14 -16q-35 -18 -55.5 -52t-20.5 -79q0 -57 37 -101q39 -39 105 -39q98 0 180 82q68 68 141 221q16 35 54 129l79 191q-37 -12 -76.5 -29.5t-99.5 -48.5q-106 -53 -141 -88l-10 -4l-6 4l10 16q43 43 132 93.5t200 87.5q53 162 110 262 q66 119 168 221l-113 -49q-92 -33 -145 -33q-45 0 -75.5 19.5t-30.5 68.5l4 66q0 31 -31 35q-43 0 -109 -60q-55 -53 -100 -121l-20 -26l-5 -4l-4 6l11 28q66 111 165 179q88 59 154 59q39 0 57.5 -19.5t18.5 -84.5l2 -54q10 -45 53 -45q49 0 174 72q137 78 191 151l16 13 l10 4q14 0 17 -15l-11 -22l-77 -127l-76 -166l-60 -164q-12 -45 -20 -69.5t-21 -59.5l119 33l129 31q156 303 348 452q150 115 283 115q66 0 108 -37t42 -102q0 -55 -25 -98.5t-76 -94.5q-78 -66 -221 -131q-119 -51 -233 -80l-95 -223q-33 -80 -55 -140l-45 -130 q-47 -152 -47 -213q0 -96 74 -97q102 0 206 93q70 63 130 168l14 12l8 4l8 -8l-14 -29q-94 -150 -178 -209t-183 -59q-113 0 -176 65q-59 70 -59 193q0 162 174 516l-74 -13q-28 -5 -61 -16q-53 -12 -115 -37q-135 -350 -295 -522q-178 -190 -407 -190q-80 0 -127 47 q-23 23 -34 50.5t-11 61.5zM1528 856q80 12 194 66q136 59 199 112q72 66 72 174q0 61 -21.5 93t-66.5 32q-102 0 -174 -96q-57 -76 -203 -381z" />
<glyph unicode="&#x41d;" horiz-adv-x="1689" d="M156 147q0 104 94 156l18 8l8 -8l-14 -16q-35 -18 -55.5 -52t-20.5 -79q0 -57 37 -101q39 -39 105 -39q98 0 180 82q68 68 141 221q16 35 54 129l79 191q-37 -12 -76.5 -29.5t-99.5 -48.5q-106 -53 -141 -88l-10 -4l-6 4l10 16q43 43 132 93.5t200 87.5q53 162 110 262 q66 119 168 221l-113 -49q-92 -33 -145 -33q-45 0 -75.5 19.5t-30.5 68.5l4 66q0 31 -31 35q-43 0 -109 -60q-55 -53 -100 -121l-20 -26l-5 -4l-4 6l11 28q66 111 165 179q88 59 154 59q39 0 57.5 -19.5t18.5 -84.5l2 -54q10 -45 53 -45q49 0 174 72q137 78 191 151l16 13 l10 4q14 0 17 -15l-11 -22l-77 -127l-76 -166l-60 -164q-12 -45 -20 -69.5t-21 -59.5l119 33l129 31q156 303 348 452q150 115 283 115q66 0 108 -37t42 -102q0 -55 -25 -98.5t-76 -94.5q-78 -66 -221 -131q-119 -51 -233 -80l-95 -223q-33 -80 -55 -140l-45 -130 q-47 -152 -47 -213q0 -96 74 -97q102 0 206 93q70 63 130 168l14 12l8 4l8 -8l-14 -29q-94 -150 -178 -209t-183 -59q-113 0 -176 65q-59 70 -59 193q0 162 174 516l-74 -13q-28 -5 -61 -16q-53 -12 -115 -37q-135 -350 -295 -522q-178 -190 -407 -190q-80 0 -127 47 q-23 23 -34 50.5t-11 61.5zM1528 856q80 12 194 66q136 59 199 112q72 66 72 174q0 61 -21.5 93t-66.5 32q-102 0 -174 -96q-57 -76 -203 -381z" />
<glyph unicode="&#xce;" horiz-adv-x="1005" d="M113 356q0 96 25.5 207t64.5 195q111 236 284 385q143 119 312 172q129 39 233 39q100 0 154 -56q43 -47 43 -116l-6 -45q-2 -14 -11 -23l-6 -4l-6 10l2 17q6 16 6 41q0 57 -34 98q-43 53 -134 53q-201 0 -356 -158q-135 -135 -266 -434q-68 -160 -115 -308t-47 -253 q0 -84 31.5 -128t109.5 -44q147 0 305 166q168 180 261 483l49 197q25 104 24 178q0 63 -20.5 102t-67.5 39q-172 0 -321 -317q-137 -297 -138 -563l3 -47q0 -31 -11 -33l-4 8l-6 27l-2 57q0 147 35 288.5t110 293.5q154 311 338 311q68 0 103 -49q33 -53 32 -131 q0 -74 -20 -164l-49 -201q-82 -268 -250 -461q-182 -209 -367 -208q-143 0 -221 110q-68 98 -67 266z" />
<glyph unicode="&#x41e;" horiz-adv-x="1005" d="M113 356q0 96 25.5 207t64.5 195q111 236 284 385q143 119 312 172q129 39 233 39q100 0 154 -56q43 -47 43 -116l-6 -45q-2 -14 -11 -23l-6 -4l-6 10l2 17q6 16 6 41q0 57 -34 98q-43 53 -134 53q-201 0 -356 -158q-135 -135 -266 -434q-68 -160 -115 -308t-47 -253 q0 -84 31.5 -128t109.5 -44q147 0 305 166q168 180 261 483l49 197q25 104 24 178q0 63 -20.5 102t-67.5 39q-172 0 -321 -317q-137 -297 -138 -563l3 -47q0 -31 -11 -33l-4 8l-6 27l-2 57q0 147 35 288.5t110 293.5q154 311 338 311q68 0 103 -49q33 -53 32 -131 q0 -74 -20 -164l-49 -201q-82 -268 -250 -461q-182 -209 -367 -208q-143 0 -221 110q-68 98 -67 266z" />
<glyph unicode="&#xcf;" horiz-adv-x="1824" d="M39 176q0 100 105.5 161.5t220.5 61.5h16l16 -6l4 -6q-129 0 -229 -56.5t-100 -150.5q0 -61 47 -106q61 -55 178 -56q156 0 270 101q130 114 275 454q102 250 147 334q102 195 291 275l6 -2l-4 -4q-68 -49 -133 -215l-107 -334q-35 -106 -67.5 -185.5t-69.5 -140.5 q-88 -150 -221 -227q-147 -86 -373 -86q-135 0 -209 61q-63 53 -63 127zM291 809q0 203 166 362q190 184 506 185h77q41 -6 62 -8q256 -25 313 -25q33 0 117 -4t98 -4l258 -17q104 0 165 24t110 85q-51 -131 -125 -180q-90 -57 -283 -58q-123 0 -230.5 15.5t-187.5 40.5 l-233 61q-111 31 -180 31q-272 0 -449 -172q-154 -152 -153 -336q0 -72 36 -121q39 -45 111 -45q145 0 240 180q78 150 77 305l5 17q41 -70 40 -176q0 -145 -77 -242q-92 -117 -279 -117q-184 0 -184 199zM1202 311q0 176 115 379q90 160 250 338q45 53 96 86q4 2 32.5 19.5 t57.5 29.5l8 2q-66 -57 -128 -143t-124 -209q-135 -268 -135 -475q0 -121 39 -184q49 -78 160 -78h39q31 6 47 8l51 8l6 -2l-22 -20q-43 -31 -119 -60q-72 -22 -131 -22q-113 0 -177.5 87t-64.5 236z" />
<glyph unicode="&#x41f;" horiz-adv-x="1824" d="M39 176q0 100 105.5 161.5t220.5 61.5h16l16 -6l4 -6q-129 0 -229 -56.5t-100 -150.5q0 -61 47 -106q61 -55 178 -56q156 0 270 101q130 114 275 454q102 250 147 334q102 195 291 275l6 -2l-4 -4q-68 -49 -133 -215l-107 -334q-35 -106 -67.5 -185.5t-69.5 -140.5 q-88 -150 -221 -227q-147 -86 -373 -86q-135 0 -209 61q-63 53 -63 127zM291 809q0 203 166 362q190 184 506 185h77q41 -6 62 -8q256 -25 313 -25q33 0 117 -4t98 -4l258 -17q104 0 165 24t110 85q-51 -131 -125 -180q-90 -57 -283 -58q-123 0 -230.5 15.5t-187.5 40.5 l-233 61q-111 31 -180 31q-272 0 -449 -172q-154 -152 -153 -336q0 -72 36 -121q39 -45 111 -45q145 0 240 180q78 150 77 305l5 17q41 -70 40 -176q0 -145 -77 -242q-92 -117 -279 -117q-184 0 -184 199zM1202 311q0 176 115 379q90 160 250 338q45 53 96 86q4 2 32.5 19.5 t57.5 29.5l8 2q-66 -57 -128 -143t-124 -209q-135 -268 -135 -475q0 -121 39 -184q49 -78 160 -78h39q31 6 47 8l51 8l6 -2l-22 -20q-43 -31 -119 -60q-72 -22 -131 -22q-113 0 -177.5 87t-64.5 236z" />
<glyph unicode="&#xd0;" horiz-adv-x="1189" d="M33 176q0 92 101.5 153.5t219.5 61.5h21q10 -2 12 -4l4 -4l-6 -4q-123 0 -221 -56.5t-98 -148.5q0 -74 65 -121q66 -43 160 -43q264 0 395 291l86 231l-72 -20q-27 -8 -44 -16l-48 -25l-14 -4l-4 4l14 10q45 29 94 49l82 27l66 186q82 213 188 353q74 96 168 164 q-27 10 -42 14t-68 14q-59 8 -85 9t-40 1q-348 0 -561 -194q-182 -166 -183 -365q0 -86 41 -136t123 -50q147 0 260 195q96 168 96 321l2 12l5 4q8 -29 12 -61.5t4 -77.5q0 -166 -74 -276q-96 -145 -295 -146q-100 0 -153 60q-51 63 -51 157q0 205 190 381 q113 102 258 153.5t328 51.5q121 0 168 -8q39 -4 58 -8t65 -21l55 21l67 10l41 -2l-8 -2q-33 0 -69 -19l-37 -24q72 -27 116 -72q76 -76 76 -182q0 -170 -135 -281q-78 -61 -254 -127l-65 -20l-60 -12q-98 -317 -282 -469q-162 -131 -402 -131q-123 0 -199 51 q-71 53 -71 145zM997 610q39 6 78 21q133 43 195 110q78 88 78 256q0 88 -26 142.5t-65 87.5q-66 -88 -116 -199q-72 -154 -144 -418z" />
<glyph unicode="&#x420;" horiz-adv-x="1189" d="M33 176q0 92 101.5 153.5t219.5 61.5h21q10 -2 12 -4l4 -4l-6 -4q-123 0 -221 -56.5t-98 -148.5q0 -74 65 -121q66 -43 160 -43q264 0 395 291l86 231l-72 -20q-27 -8 -44 -16l-48 -25l-14 -4l-4 4l14 10q45 29 94 49l82 27l66 186q82 213 188 353q74 96 168 164 q-27 10 -42 14t-68 14q-59 8 -85 9t-40 1q-348 0 -561 -194q-182 -166 -183 -365q0 -86 41 -136t123 -50q147 0 260 195q96 168 96 321l2 12l5 4q8 -29 12 -61.5t4 -77.5q0 -166 -74 -276q-96 -145 -295 -146q-100 0 -153 60q-51 63 -51 157q0 205 190 381 q113 102 258 153.5t328 51.5q121 0 168 -8q39 -4 58 -8t65 -21l55 21l67 10l41 -2l-8 -2q-33 0 -69 -19l-37 -24q72 -27 116 -72q76 -76 76 -182q0 -170 -135 -281q-78 -61 -254 -127l-65 -20l-60 -12q-98 -317 -282 -469q-162 -131 -402 -131q-123 0 -199 51 q-71 53 -71 145zM997 610q39 6 78 21q133 43 195 110q78 88 78 256q0 88 -26 142.5t-65 87.5q-66 -88 -116 -199q-72 -154 -144 -418z" />
<glyph unicode="&#xd1;" horiz-adv-x="1247" d="M139 1022q0 158 126 259t349 101h48q22 0 47 -4q37 0 59 -8l6 -4l-8 -8h-33q-252 0 -377 -93.5t-125 -269.5q0 -109 74 -192q68 -74 162 -98q129 256 338 432q250 209 524 209q84 0 132 -42t48 -114q0 -104 -94 -219q-106 -127 -293 -209q-121 -53 -232.5 -81t-211.5 -28 q-47 -96 -80 -212.5t-33 -207.5q0 -98 41 -157q45 -57 144 -58q178 0 313 156q59 70 90 141.5t31 143.5q0 129 -113 129q-100 0 -156 -88q-41 -70 -41 -168q0 -33 4.5 -54.5t10.5 -31.5l2 -10l-4 -7q-74 47 -74 152q0 94 59 156q68 74 197 73q68 0 104.5 -42t36.5 -111 q0 -154 -127 -299q-141 -164 -333 -164q-197 0 -295 104q-41 47 -61.5 105.5t-20.5 142.5q0 88 20.5 171t61.5 167q-111 23 -201 102q-115 99 -115 236zM690 680q113 0 189 20q80 19 221 80q141 59 239 197q43 63 65.5 121.5t22.5 113.5q0 102 -92 103q-170 0 -362 -207 q-168 -180 -283 -428z" />
<glyph unicode="&#x421;" horiz-adv-x="1247" d="M139 1022q0 158 126 259t349 101h48q22 0 47 -4q37 0 59 -8l6 -4l-8 -8h-33q-252 0 -377 -93.5t-125 -269.5q0 -109 74 -192q68 -74 162 -98q129 256 338 432q250 209 524 209q84 0 132 -42t48 -114q0 -104 -94 -219q-106 -127 -293 -209q-121 -53 -232.5 -81t-211.5 -28 q-47 -96 -80 -212.5t-33 -207.5q0 -98 41 -157q45 -57 144 -58q178 0 313 156q59 70 90 141.5t31 143.5q0 129 -113 129q-100 0 -156 -88q-41 -70 -41 -168q0 -33 4.5 -54.5t10.5 -31.5l2 -10l-4 -7q-74 47 -74 152q0 94 59 156q68 74 197 73q68 0 104.5 -42t36.5 -111 q0 -154 -127 -299q-141 -164 -333 -164q-197 0 -295 104q-41 47 -61.5 105.5t-20.5 142.5q0 88 20.5 171t61.5 167q-111 23 -201 102q-115 99 -115 236zM690 680q113 0 189 20q80 19 221 80q141 59 239 197q43 63 65.5 121.5t22.5 113.5q0 102 -92 103q-170 0 -362 -207 q-168 -180 -283 -428z" />
<glyph unicode="&#xd2;" horiz-adv-x="2095" d="M39 178q0 92 100.5 156.5t216.5 64.5h25l16 -8l4 -4q-129 0 -229 -56.5t-100 -150.5q0 -78 73 -125q59 -37 152 -37q180 0 315 144q101 107 197 330l123 303q68 162 131 233q53 61 100 93t117 61q-76 -63 -145 -264l-134 -398q-55 -154 -122 -260q-80 -123 -187 -184 q-76 -43 -178 -68q-45 -8 -99.5 -14t-103.5 -6q-145 0 -217 61q-55 49 -55 129zM301 801q0 188 174 360q201 195 498 195l522 -29q53 0 166 -5t149 -5l388 -19q106 0 159 18.5t125 90.5q-8 -31 -17 -52.5t-30 -49.5q-35 -57 -98 -95q-41 -20 -111 -34q-61 -6 -166 -7 q-168 0 -325 19q-82 10 -156.5 22t-183.5 35l-265 47q-139 25 -198 25q-264 0 -447 -180q-78 -78 -116.5 -158t-38.5 -170q0 -72 37 -121q39 -45 110 -45q147 0 240 180q78 152 78 305l4 17l4 -4q10 -16 14 -27.5t12.5 -42.5t10.5 -48t2 -52q0 -145 -76 -242 q-94 -119 -281 -119q-90 0 -139 52q-45 55 -45 139zM1018 0q57 178 215 537q141 315 237 512q18 39 84 73l115 49v-10q-68 -92 -172 -325q-80 -180 -180 -455l-57 -164l-70 -217h-172zM1518 291q0 186 112 399q98 193 254 338q18 18 45 37.5t45 30.5q57 35 113 57l6 -4 l-10 -10q-137 -102 -270.5 -351t-133.5 -456q0 -137 53.5 -198.5t145.5 -61.5l78 6l61 12l-18 -20q-123 -82 -248 -82q-104 0 -160 55q-74 72 -73 248z" />
<glyph unicode="&#x422;" horiz-adv-x="2095" d="M39 178q0 92 100.5 156.5t216.5 64.5h25l16 -8l4 -4q-129 0 -229 -56.5t-100 -150.5q0 -78 73 -125q59 -37 152 -37q180 0 315 144q101 107 197 330l123 303q68 162 131 233q53 61 100 93t117 61q-76 -63 -145 -264l-134 -398q-55 -154 -122 -260q-80 -123 -187 -184 q-76 -43 -178 -68q-45 -8 -99.5 -14t-103.5 -6q-145 0 -217 61q-55 49 -55 129zM301 801q0 188 174 360q201 195 498 195l522 -29q53 0 166 -5t149 -5l388 -19q106 0 159 18.5t125 90.5q-8 -31 -17 -52.5t-30 -49.5q-35 -57 -98 -95q-41 -20 -111 -34q-61 -6 -166 -7 q-168 0 -325 19q-82 10 -156.5 22t-183.5 35l-265 47q-139 25 -198 25q-264 0 -447 -180q-78 -78 -116.5 -158t-38.5 -170q0 -72 37 -121q39 -45 110 -45q147 0 240 180q78 152 78 305l4 17l4 -4q10 -16 14 -27.5t12.5 -42.5t10.5 -48t2 -52q0 -145 -76 -242 q-94 -119 -281 -119q-90 0 -139 52q-45 55 -45 139zM1018 0q57 178 215 537q141 315 237 512q18 39 84 73l115 49v-10q-68 -92 -172 -325q-80 -180 -180 -455l-57 -164l-70 -217h-172zM1518 291q0 186 112 399q98 193 254 338q18 18 45 37.5t45 30.5q57 35 113 57l6 -4 l-10 -10q-137 -102 -270.5 -351t-133.5 -456q0 -137 53.5 -198.5t145.5 -61.5l78 6l61 12l-18 -20q-123 -82 -248 -82q-104 0 -160 55q-74 72 -73 248z" />
<glyph unicode="&#xd3;" horiz-adv-x="1370" d="M182 879q0 164 133 303q154 160 394 159q166 0 247 -81q68 -68 68 -179q0 -20 -2 -42.5t-9 -53.5t-55 -111q-23 -41 -92 -143l-84 -125q-37 -55 -55 -98t-22 -78q0 -51 59 -51q80 0 215 142.5t276 367.5q61 102 162 200.5t197 157.5l26 10l7 -6l-5 -8q-6 -12 -16 -20 q-86 -70 -141 -172q-43 -82 -86 -211l-80 -262q-51 -158 -115 -246q-154 -217 -358 -309q-154 -68 -367 -68q-285 0 -284 149q0 90 96 143.5t215 53.5l63 -4l11 -2l-15 -2q-113 0 -192 -33q-104 -43 -105 -133q0 -76 50.5 -111.5t154.5 -35.5q121 0 219 43q141 63 262 233 q37 51 125 231l138 281l-246 -303q-129 -119 -228 -119q-86 0 -130 46t-44 122q0 31 9 64q6 41 20 73q29 78 119 211l71 105q43 66 68 122t25 105q0 53 -43 90q-43 33 -136 33q-217 0 -364 -154q-127 -137 -127 -286q0 -70 34 -111t99 -41q121 0 207 141q70 121 70 242 l-3 35v14l3 10q6 -2 11 -7t12 -25.5t13.5 -56.5t6.5 -62q0 -135 -74 -221q-84 -98 -246 -99q-74 0 -121 49q-41 51 -41 134z" />
<glyph unicode="&#x423;" horiz-adv-x="1370" d="M182 879q0 164 133 303q154 160 394 159q166 0 247 -81q68 -68 68 -179q0 -20 -2 -42.5t-9 -53.5t-55 -111q-23 -41 -92 -143l-84 -125q-37 -55 -55 -98t-22 -78q0 -51 59 -51q80 0 215 142.5t276 367.5q61 102 162 200.5t197 157.5l26 10l7 -6l-5 -8q-6 -12 -16 -20 q-86 -70 -141 -172q-43 -82 -86 -211l-80 -262q-51 -158 -115 -246q-154 -217 -358 -309q-154 -68 -367 -68q-285 0 -284 149q0 90 96 143.5t215 53.5l63 -4l11 -2l-15 -2q-113 0 -192 -33q-104 -43 -105 -133q0 -76 50.5 -111.5t154.5 -35.5q121 0 219 43q141 63 262 233 q37 51 125 231l138 281l-246 -303q-129 -119 -228 -119q-86 0 -130 46t-44 122q0 31 9 64q6 41 20 73q29 78 119 211l71 105q43 66 68 122t25 105q0 53 -43 90q-43 33 -136 33q-217 0 -364 -154q-127 -137 -127 -286q0 -70 34 -111t99 -41q121 0 207 141q70 121 70 242 l-3 35v14l3 10q6 -2 11 -7t12 -25.5t13.5 -56.5t6.5 -62q0 -135 -74 -221q-84 -98 -246 -99q-74 0 -121 49q-41 51 -41 134z" />
<glyph unicode="&#xd4;" horiz-adv-x="1773" d="M18 104q0 90 91.5 144.5t207.5 54.5l74 -6q-111 0 -186 -35q-113 -47 -113 -139q0 -70 47 -101.5t156 -31.5q145 0 231 37q131 55 252 229q33 49 82 147l64 140q-49 -43 -117 -74q-84 -39 -156 -39q-90 0 -151.5 53.5t-61.5 137.5q0 139 99 280q125 174 333 174 q90 0 154 -35q68 -31 88 -84q16 31 43 74t57 86q84 106 193 201l-99 -65q-44 -29 -79 -48q-133 -72 -226 -71q-55 0 -86.5 19t-31.5 67l4 57q0 14 -8.5 21.5t-26.5 7.5q-16 0 -41 -9.5t-66 -44.5q-57 -49 -96 -110l-14 -17l-4 -4l-6 8l8 17q63 113 157.5 175t161.5 62 q35 0 53.5 -19.5t18.5 -88.5q0 -49 11.5 -72.5t45.5 -23.5q59 0 185.5 77.5t179.5 147.5q12 12 27 12q25 0 28 -18l-8 -19q-78 -84 -141 -229l-84 -203q51 41 127 72q80 27 147 26q96 0 153.5 -51t57.5 -135q0 -170 -78 -301q-102 -176 -293 -176q-76 0 -139 33 q-74 41 -110 123l-41 -91l-64 -114q-131 -207 -283 -291q-166 -92 -452 -92q-274 0 -275 155zM616 616q0 -49 31 -88t80 -39q41 0 98 29q72 35 123 92l142 308q-10 41 -53.5 67.5t-98.5 26.5q-49 0 -92 -17.5t-87 -57.5t-93.5 -146.5t-49.5 -174.5zM1151 584q33 -76 90 -115 q45 -29 86 -29q100 0 178 152q72 139 72 297q0 102 -111 102q-104 0 -213 -100q-12 -55 -20 -84l-25 -70q-33 -100 -57 -153z" />
<glyph unicode="&#x424;" horiz-adv-x="1773" d="M18 104q0 90 91.5 144.5t207.5 54.5l74 -6q-111 0 -186 -35q-113 -47 -113 -139q0 -70 47 -101.5t156 -31.5q145 0 231 37q131 55 252 229q33 49 82 147l64 140q-49 -43 -117 -74q-84 -39 -156 -39q-90 0 -151.5 53.5t-61.5 137.5q0 139 99 280q125 174 333 174 q90 0 154 -35q68 -31 88 -84q16 31 43 74t57 86q84 106 193 201l-99 -65q-44 -29 -79 -48q-133 -72 -226 -71q-55 0 -86.5 19t-31.5 67l4 57q0 14 -8.5 21.5t-26.5 7.5q-16 0 -41 -9.5t-66 -44.5q-57 -49 -96 -110l-14 -17l-4 -4l-6 8l8 17q63 113 157.5 175t161.5 62 q35 0 53.5 -19.5t18.5 -88.5q0 -49 11.5 -72.5t45.5 -23.5q59 0 185.5 77.5t179.5 147.5q12 12 27 12q25 0 28 -18l-8 -19q-78 -84 -141 -229l-84 -203q51 41 127 72q80 27 147 26q96 0 153.5 -51t57.5 -135q0 -170 -78 -301q-102 -176 -293 -176q-76 0 -139 33 q-74 41 -110 123l-41 -91l-64 -114q-131 -207 -283 -291q-166 -92 -452 -92q-274 0 -275 155zM616 616q0 -49 31 -88t80 -39q41 0 98 29q72 35 123 92l142 308q-10 41 -53.5 67.5t-98.5 26.5q-49 0 -92 -17.5t-87 -57.5t-93.5 -146.5t-49.5 -174.5zM1151 584q33 -76 90 -115 q45 -29 86 -29q100 0 178 152q72 139 72 297q0 102 -111 102q-104 0 -213 -100q-12 -55 -20 -84l-25 -70q-33 -100 -57 -153z" />
<glyph unicode="&#xd5;" horiz-adv-x="1738" d="M111 141q0 49 30.5 92t91.5 62l23 4l10 -6q-6 -10 -16 -12q-51 -18 -82 -56q-27 -37 -27 -80q0 -55 45 -98q23 -20 53.5 -30.5t77.5 -10.5q193 0 367 201q164 188 256 502q31 109 47.5 198.5t16.5 157.5q0 141 -64 205q-47 47 -127 47q-244 0 -407 -182 q-147 -164 -148 -353q0 -102 55 -170q29 -31 69 -47t95 -16q111 0 193 151q41 80 61.5 167t20.5 198l-2 55l2 27l4 4l6 -6l10 -27l23 -110l8 -105q0 -172 -87 -274.5t-235 -102.5q-133 0 -196 78q-55 68 -56 187q0 197 156 364q176 186 444 186q61 0 130 -22.5t118 -71.5 q96 -102 97 -289q0 -27 -2.5 -58.5t-8.5 -68.5q51 147 82 201q59 115 168 207q88 76 209 76q80 0 131 -49t51 -117q0 -49 -25.5 -88t-82.5 -64l-19 -4l-10 6l12 15q98 37 99 133q0 55 -44 99t-118 44q-96 0 -186 -67q-119 -100 -203 -287l-121 -330q-29 -78 -49 -168 q-8 -37 -14.5 -84t-6.5 -82q0 -117 52.5 -189.5t177.5 -72.5q193 0 333 178q125 162 125 347q0 109 -53 177t-160 68q-102 0 -190 -146.5t-88 -330.5l6 -94l2 -21l-4 -10q-10 12 -18 33q-39 117 -39 211q0 168 91 274.5t234 106.5q123 0 186.5 -76t63.5 -195 q0 -197 -133 -366q-150 -186 -356 -186q-137 0 -205 86q-55 74 -55 200q0 55 12 123q4 29 13 64.5t22 68.5q-84 -205 -232 -346q-207 -197 -477 -196h-10q-111 0 -167 49t-56 112z" />
<glyph unicode="&#x425;" horiz-adv-x="1738" d="M111 141q0 49 30.5 92t91.5 62l23 4l10 -6q-6 -10 -16 -12q-51 -18 -82 -56q-27 -37 -27 -80q0 -55 45 -98q23 -20 53.5 -30.5t77.5 -10.5q193 0 367 201q164 188 256 502q31 109 47.5 198.5t16.5 157.5q0 141 -64 205q-47 47 -127 47q-244 0 -407 -182 q-147 -164 -148 -353q0 -102 55 -170q29 -31 69 -47t95 -16q111 0 193 151q41 80 61.5 167t20.5 198l-2 55l2 27l4 4l6 -6l10 -27l23 -110l8 -105q0 -172 -87 -274.5t-235 -102.5q-133 0 -196 78q-55 68 -56 187q0 197 156 364q176 186 444 186q61 0 130 -22.5t118 -71.5 q96 -102 97 -289q0 -27 -2.5 -58.5t-8.5 -68.5q51 147 82 201q59 115 168 207q88 76 209 76q80 0 131 -49t51 -117q0 -49 -25.5 -88t-82.5 -64l-19 -4l-10 6l12 15q98 37 99 133q0 55 -44 99t-118 44q-96 0 -186 -67q-119 -100 -203 -287l-121 -330q-29 -78 -49 -168 q-8 -37 -14.5 -84t-6.5 -82q0 -117 52.5 -189.5t177.5 -72.5q193 0 333 178q125 162 125 347q0 109 -53 177t-160 68q-102 0 -190 -146.5t-88 -330.5l6 -94l2 -21l-4 -10q-10 12 -18 33q-39 117 -39 211q0 168 91 274.5t234 106.5q123 0 186.5 -76t63.5 -195 q0 -197 -133 -366q-150 -186 -356 -186q-137 0 -205 86q-55 74 -55 200q0 55 12 123q4 29 13 64.5t22 68.5q-84 -205 -232 -346q-207 -197 -477 -196h-10q-111 0 -167 49t-56 112z" />
<glyph unicode="&#xd6;" horiz-adv-x="1656" d="M158 827q0 197 157 379q176 203 420 203q176 0 275 -104q86 -92 86 -250q0 -55 -10.5 -111.5t-55.5 -150.5q-53 -119 -145 -273l-123 -207q-61 -111 -62 -190q0 -104 93 -105q111 0 268 215q57 80 104 175l455 905l192 14l-542 -1071q-49 -96 -49 -166t65 -70 q61 0 113 58l57 80l19 20l6 2l8 -10q0 -35 -14 -94l-19 -82l55 29q25 12 58 36l8 -8l-4 -12q-14 -14 -64 -47l-57 -37l-18 -94q-12 -66 -33 -105q-31 -86 -94 -86q-68 0 -68 74t66 141q45 49 120 92l17 68l14 61q-45 -63 -82 -92q-10 -6 -37.5 -16t-68.5 -10q-92 0 -135 43 t-43 112l4 52l12 57q-70 -119 -154 -190.5t-159 -71.5q-123 0 -187 69q-53 63 -53 170q0 70 27 152q20 59 54 131t91 172t162 262q70 115 69 223q0 94 -51 152q-59 63 -168 63q-229 0 -399 -194q-154 -176 -154 -365q0 -86 44 -139t134 -53q135 0 222 192q70 158 69 312 l-2 41l6 20l11 -4l12 -27q25 -84 25 -176q0 -164 -76 -264q-90 -119 -267 -119q-100 0 -153 60q-51 63 -51 159zM1268 -254q0 -47 41 -47q29 0 63 68l27 86l18 88l-92 -74q-57 -57 -57 -121z" />
<glyph unicode="&#x426;" horiz-adv-x="1656" d="M158 827q0 197 157 379q176 203 420 203q176 0 275 -104q86 -92 86 -250q0 -55 -10.5 -111.5t-55.5 -150.5q-53 -119 -145 -273l-123 -207q-61 -111 -62 -190q0 -104 93 -105q111 0 268 215q57 80 104 175l455 905l192 14l-542 -1071q-49 -96 -49 -166t65 -70 q61 0 113 58l57 80l19 20l6 2l8 -10q0 -35 -14 -94l-19 -82l55 29q25 12 58 36l8 -8l-4 -12q-14 -14 -64 -47l-57 -37l-18 -94q-12 -66 -33 -105q-31 -86 -94 -86q-68 0 -68 74t66 141q45 49 120 92l17 68l14 61q-45 -63 -82 -92q-10 -6 -37.5 -16t-68.5 -10q-92 0 -135 43 t-43 112l4 52l12 57q-70 -119 -154 -190.5t-159 -71.5q-123 0 -187 69q-53 63 -53 170q0 70 27 152q20 59 54 131t91 172t162 262q70 115 69 223q0 94 -51 152q-59 63 -168 63q-229 0 -399 -194q-154 -176 -154 -365q0 -86 44 -139t134 -53q135 0 222 192q70 158 69 312 l-2 41l6 20l11 -4l12 -27q25 -84 25 -176q0 -164 -76 -264q-90 -119 -267 -119q-100 0 -153 60q-51 63 -51 159zM1268 -254q0 -47 41 -47q29 0 63 68l27 86l18 88l-92 -74q-57 -57 -57 -121z" />
<glyph unicode="&#xd7;" horiz-adv-x="1273" d="M8 877q0 170 135 311q152 154 387 153q166 0 248 -81q68 -68 68 -177q0 -57 -19.5 -111t-62.5 -118l-90 -129q-76 -121 -76 -180q0 -55 61 -56q106 0 269 170q111 117 176 230l102 186l66 123q12 23 49 100l195 17l-170 -338l-216 -420l-122 -240q-72 -150 -72 -221 q0 -72 72 -71q49 0 105 50t147 193l14 17l10 6l6 -10q0 -14 -10 -31q-90 -135 -121 -170q-82 -88 -176 -88q-80 0 -127 38t-47 122q0 35 2 54t11 55t22.5 75t32.5 84q14 43 26 69q6 14 27 50l104 196q-53 -70 -102 -120t-105 -89q-102 -72 -190 -71q-84 0 -133 43 q-43 43 -43 123q0 70 33 147q18 51 63 119l53 80q43 66 67.5 122t24.5 105q0 53 -43 90q-23 16 -52 24.5t-81 8.5q-223 0 -362 -146q-129 -133 -129 -299q0 -150 143 -149q113 0 197 147q68 123 67 242l-2 31l-2 16l2 8l4 4l9 -6l14 -24l14 -68l4 -57q0 -135 -73 -221 q-84 -98 -240 -99q-164 0 -164 181z" />
<glyph unicode="&#x427;" horiz-adv-x="1273" d="M8 877q0 170 135 311q152 154 387 153q166 0 248 -81q68 -68 68 -177q0 -57 -19.5 -111t-62.5 -118l-90 -129q-76 -121 -76 -180q0 -55 61 -56q106 0 269 170q111 117 176 230l102 186l66 123q12 23 49 100l195 17l-170 -338l-216 -420l-122 -240q-72 -150 -72 -221 q0 -72 72 -71q49 0 105 50t147 193l14 17l10 6l6 -10q0 -14 -10 -31q-90 -135 -121 -170q-82 -88 -176 -88q-80 0 -127 38t-47 122q0 35 2 54t11 55t22.5 75t32.5 84q14 43 26 69q6 14 27 50l104 196q-53 -70 -102 -120t-105 -89q-102 -72 -190 -71q-84 0 -133 43 q-43 43 -43 123q0 70 33 147q18 51 63 119l53 80q43 66 67.5 122t24.5 105q0 53 -43 90q-23 16 -52 24.5t-81 8.5q-223 0 -362 -146q-129 -133 -129 -299q0 -150 143 -149q113 0 197 147q68 123 67 242l-2 31l-2 16l2 8l4 4l9 -6l14 -24l14 -68l4 -57q0 -135 -73 -221 q-84 -98 -240 -99q-164 0 -164 181z" />
<glyph unicode="&#xd8;" horiz-adv-x="2258" d="M328 827q0 197 157 379q176 203 420 203q174 0 273 -106q88 -100 88 -250q0 -84 -37 -185.5t-111 -242.5l-153 -252q-94 -164 -95 -250q0 -102 93 -103q92 0 217 152q94 113 153 236l457 905l192 14l-542 -1071q-51 -102 -51 -164q0 -72 65 -72q61 0 214 141t206 247 l457 905l190 14l-541 -1071q-51 -102 -51 -164q0 -72 64 -72q57 0 145 101q41 47 119 162l12 10l6 2l11 -10q0 -14 -9 -25l-79 -119q-117 -154 -222 -153q-90 0 -133 45q-37 43 -37 119q0 45 3 65.5t5.5 29.5t12.5 38q-29 -57 -148 -164q-150 -133 -243 -133q-100 0 -142 53 q-33 43 -32 115q0 33 4 53l8 43q-39 -72 -107 -146q-109 -117 -204 -116q-123 0 -187 69q-53 63 -53 170q0 172 186 478l129 211q86 154 86 251q0 92 -54 153.5t-163 61.5q-229 0 -399 -194q-154 -176 -154 -365q0 -86 44 -139t134 -53q135 0 222 192q70 158 69 312l-2 32v9 l4 16l4 6l9 -6l12 -27q25 -84 24 -174q0 -166 -75 -266q-90 -119 -267 -119q-102 0 -153 60.5t-51 158.5z" />
<glyph unicode="&#x428;" horiz-adv-x="2258" d="M328 827q0 197 157 379q176 203 420 203q174 0 273 -106q88 -100 88 -250q0 -84 -37 -185.5t-111 -242.5l-153 -252q-94 -164 -95 -250q0 -102 93 -103q92 0 217 152q94 113 153 236l457 905l192 14l-542 -1071q-51 -102 -51 -164q0 -72 65 -72q61 0 214 141t206 247 l457 905l190 14l-541 -1071q-51 -102 -51 -164q0 -72 64 -72q57 0 145 101q41 47 119 162l12 10l6 2l11 -10q0 -14 -9 -25l-79 -119q-117 -154 -222 -153q-90 0 -133 45q-37 43 -37 119q0 45 3 65.5t5.5 29.5t12.5 38q-29 -57 -148 -164q-150 -133 -243 -133q-100 0 -142 53 q-33 43 -32 115q0 33 4 53l8 43q-39 -72 -107 -146q-109 -117 -204 -116q-123 0 -187 69q-53 63 -53 170q0 172 186 478l129 211q86 154 86 251q0 92 -54 153.5t-163 61.5q-229 0 -399 -194q-154 -176 -154 -365q0 -86 44 -139t134 -53q135 0 222 192q70 158 69 312l-2 32v9 l4 16l4 6l9 -6l12 -27q25 -84 24 -174q0 -166 -75 -266q-90 -119 -267 -119q-102 0 -153 60.5t-51 158.5z" />
<glyph unicode="&#xd9;" horiz-adv-x="2258" d="M328 827q0 197 157 379q176 203 420 203q174 0 273 -106q88 -100 88 -250q0 -94 -43 -209q-33 -88 -107 -213l-112 -189q-133 -223 -134 -321q0 -100 93 -101q106 0 264 216q63 88 106 172l457 905l192 14l-542 -1071q-51 -102 -51 -168q0 -68 65 -68q61 0 214 140.5 t206 247.5l457 905l190 14l-541 -1071q-51 -102 -51 -168q0 -68 64 -68q61 0 112 58l58 80l18 20l6 2l8 -10q0 -35 -14 -94l-18 -82l57 29q30 16 55 36l9 -8l-5 -12q-14 -14 -63 -47l-57 -37l-19 -94q-12 -66 -33 -105q-31 -86 -94 -86q-66 0 -65 74q0 74 65 141 q45 47 119 92l16 68l15 61q-43 -63 -81 -90.5t-106 -27.5q-92 0 -135 51q-35 41 -35 117q0 41 4 63l17 66q-29 -57 -148 -164q-150 -133 -243 -133q-96 0 -142 51q-37 43 -37 113q0 37 2.5 54t14.5 46q-39 -72 -107 -146q-109 -117 -204 -116q-123 0 -187 69q-53 63 -53 170 q0 31 3 64t19 78q37 109 154 321l90 140l58 96q78 133 77 241q0 92 -54 153.5t-163 61.5q-227 0 -399 -196q-154 -178 -154 -365q0 -84 43 -139q45 -51 135 -51q135 0 222 192q70 158 69 312l-2 32v9l4 16l4 6l9 -6l12 -27q25 -84 24 -174q0 -166 -75 -266 q-90 -119 -267 -119q-102 0 -153 60.5t-51 158.5zM1976 -254q0 -47 39 -47q29 0 64 68l22 71q13 40 25 103l-92 -74q-31 -33 -44.5 -59.5t-13.5 -61.5z" />
<glyph unicode="&#x429;" horiz-adv-x="2258" d="M328 827q0 197 157 379q176 203 420 203q174 0 273 -106q88 -100 88 -250q0 -94 -43 -209q-33 -88 -107 -213l-112 -189q-133 -223 -134 -321q0 -100 93 -101q106 0 264 216q63 88 106 172l457 905l192 14l-542 -1071q-51 -102 -51 -168q0 -68 65 -68q61 0 214 140.5 t206 247.5l457 905l190 14l-541 -1071q-51 -102 -51 -168q0 -68 64 -68q61 0 112 58l58 80l18 20l6 2l8 -10q0 -35 -14 -94l-18 -82l57 29q30 16 55 36l9 -8l-5 -12q-14 -14 -63 -47l-57 -37l-19 -94q-12 -66 -33 -105q-31 -86 -94 -86q-66 0 -65 74q0 74 65 141 q45 47 119 92l16 68l15 61q-43 -63 -81 -90.5t-106 -27.5q-92 0 -135 51q-35 41 -35 117q0 41 4 63l17 66q-29 -57 -148 -164q-150 -133 -243 -133q-96 0 -142 51q-37 43 -37 113q0 37 2.5 54t14.5 46q-39 -72 -107 -146q-109 -117 -204 -116q-123 0 -187 69q-53 63 -53 170 q0 31 3 64t19 78q37 109 154 321l90 140l58 96q78 133 77 241q0 92 -54 153.5t-163 61.5q-227 0 -399 -196q-154 -178 -154 -365q0 -84 43 -139q45 -51 135 -51q135 0 222 192q70 158 69 312l-2 32v9l4 16l4 6l9 -6l12 -27q25 -84 24 -174q0 -166 -75 -266 q-90 -119 -267 -119q-102 0 -153 60.5t-51 158.5zM1976 -254q0 -47 39 -47q29 0 64 68l22 71q13 40 25 103l-92 -74q-31 -33 -44.5 -59.5t-13.5 -61.5z" />
<glyph unicode="&#xda;" horiz-adv-x="1370" d="M236 1016q0 51 18 105.5t35 84.5l33 56q68 115 161 178q80 55 152 55q39 0 59.5 -18.5t26.5 -67.5q0 -66 9 -89.5t44 -23.5q66 0 164 45q125 55 201 156q10 18 35 19q25 0 26 -21l-8 -20l-66 -121l-92 -209l-55 -125l-94 -203l82 35q37 12 94 12q111 0 194 -78 q100 -94 101 -256q0 -238 -147.5 -396.5t-350.5 -158.5q-150 0 -235 72q-106 88 -107 264q0 94 33 193.5t94 218.5l135 246l79 133q38 61 91 137l72 102q-78 -39 -158 -67q-104 -37 -166 -37q-115 0 -114 92l6 80q0 27 -27 29q-43 0 -110.5 -61.5t-106.5 -125.5 q-80 -129 -80 -231q0 -63 29 -97t86 -34q74 0 117 52t43 144l-4 66l2 16l6 -2q31 -55 30 -112q0 -80 -52 -132.5t-136 -52.5q-72 0 -110.5 39t-38.5 109zM692 242q0 -98 31 -165t96 -67q166 0 287 238q104 203 104 391q0 90 -41 139t-125 49q-39 0 -56 -2t-46 -14l-72 -37 q-92 -178 -129 -276q-49 -133 -49 -256z" />
<glyph unicode="&#x42a;" horiz-adv-x="1370" d="M236 1016q0 51 18 105.5t35 84.5l33 56q68 115 161 178q80 55 152 55q39 0 59.5 -18.5t26.5 -67.5q0 -66 9 -89.5t44 -23.5q66 0 164 45q125 55 201 156q10 18 35 19q25 0 26 -21l-8 -20l-66 -121l-92 -209l-55 -125l-94 -203l82 35q37 12 94 12q111 0 194 -78 q100 -94 101 -256q0 -238 -147.5 -396.5t-350.5 -158.5q-150 0 -235 72q-106 88 -107 264q0 94 33 193.5t94 218.5l135 246l79 133q38 61 91 137l72 102q-78 -39 -158 -67q-104 -37 -166 -37q-115 0 -114 92l6 80q0 27 -27 29q-43 0 -110.5 -61.5t-106.5 -125.5 q-80 -129 -80 -231q0 -63 29 -97t86 -34q74 0 117 52t43 144l-4 66l2 16l6 -2q31 -55 30 -112q0 -80 -52 -132.5t-136 -52.5q-72 0 -110.5 39t-38.5 109zM692 242q0 -98 31 -165t96 -67q166 0 287 238q104 203 104 391q0 90 -41 139t-125 49q-39 0 -56 -2t-46 -14l-72 -37 q-92 -178 -129 -276q-49 -133 -49 -256z" />
<glyph unicode="&#xdb;" horiz-adv-x="1697" d="M156 618l4 9l16 16q94 63 199 170l172 180l174 336l194 21l-141 -279q-92 -182 -133 -254l96 33q25 6 51.5 10t57.5 4q113 0 192 -65q111 -90 111 -269q0 -231 -147.5 -393t-370.5 -162q-150 0 -234 72q-102 84 -102 258q0 156 74 328l123 244l-177 -154 q-72 -59 -131 -100l-14 -7l-6 -2zM434 258q0 -102 53.5 -175t124.5 -73q168 0 291 240q102 205 103 389q0 98 -45.5 143t-129.5 45q-35 0 -52 -2t-52 -14q-55 -12 -104 -37l-111 -227q-78 -180 -78 -289zM1219 139q0 66 36 144l500 1030l195 20l-525 -1077 q-53 -113 -53 -170q0 -29 8.5 -42t34.5 -15q74 0 162 94q45 49 115 153l12 13l14 -8l-10 -23q-96 -141 -127 -172q-98 -104 -201 -104q-76 0 -118.5 42t-42.5 115z" />
<glyph unicode="&#x42b;" horiz-adv-x="1697" d="M156 618l4 9l16 16q94 63 199 170l172 180l174 336l194 21l-141 -279q-92 -182 -133 -254l96 33q25 6 51.5 10t57.5 4q113 0 192 -65q111 -90 111 -269q0 -231 -147.5 -393t-370.5 -162q-150 0 -234 72q-102 84 -102 258q0 156 74 328l123 244l-177 -154 q-72 -59 -131 -100l-14 -7l-6 -2zM434 258q0 -102 53.5 -175t124.5 -73q168 0 291 240q102 205 103 389q0 98 -45.5 143t-129.5 45q-35 0 -52 -2t-52 -14q-55 -12 -104 -37l-111 -227q-78 -180 -78 -289zM1219 139q0 66 36 144l500 1030l195 20l-525 -1077 q-53 -113 -53 -170q0 -29 8.5 -42t34.5 -15q74 0 162 94q45 49 115 153l12 13l14 -8l-10 -23q-96 -141 -127 -172q-98 -104 -201 -104q-76 0 -118.5 42t-42.5 115z" />
<glyph unicode="&#xdc;" horiz-adv-x="1167" d="M129 618l4 9l17 16q96 68 208 191l138 159l188 381l190 19l-282 -576q35 18 96 33q31 6 61.5 10t63.5 4q137 0 223 -91t86 -243q0 -240 -148.5 -397.5t-365.5 -157.5q-145 0 -237 74q-104 86 -105 254q0 131 72 326q8 25 29.5 78t72.5 170l-104 -109q-33 -33 -78 -69.5 t-100 -75.5l-15 -7l-6 -2zM408 256q0 -104 53 -175t127 -71q176 0 297 246q45 98 69.5 194.5t24.5 188.5q0 94 -44 141t-134 47q-63 0 -118.5 -13t-109.5 -40q-51 -94 -104 -239q-61 -173 -61 -279z" />
<glyph unicode="&#x42c;" horiz-adv-x="1167" d="M129 618l4 9l17 16q96 68 208 191l138 159l188 381l190 19l-282 -576q35 18 96 33q31 6 61.5 10t63.5 4q137 0 223 -91t86 -243q0 -240 -148.5 -397.5t-365.5 -157.5q-145 0 -237 74q-104 86 -105 254q0 131 72 326q8 25 29.5 78t72.5 170l-104 -109q-33 -33 -78 -69.5 t-100 -75.5l-15 -7l-6 -2zM408 256q0 -104 53 -175t127 -71q176 0 297 246q45 98 69.5 194.5t24.5 188.5q0 94 -44 141t-134 47q-63 0 -118.5 -13t-109.5 -40q-51 -94 -104 -239q-61 -173 -61 -279z" />
<glyph unicode="&#xdd;" horiz-adv-x="1144" d="M150 264q0 131 66.5 213t180.5 82q84 0 134.5 -40t50.5 -109q0 -57 -43 -109.5t-123 -73.5l-6 4l6 11q45 29 74.5 80t29.5 98q0 55 -25.5 85t-93.5 30q-92 0 -154.5 -78t-62.5 -189t67.5 -183.5t203.5 -72.5q242 0 436 301q182 287 182 613q0 223 -56 308t-173 85 q-154 0 -251 -85t-97 -208q0 -47 24.5 -76.5t61.5 -29.5q55 0 108 53q61 66 62 166q0 14 4 20l4 4l8 -18q0 -113 -62.5 -186.5t-152.5 -73.5q-53 0 -96 37q-39 39 -39 96q0 135 125 235.5t307 100.5q197 0 299 -138.5t102 -373.5q0 -326 -243.5 -594t-548.5 -268 q-154 0 -231.5 80.5t-77.5 203.5zM547 729l14 12l86 39q74 29 107 29q35 0 53 -31q10 -25 34.5 -38t55.5 -13q41 0 82 12q16 4 33 17l10 4l-4 -10q-18 -14 -88 -48q-8 -4 -43 -15t-60 -11q-39 0 -61 35q-8 16 -30.5 25t-61.5 14l-53 -7l-56 -16l-12 -2z" />
<glyph unicode="&#x42d;" horiz-adv-x="1144" d="M150 264q0 131 66.5 213t180.5 82q84 0 134.5 -40t50.5 -109q0 -57 -43 -109.5t-123 -73.5l-6 4l6 11q45 29 74.5 80t29.5 98q0 55 -25.5 85t-93.5 30q-92 0 -154.5 -78t-62.5 -189t67.5 -183.5t203.5 -72.5q242 0 436 301q182 287 182 613q0 223 -56 308t-173 85 q-154 0 -251 -85t-97 -208q0 -47 24.5 -76.5t61.5 -29.5q55 0 108 53q61 66 62 166q0 14 4 20l4 4l8 -18q0 -113 -62.5 -186.5t-152.5 -73.5q-53 0 -96 37q-39 39 -39 96q0 135 125 235.5t307 100.5q197 0 299 -138.5t102 -373.5q0 -326 -243.5 -594t-548.5 -268 q-154 0 -231.5 80.5t-77.5 203.5zM547 729l14 12l86 39q74 29 107 29q35 0 53 -31q10 -25 34.5 -38t55.5 -13q41 0 82 12q16 4 33 17l10 4l-4 -10q-18 -14 -88 -48q-8 -4 -43 -15t-60 -11q-39 0 -61 35q-8 16 -30.5 25t-61.5 14l-53 -7l-56 -16l-12 -2z" />
<glyph unicode="&#xde;" horiz-adv-x="2107" d="M63 156q0 55 30 103t87 73l19 6l8 -4l4 -4l-16 -15q-41 -20 -72 -63q-27 -43 -27 -88q0 -66 46 -110t141 -44q150 0 272 209q49 84 92 197l182 473q39 84 101 164q43 55 90 100l-117 -51q-82 -29 -139 -29q-47 0 -74.5 15.5t-27.5 52.5l12 59l12 49q0 18 -31 19 q-45 0 -125 -68q-66 -55 -110 -121l-21 -26l-6 -4q2 18 13 34q63 113 157 175.5t162 62.5q35 0 53.5 -19.5t18.5 -84.5q0 -55 10 -77t45 -22q51 0 180 72t189 151q12 12 26 15q10 0 15 -13l-9 -22q-68 -102 -96.5 -157.5t-56.5 -135.5l-92 -256l125 31l129 26 q66 121 149 220q117 133 256 211q176 94 371 94q98 0 151 -56q41 -45 41 -118q0 -35 -4 -43q0 -12 -10 -23l-4 -4l-8 10l2 17l8 41q0 55 -37 98q-47 53 -133 53q-176 0 -318 -123q-160 -141 -303 -469q-39 -90 -62.5 -150.5t-51.5 -146.5q-51 -166 -52 -266q0 -80 32 -125 t110 -45q168 0 323.5 185.5t241.5 463.5l49 185q27 127 27 192q0 63 -19.5 101t-66.5 38q-170 0 -324 -315q-70 -145 -104.5 -285.5t-34.5 -277.5v-39l2 -25l-2 -14l-6 4l-10 27l-2 61q0 287 150.5 588t332.5 301q70 0 104 -49q16 -25 24.5 -55.5t8.5 -75.5q0 -82 -22 -178 l-50 -187q-74 -268 -249 -461q-182 -209 -367 -208q-152 0 -226.5 91t-74.5 244q0 188 108 414q-31 -6 -58.5 -12t-63.5 -17l-121 -34l-49 -123q-31 -70 -70 -140q-102 -182 -223 -286q-154 -129 -344 -129q-109 0 -164.5 48t-55.5 120z" />
<glyph unicode="&#x42e;" horiz-adv-x="2107" d="M63 156q0 55 30 103t87 73l19 6l8 -4l4 -4l-16 -15q-41 -20 -72 -63q-27 -43 -27 -88q0 -66 46 -110t141 -44q150 0 272 209q49 84 92 197l182 473q39 84 101 164q43 55 90 100l-117 -51q-82 -29 -139 -29q-47 0 -74.5 15.5t-27.5 52.5l12 59l12 49q0 18 -31 19 q-45 0 -125 -68q-66 -55 -110 -121l-21 -26l-6 -4q2 18 13 34q63 113 157 175.5t162 62.5q35 0 53.5 -19.5t18.5 -84.5q0 -55 10 -77t45 -22q51 0 180 72t189 151q12 12 26 15q10 0 15 -13l-9 -22q-68 -102 -96.5 -157.5t-56.5 -135.5l-92 -256l125 31l129 26 q66 121 149 220q117 133 256 211q176 94 371 94q98 0 151 -56q41 -45 41 -118q0 -35 -4 -43q0 -12 -10 -23l-4 -4l-8 10l2 17l8 41q0 55 -37 98q-47 53 -133 53q-176 0 -318 -123q-160 -141 -303 -469q-39 -90 -62.5 -150.5t-51.5 -146.5q-51 -166 -52 -266q0 -80 32 -125 t110 -45q168 0 323.5 185.5t241.5 463.5l49 185q27 127 27 192q0 63 -19.5 101t-66.5 38q-170 0 -324 -315q-70 -145 -104.5 -285.5t-34.5 -277.5v-39l2 -25l-2 -14l-6 4l-10 27l-2 61q0 287 150.5 588t332.5 301q70 0 104 -49q16 -25 24.5 -55.5t8.5 -75.5q0 -82 -22 -178 l-50 -187q-74 -268 -249 -461q-182 -209 -367 -208q-152 0 -226.5 91t-74.5 244q0 188 108 414q-31 -6 -58.5 -12t-63.5 -17l-121 -34l-49 -123q-31 -70 -70 -140q-102 -182 -223 -286q-154 -129 -344 -129q-109 0 -164.5 48t-55.5 120z" />
<glyph unicode="&#xdf;" horiz-adv-x="1349" d="M-41 135q0 109 98 162l23 6l6 -4q-6 -10 -16 -16q-76 -51 -76 -144q0 -51 37 -88q39 -33 106 -33q127 0 262 150l217 301q80 113 205 180q35 18 172 66l-92 -8q-131 0 -220 68.5t-89 178.5q0 135 102 238q117 113 301 113q45 0 85 -6.5t81 -22.5q76 -25 125 -74l37 84 l186 19l-452 -1049q-35 -82 -35 -145q0 -39 11 -57.5t46 -18.5q82 0 176 119l97 135l18 12l12 -8l-8 -21q-104 -154 -145 -194q-94 -90 -221 -90q-66 0 -111 36.5t-45 110.5q0 59 35 141l196 453q-79 -30 -288 -311q-150 -199 -285 -301q-92 -68 -183 -102.5t-190 -34.5 q-84 0 -133 43q-45 45 -45 112zM750 924q0 -80 53 -127t143 -47q74 0 160 30l164 385q-66 76 -195 76q-143 0 -234 -96t-91 -221z" />
<glyph unicode="&#x42f;" horiz-adv-x="1349" d="M-41 135q0 109 98 162l23 6l6 -4q-6 -10 -16 -16q-76 -51 -76 -144q0 -51 37 -88q39 -33 106 -33q127 0 262 150l217 301q80 113 205 180q35 18 172 66l-92 -8q-131 0 -220 68.5t-89 178.5q0 135 102 238q117 113 301 113q45 0 85 -6.5t81 -22.5q76 -25 125 -74l37 84 l186 19l-452 -1049q-35 -82 -35 -145q0 -39 11 -57.5t46 -18.5q82 0 176 119l97 135l18 12l12 -8l-8 -21q-104 -154 -145 -194q-94 -90 -221 -90q-66 0 -111 36.5t-45 110.5q0 59 35 141l196 453q-79 -30 -288 -311q-150 -199 -285 -301q-92 -68 -183 -102.5t-190 -34.5 q-84 0 -133 43q-45 45 -45 112zM750 924q0 -80 53 -127t143 -47q74 0 160 30l164 385q-66 76 -195 76q-143 0 -234 -96t-91 -221z" />
<glyph unicode="&#xe0;" horiz-adv-x="759" d="M-23 164q0 188 139.5 314t311.5 126q115 0 115 -76l26 56l166 18l-243 -487l-21 -47l-10 -43q0 -18 16 -21q51 0 120 68.5t151 191.5l14 17l6 4l10 -13l-12 -22q-119 -176 -177.5 -223t-115.5 -47q-68 0 -94.5 30.5t-26.5 75.5q0 33 4 47l6 27q-53 -70 -94 -105 q-76 -66 -141 -65q-74 0 -112 48t-38 126zM96 53q0 -43 47 -43q43 0 104.5 56.5t153.5 185.5l109 217q6 10 10 39q0 29 -18.5 52.5t-57.5 23.5q-106 0 -233 -232q-115 -207 -115 -299z" />
<glyph unicode="&#x430;" horiz-adv-x="759" d="M-23 164q0 188 139.5 314t311.5 126q115 0 115 -76l26 56l166 18l-243 -487l-21 -47l-10 -43q0 -18 16 -21q51 0 120 68.5t151 191.5l14 17l6 4l10 -13l-12 -22q-119 -176 -177.5 -223t-115.5 -47q-68 0 -94.5 30.5t-26.5 75.5q0 33 4 47l6 27q-53 -70 -94 -105 q-76 -66 -141 -65q-74 0 -112 48t-38 126zM96 53q0 -43 47 -43q43 0 104.5 56.5t153.5 185.5l109 217q6 10 10 39q0 29 -18.5 52.5t-57.5 23.5q-106 0 -233 -232q-115 -207 -115 -299z" />
<glyph unicode="&#xe1;" horiz-adv-x="759" d="M-23 172q0 160 127 293q135 139 330 139q47 0 75 -23.5t30 -58.5l153 291l217 424q31 61 82 87t125 26h58q33 -6 47 -9l165 -18q57 0 87 20l6 3l-6 -17q-35 -31 -78 -53q-27 -10 -40.5 -13t-31.5 -3q-39 0 -96 22q-10 4 -39 12.5t-41 10.5q-27 0 -45 -17q-16 -10 -39 -55 q-33 -72 -107 -209l-168 -322l-170 -348q-80 -178 -197.5 -271t-287.5 -93q-68 0 -115 49q-41 51 -41 133zM94 47q0 -37 35 -37q88 0 182 115l45 63l35 56l64 114l61 127l4 21q0 27 -16.5 50.5t-48.5 23.5q-53 0 -101 -39q-63 -53 -139 -197q-57 -119 -89 -194.5t-32 -102.5 z" />
<glyph unicode="&#x431;" horiz-adv-x="759" d="M-23 172q0 160 127 293q135 139 330 139q47 0 75 -23.5t30 -58.5l153 291l217 424q31 61 82 87t125 26h58q33 -6 47 -9l165 -18q57 0 87 20l6 3l-6 -17q-35 -31 -78 -53q-27 -10 -40.5 -13t-31.5 -3q-39 0 -96 22q-10 4 -39 12.5t-41 10.5q-27 0 -45 -17q-16 -10 -39 -55 q-33 -72 -107 -209l-168 -322l-170 -348q-80 -178 -197.5 -271t-287.5 -93q-68 0 -115 49q-41 51 -41 133zM94 47q0 -37 35 -37q88 0 182 115l45 63l35 56l64 114l61 127l4 21q0 27 -16.5 50.5t-48.5 23.5q-53 0 -101 -39q-63 -53 -139 -197q-57 -119 -89 -194.5t-32 -102.5 z" />
<glyph unicode="&#xe2;" horiz-adv-x="694" d="M-10 264l4 12q53 80 162 207q86 104 114 125l127 252q109 213 156 268q39 41 81 62.5t81 21.5q57 0 94 -34.5t37 -92.5q0 -94 -141 -217l-125 -100l-111 -78l-217 -434q-51 -102 -51 -168q0 -78 65 -78q115 0 250 185q-41 25 -70 79q-25 55 -24 115q0 80 35 134.5 t102 54.5q59 0 86 -29q29 -25 29 -74q0 -57 -35 -127q-14 -35 -37.5 -71.5t-52.5 -71.5l20 -2q23 0 33 2t31 14q31 18 57 57l12 11l9 -11l-6 -18q-29 -43 -64 -61q-18 -8 -33.5 -12.5t-38.5 -4.5l-34 4q-45 -72 -119 -133q-88 -70 -162 -69q-82 0 -129 47q-45 51 -45 127 q0 45 4 59t10 30.5t12 28.5l136 269l-109 -129l-121 -152l-12 -8zM457 362q0 -47 18.5 -88t52.5 -61q14 18 27 39q2 2 27 47q39 78 39 117q0 25 -13.5 41t-48.5 16h-8q-45 0 -72 -33q-23 -33 -22 -78zM485 735l117 86l94 74q119 106 119 184q0 33 -15.5 53.5t-43.5 24.5 q-29 0 -66 -37q-29 -33 -106 -186z" />
<glyph unicode="&#x432;" horiz-adv-x="694" d="M-10 264l4 12q53 80 162 207q86 104 114 125l127 252q109 213 156 268q39 41 81 62.5t81 21.5q57 0 94 -34.5t37 -92.5q0 -94 -141 -217l-125 -100l-111 -78l-217 -434q-51 -102 -51 -168q0 -78 65 -78q115 0 250 185q-41 25 -70 79q-25 55 -24 115q0 80 35 134.5 t102 54.5q59 0 86 -29q29 -25 29 -74q0 -57 -35 -127q-14 -35 -37.5 -71.5t-52.5 -71.5l20 -2q23 0 33 2t31 14q31 18 57 57l12 11l9 -11l-6 -18q-29 -43 -64 -61q-18 -8 -33.5 -12.5t-38.5 -4.5l-34 4q-45 -72 -119 -133q-88 -70 -162 -69q-82 0 -129 47q-45 51 -45 127 q0 45 4 59t10 30.5t12 28.5l136 269l-109 -129l-121 -152l-12 -8zM457 362q0 -47 18.5 -88t52.5 -61q14 18 27 39q2 2 27 47q39 78 39 117q0 25 -13.5 41t-48.5 16h-8q-45 0 -72 -33q-23 -33 -22 -78zM485 735l117 86l94 74q119 106 119 184q0 33 -15.5 53.5t-43.5 24.5 q-29 0 -66 -37q-29 -33 -106 -186z" />
<glyph unicode="&#xe3;" horiz-adv-x="532" d="M29 133q0 88 57 152q41 45 127 84l127 53q61 25 63 57q0 37 -21.5 53.5t-62.5 16.5q-49 0 -100 -23q-49 -16 -96 -55l-14 -8l-9 -2l-8 6l2 6l12 19q37 39 99.5 69.5t126.5 30.5q92 0 139 -38t47 -105q0 -82 -57 -140q-41 -41 -131 -71q-127 -45 -166 -72t-39 -82 q0 -74 82 -74q94 0 207 119l112 147l21 17l6 -8q-6 -18 -10 -27q-53 -86 -111 -149q-115 -121 -233 -121q-70 0 -117 35q-53 41 -53 110z" />
<glyph unicode="&#x433;" horiz-adv-x="532" d="M29 133q0 88 57 152q41 45 127 84l127 53q61 25 63 57q0 37 -21.5 53.5t-62.5 16.5q-49 0 -100 -23q-49 -16 -96 -55l-14 -8l-9 -2l-8 6l2 6l12 19q37 39 99.5 69.5t126.5 30.5q92 0 139 -38t47 -105q0 -82 -57 -140q-41 -41 -131 -71q-127 -45 -166 -72t-39 -82 q0 -74 82 -74q94 0 207 119l112 147l21 17l6 -8q-6 -18 -10 -27q-53 -86 -111 -149q-115 -121 -233 -121q-70 0 -117 35q-53 41 -53 110z" />
<glyph unicode="&#xe4;" horiz-adv-x="759" d="M-281 -481q0 104 95 200q127 129 419 213l99 189q-37 -55 -94.5 -93t-120.5 -38q-59 0 -98 51t-39 129q0 156 122 289q135 147 332 147q53 0 82 -24q18 -16 27 -52l26 54l168 18l-317 -625q127 31 227 154l111 152l12 8q12 0 12 -17l-10 -18q-106 -154 -149 -197 q-84 -84 -215 -112l-166 -322q-61 -121 -164 -185.5t-215 -64.5q-72 0 -107 41q-37 37 -37 103zM-213 -508q0 -41 18.5 -65.5t59.5 -24.5q63 0 123 72q41 51 108 182l125 244q-176 -49 -305 -166t-129 -242zM100 55q0 -35 37 -35q45 0 112.5 57.5t129.5 145.5l143 271 q0 37 -18.5 61.5t-61.5 24.5q-100 0 -227 -232q-115 -211 -115 -293z" />
<glyph unicode="&#x434;" horiz-adv-x="759" d="M-281 -481q0 104 95 200q127 129 419 213l99 189q-37 -55 -94.5 -93t-120.5 -38q-59 0 -98 51t-39 129q0 156 122 289q135 147 332 147q53 0 82 -24q18 -16 27 -52l26 54l168 18l-317 -625q127 31 227 154l111 152l12 8q12 0 12 -17l-10 -18q-106 -154 -149 -197 q-84 -84 -215 -112l-166 -322q-61 -121 -164 -185.5t-215 -64.5q-72 0 -107 41q-37 37 -37 103zM-213 -508q0 -41 18.5 -65.5t59.5 -24.5q63 0 123 72q41 51 108 182l125 244q-176 -49 -305 -166t-129 -242zM100 55q0 -35 37 -35q45 0 112.5 57.5t129.5 145.5l143 271 q0 37 -18.5 61.5t-61.5 24.5q-100 0 -227 -232q-115 -211 -115 -293z" />
<glyph unicode="&#xe5;" horiz-adv-x="575" d="M-8 215q0 137 121 256q137 133 338 133q112 0 112 -74q0 -45 -56 -113.5t-132 -101.5q-20 -8 -33.5 -12t-52.5 -14l-90 -13l-33 -81q-10 -47 -10 -84q0 -47 19.5 -76t66.5 -29q94 0 190 92q51 51 133 174l15 11l10 -15l-8 -18q-84 -123 -138 -176q-92 -92 -198 -92 q-115 0 -184.5 61t-69.5 172zM211 303q37 0 69.5 7t48 12.5t40.5 17.5q68 33 118 92.5t50 99.5q0 45 -58 46q-23 0 -48 -11.5t-62 -47.5t-90 -105q-43 -62 -68 -111z" />
<glyph unicode="&#x435;" horiz-adv-x="575" d="M-8 215q0 137 121 256q137 133 338 133q112 0 112 -74q0 -45 -56 -113.5t-132 -101.5q-20 -8 -33.5 -12t-52.5 -14l-90 -13l-33 -81q-10 -47 -10 -84q0 -47 19.5 -76t66.5 -29q94 0 190 92q51 51 133 174l15 11l10 -15l-8 -18q-84 -123 -138 -176q-92 -92 -198 -92 q-115 0 -184.5 61t-69.5 172zM211 303q37 0 69.5 7t48 12.5t40.5 17.5q68 33 118 92.5t50 99.5q0 45 -58 46q-23 0 -48 -11.5t-62 -47.5t-90 -105q-43 -62 -68 -111z" />
<glyph unicode="&#xe6;" horiz-adv-x="1486" d="M-31 111q0 49 25.5 77.5t66.5 28.5q37 0 60 -22q23 -18 22 -60q0 -37 -22.5 -59.5t-57.5 -22.5q-41 0 -63 35q6 -68 113 -68q92 0 161 109q18 31 44 92.5t59 151.5l24 76l9 49q0 29 -13 51q-18 31 -63 31t-89 -38t-63 -93q-6 -25 -18 -29q-12 0 -14 20q0 55 64.5 120 t156.5 65q53 0 88 -30t35 -95q0 -57 -18.5 -123t-69.5 -166q41 61 118 135q49 49 102 95l124 102l20 49h129l-127 -377l80 107l92 98q96 96 195.5 144t197.5 48q37 0 56 -18q12 -16 16 -43q0 -25 -18.5 -43.5t-42.5 -18.5q-25 0 -45 15q-16 16 -17 45q0 20 10 37 q-38 -1 -73 -21l-41 -108l-49 -154l-35 -123l-15 -92q0 -70 70 -70q94 0 184 82q70 61 138 168l12 11l14 -11l-4 -12q-96 -143 -190 -211q-82 -57 -158 -57q-158 0 -158 141q0 102 41 199l43 102l45 92q-86 -43 -190 -160q-92 -98 -139.5 -174.5t-75.5 -187.5h-166l88 254 l57 154q10 25 39 86q-100 -82 -186 -168q-72 -72 -168 -187q-43 -72 -105.5 -109.5t-164.5 -37.5q-68 0 -104 30.5t-36 88.5z" />
<glyph unicode="&#x436;" horiz-adv-x="1486" d="M-31 111q0 49 25.5 77.5t66.5 28.5q37 0 60 -22q23 -18 22 -60q0 -37 -22.5 -59.5t-57.5 -22.5q-41 0 -63 35q6 -68 113 -68q92 0 161 109q18 31 44 92.5t59 151.5l24 76l9 49q0 29 -13 51q-18 31 -63 31t-89 -38t-63 -93q-6 -25 -18 -29q-12 0 -14 20q0 55 64.5 120 t156.5 65q53 0 88 -30t35 -95q0 -57 -18.5 -123t-69.5 -166q41 61 118 135q49 49 102 95l124 102l20 49h129l-127 -377l80 107l92 98q96 96 195.5 144t197.5 48q37 0 56 -18q12 -16 16 -43q0 -25 -18.5 -43.5t-42.5 -18.5q-25 0 -45 15q-16 16 -17 45q0 20 10 37 q-38 -1 -73 -21l-41 -108l-49 -154l-35 -123l-15 -92q0 -70 70 -70q94 0 184 82q70 61 138 168l12 11l14 -11l-4 -12q-96 -143 -190 -211q-82 -57 -158 -57q-158 0 -158 141q0 102 41 199l43 102l45 92q-86 -43 -190 -160q-92 -98 -139.5 -174.5t-75.5 -187.5h-166l88 254 l57 154q10 25 39 86q-100 -82 -186 -168q-72 -72 -168 -187q-43 -72 -105.5 -109.5t-164.5 -37.5q-68 0 -104 30.5t-36 88.5z" />
<glyph unicode="&#xe7;" horiz-adv-x="700" d="M-176 -477q0 139 149 262q123 98 375 203l4 32q0 63 -32.5 89t-102.5 26q-39 0 -57 -4l-39 -6l-64 -86q-41 -49 -67 -49q-25 0 -25 22q0 25 68 84l65 51q82 55 140 115q90 94 90 172q0 41 -18.5 66.5t-53.5 29.5q-39 0 -74 -34l-84 -111l-86 -121l-12 -6l-12 10l8 19 l96 137l62 82q41 49 93 74.5t93 25.5q59 0 99 -41t40 -108q0 -66 -30.5 -118t-102.5 -87q-20 -14 -115 -49q-66 -25 -96 -53q61 8 90 9t47 1q102 0 147.5 -22.5t65.5 -98.5q47 25 95 78q27 29 118 168l11 10l6 2l10 -8l-6 -19l-67 -95q-27 -38 -36 -48q-66 -82 -127 -109 q0 -55 -18 -129q-25 -106 -92.5 -235t-175.5 -209q-100 -70 -199 -70q-88 0 -134 42t-46 106zM-141 -471q0 -53 29.5 -87t93.5 -34q55 0 106 51.5t123 194.5l70 133q40 84 63 172q-240 -106 -346 -190q-139 -111 -139 -240z" />
<glyph unicode="&#x437;" horiz-adv-x="700" d="M-176 -477q0 139 149 262q123 98 375 203l4 32q0 63 -32.5 89t-102.5 26q-39 0 -57 -4l-39 -6l-64 -86q-41 -49 -67 -49q-25 0 -25 22q0 25 68 84l65 51q82 55 140 115q90 94 90 172q0 41 -18.5 66.5t-53.5 29.5q-39 0 -74 -34l-84 -111l-86 -121l-12 -6l-12 10l8 19 l96 137l62 82q41 49 93 74.5t93 25.5q59 0 99 -41t40 -108q0 -66 -30.5 -118t-102.5 -87q-20 -14 -115 -49q-66 -25 -96 -53q61 8 90 9t47 1q102 0 147.5 -22.5t65.5 -98.5q47 25 95 78q27 29 118 168l11 10l6 2l10 -8l-6 -19l-67 -95q-27 -38 -36 -48q-66 -82 -127 -109 q0 -55 -18 -129q-25 -106 -92.5 -235t-175.5 -209q-100 -70 -199 -70q-88 0 -134 42t-46 106zM-141 -471q0 -53 29.5 -87t93.5 -34q55 0 106 51.5t123 194.5l70 133q40 84 63 172q-240 -106 -346 -190q-139 -111 -139 -240z" />
<glyph unicode="&#xe8;" horiz-adv-x="880" d="M66 137q0 39 13 89t38 106l110 252l195 12l-170 -340l-53 -111q-20 -55 -21 -84q0 -43 43 -43q33 0 90 58q43 43 107 139l92 156l68 125l40 88l201 12l-211 -414q-39 -82 -39 -119q0 -51 39 -51q72 0 185 146q33 39 86 125l14 14l10 6l6 -8q-4 -20 -8 -25 q-78 -123 -125 -176q-94 -106 -174 -106t-115.5 30.5t-35.5 94.5q0 27 6 58.5t22 72.5q6 18 17 44l28 60l-39 -67l-47 -78q-61 -90 -102 -133q-76 -82 -133 -82q-137 0 -137 149z" />
<glyph unicode="&#x438;" horiz-adv-x="880" d="M66 137q0 39 13 89t38 106l110 252l195 12l-170 -340l-53 -111q-20 -55 -21 -84q0 -43 43 -43q33 0 90 58q43 43 107 139l92 156l68 125l40 88l201 12l-211 -414q-39 -82 -39 -119q0 -51 39 -51q72 0 185 146q33 39 86 125l14 14l10 6l6 -8q-4 -20 -8 -25 q-78 -123 -125 -176q-94 -106 -174 -106t-115.5 30.5t-35.5 94.5q0 27 6 58.5t22 72.5q6 18 17 44l28 60l-39 -67l-47 -78q-61 -90 -102 -133q-76 -82 -133 -82q-137 0 -137 149z" />
<glyph unicode="&#xe9;" horiz-adv-x="880" d="M66 137q0 39 13 89t38 106l110 252l195 12l-170 -340l-53 -111q-20 -55 -21 -84q0 -43 43 -43q33 0 90 58q43 43 107 139l92 156l68 125l40 88l201 12l-211 -414q-39 -82 -39 -119q0 -51 39 -51q72 0 185 146q33 39 86 125l14 14l10 6l6 -8q-4 -20 -8 -25 q-78 -123 -125 -176q-94 -106 -174 -106t-115.5 30.5t-35.5 94.5q0 27 6 58.5t22 72.5q6 18 17 44l28 60l-39 -67l-47 -78q-61 -90 -102 -133q-76 -82 -133 -82q-137 0 -137 149zM344 944q0 59 59 60q55 0 56 -62q0 -27 -27 -59q59 -53 146 -54q80 0 153 48q-12 18 -16 49 q0 31 20.5 52t46.5 21q23 0 39 -16q18 -12 19 -43q0 -23 -19.5 -45.5t-52.5 -42.5q-53 -29 -98 -43t-95 -14q-98 0 -174 57q-57 41 -57 92z" />
<glyph unicode="&#x439;" horiz-adv-x="880" d="M66 137q0 39 13 89t38 106l110 252l195 12l-170 -340l-53 -111q-20 -55 -21 -84q0 -43 43 -43q33 0 90 58q43 43 107 139l92 156l68 125l40 88l201 12l-211 -414q-39 -82 -39 -119q0 -51 39 -51q72 0 185 146q33 39 86 125l14 14l10 6l6 -8q-4 -20 -8 -25 q-78 -123 -125 -176q-94 -106 -174 -106t-115.5 30.5t-35.5 94.5q0 27 6 58.5t22 72.5q6 18 17 44l28 60l-39 -67l-47 -78q-61 -90 -102 -133q-76 -82 -133 -82q-137 0 -137 149zM344 944q0 59 59 60q55 0 56 -62q0 -27 -27 -59q59 -53 146 -54q80 0 153 48q-12 18 -16 49 q0 31 20.5 52t46.5 21q23 0 39 -16q18 -12 19 -43q0 -23 -19.5 -45.5t-52.5 -42.5q-53 -29 -98 -43t-95 -14q-98 0 -174 57q-57 41 -57 92z" />
<glyph unicode="&#xea;" horiz-adv-x="761" d="M-35 0l279 547l-99 -113q-78 -96 -139 -182l-6 -8q-8 0 -16 12l8 16q35 51 74.5 101.5t97.5 118.5l98 110l19 16l163 19l-323 -637h-156zM352 422q0 33 62 33q25 0 47 -11l39 -22q66 0 94 86q8 25 15 40t15.5 27.5t34 27.5t60.5 15q31 0 49 -18q12 -16 16 -43 q0 -27 -16 -44t-43 -17t-47 14q-12 12 -16 45l6 35q-31 -6 -58 -90q-16 -47 -36.5 -66.5t-53.5 -25.5q61 -31 62 -113q0 -33 -9 -57l-24 -60q-29 -51 -29 -92q0 -33 27 -35q47 0 119 96l92 129l10 11l6 2l10 -8l-2 -9l-10 -16q-90 -139 -158.5 -203.5t-128.5 -64.5 q-55 0 -82 26q-23 27 -22 76q0 49 18.5 104.5t53.5 94.5l36 45q12 18 17 37q0 18 -12 30l-45 -8l-21 -2q-72 0 -76 31z" />
<glyph unicode="&#x43a;" horiz-adv-x="761" d="M-35 0l279 547l-99 -113q-78 -96 -139 -182l-6 -8q-8 0 -16 12l8 16q35 51 74.5 101.5t97.5 118.5l98 110l19 16l163 19l-323 -637h-156zM352 422q0 33 62 33q25 0 47 -11l39 -22q66 0 94 86q8 25 15 40t15.5 27.5t34 27.5t60.5 15q31 0 49 -18q12 -16 16 -43 q0 -27 -16 -44t-43 -17t-47 14q-12 12 -16 45l6 35q-31 -6 -58 -90q-16 -47 -36.5 -66.5t-53.5 -25.5q61 -31 62 -113q0 -33 -9 -57l-24 -60q-29 -51 -29 -92q0 -33 27 -35q47 0 119 96l92 129l10 11l6 2l10 -8l-2 -9l-10 -16q-90 -139 -158.5 -203.5t-128.5 -64.5 q-55 0 -82 26q-23 27 -22 76q0 49 18.5 104.5t53.5 94.5l36 45q12 18 17 37q0 18 -12 30l-45 -8l-21 -2q-72 0 -76 31z" />
<glyph unicode="&#xeb;" horiz-adv-x="788" d="M-63 80q0 35 23.5 59.5t59.5 24.5q78 0 78 -82q0 -27 -8 -42t-35 -28q49 0 112.5 46t180.5 198q63 82 115 164l47 80q27 47 51 96l176 14l-106 -307q-51 -160 -51 -203q0 -33 16 -34q57 0 186 208q4 8 9 9l18 -11l-6 -10q-84 -133 -144 -194q-70 -70 -133 -70 q-43 0 -63.5 24.5t-20.5 92.5q0 76 33 194q16 59 36.5 113.5t47.5 107.5q-59 -119 -197 -303l-94 -118q-109 -119 -213 -119q-49 0 -83.5 22.5t-34.5 67.5z" />
<glyph unicode="&#x43b;" horiz-adv-x="788" d="M-63 80q0 35 23.5 59.5t59.5 24.5q78 0 78 -82q0 -27 -8 -42t-35 -28q49 0 112.5 46t180.5 198q63 82 115 164l47 80q27 47 51 96l176 14l-106 -307q-51 -160 -51 -203q0 -33 16 -34q57 0 186 208q4 8 9 9l18 -11l-6 -10q-84 -133 -144 -194q-70 -70 -133 -70 q-43 0 -63.5 24.5t-20.5 92.5q0 76 33 194q16 59 36.5 113.5t47.5 107.5q-59 -119 -197 -303l-94 -118q-109 -119 -213 -119q-49 0 -83.5 22.5t-34.5 67.5z" />
<glyph unicode="&#xec;" horiz-adv-x="1204" d="M-35 76q0 35 24.5 56.5t59.5 25.5q33 0 55.5 -19.5t22.5 -60.5q0 -27 -8 -42.5t-35 -27.5q117 0 231 164l123 199q80 129 156 192q39 33 100 60v-70q-6 -43 -10 -84t-45 -147l-53 -154l-18 -60q-9 -34 -9 -51q0 -29 25 -32q18 0 61 92l105 231q68 141 147 215 q49 43 100 60q0 -29 -2 -62t-9 -84t-42 -155l-35 -125l-14 -99q0 -80 61 -80q37 0 129 107q63 76 113 149l6 7l17 -19l-2 -6l-125 -168q-84 -98 -142 -98q-78 0 -126 50t-48 140q0 68 18.5 135.5t51.5 135.5q12 29 19 42t24 35l-51 -61q-37 -53 -68 -127 q-147 -344 -194 -344q-49 0 -86 43q-33 45 -33 119l6 80q4 29 8 42t21 54l43 96l61 98l-72 -82l-65 -92l-162 -245q-96 -119 -215 -119t-119 86z" />
<glyph unicode="&#x43c;" horiz-adv-x="1204" d="M-35 76q0 35 24.5 56.5t59.5 25.5q33 0 55.5 -19.5t22.5 -60.5q0 -27 -8 -42.5t-35 -27.5q117 0 231 164l123 199q80 129 156 192q39 33 100 60v-70q-6 -43 -10 -84t-45 -147l-53 -154l-18 -60q-9 -34 -9 -51q0 -29 25 -32q18 0 61 92l105 231q68 141 147 215 q49 43 100 60q0 -29 -2 -62t-9 -84t-42 -155l-35 -125l-14 -99q0 -80 61 -80q37 0 129 107q63 76 113 149l6 7l17 -19l-2 -6l-125 -168q-84 -98 -142 -98q-78 0 -126 50t-48 140q0 68 18.5 135.5t51.5 135.5q12 29 19 42t24 35l-51 -61q-37 -53 -68 -127 q-147 -344 -194 -344q-49 0 -86 43q-33 45 -33 119l6 80q4 29 8 42t21 54l43 96l61 98l-72 -82l-65 -92l-162 -245q-96 -119 -215 -119t-119 86z" />
<glyph unicode="&#xed;" horiz-adv-x="878" d="M-12 262l8 21l96 141q51 76 87 113.5t61 52.5q37 20 79 20q55 0 86 -42t31 -101q0 -55 -22 -92l-29 -51h121l147 260l162 12l-252 -479q-12 -29 -12 -56q0 -23 10 -38q12 -12 35 -15q70 0 160 109q31 37 108 151l15 13l6 4l10 -11l-10 -18q-27 -43 -51.5 -78t-53.5 -67 q-104 -123 -188 -123q-74 0 -111 43t-37 104q0 41 11.5 75t36.5 77h-119l-148 -287h-164l252 479q12 31 17 58q0 41 -47 41q-45 0 -174 -175l-91 -133l-18 -12l-6 -2z" />
<glyph unicode="&#x43d;" horiz-adv-x="878" d="M-12 262l8 21l96 141q51 76 87 113.5t61 52.5q37 20 79 20q55 0 86 -42t31 -101q0 -55 -22 -92l-29 -51h121l147 260l162 12l-252 -479q-12 -29 -12 -56q0 -23 10 -38q12 -12 35 -15q70 0 160 109q31 37 108 151l15 13l6 4l10 -11l-10 -18q-27 -43 -51.5 -78t-53.5 -67 q-104 -123 -188 -123q-74 0 -111 43t-37 104q0 41 11.5 75t36.5 77h-119l-148 -287h-164l252 479q12 31 17 58q0 41 -47 41q-45 0 -174 -175l-91 -133l-18 -12l-6 -2z" />
<glyph unicode="&#xee;" horiz-adv-x="616" d="M-12 211q0 158 137 281q127 111 266 110q78 0 117 -41.5t39 -111.5q0 -76 -36 -159t-79 -143q47 0 92 29t84 100q4 8 8 9q8 0 17 -11l-8 -18q-37 -74 -96.5 -106.5t-116.5 -32.5q-49 -61 -84 -86q-68 -49 -146 -49q-82 0 -138 65.5t-56 163.5zM133 98q0 -43 13.5 -67.5 t50.5 -24.5q121 0 215 168q84 152 84 295q0 47 -18.5 78t-61.5 31q-82 0 -182.5 -178.5t-100.5 -301.5z" />
<glyph unicode="&#x43e;" horiz-adv-x="616" d="M-12 211q0 158 137 281q127 111 266 110q78 0 117 -41.5t39 -111.5q0 -76 -36 -159t-79 -143q47 0 92 29t84 100q4 8 8 9q8 0 17 -11l-8 -18q-37 -74 -96.5 -106.5t-116.5 -32.5q-49 -61 -84 -86q-68 -49 -146 -49q-82 0 -138 65.5t-56 163.5zM133 98q0 -43 13.5 -67.5 t50.5 -24.5q121 0 215 168q84 152 84 295q0 47 -18.5 78t-61.5 31q-82 0 -182.5 -178.5t-100.5 -301.5z" />
<glyph unicode="&#xef;" horiz-adv-x="899" d="M-18 254l8 16l116 168q131 168 213 168q74 0 101 -41q18 -29 18 -84l-4 -30q49 63 102.5 108t104.5 45q47 0 74.5 -33.5t27.5 -91.5q0 -47 -16 -98t-59 -107.5t-73 -113t-30 -92.5q0 -47 60 -48q59 0 145 93q47 53 115 157l22 17l8 -11l-8 -20q-102 -160 -174 -219 q-59 -49 -121 -49q-82 0 -116.5 28.5t-34.5 106.5q0 37 19.5 94t62.5 133l75 121q31 49 35 76q0 25 -32 26q-43 0 -123 -82t-111 -141l-180 -350h-162l260 489l17 35l10 33q0 18 -21 18q-53 0 -176 -149q-59 -72 -131 -174l-12 -10z" />
<glyph unicode="&#x43f;" horiz-adv-x="899" d="M-18 254l8 16l116 168q131 168 213 168q74 0 101 -41q18 -29 18 -84l-4 -30q49 63 102.5 108t104.5 45q47 0 74.5 -33.5t27.5 -91.5q0 -47 -16 -98t-59 -107.5t-73 -113t-30 -92.5q0 -47 60 -48q59 0 145 93q47 53 115 157l22 17l8 -11l-8 -20q-102 -160 -174 -219 q-59 -49 -121 -49q-82 0 -116.5 28.5t-34.5 106.5q0 37 19.5 94t62.5 133l75 121q31 49 35 76q0 25 -32 26q-43 0 -123 -82t-111 -141l-180 -350h-162l260 489l17 35l10 33q0 18 -21 18q-53 0 -176 -149q-59 -72 -131 -174l-12 -10z" />
<glyph unicode="&#xf0;" horiz-adv-x="798" d="M-328 -610l680 1325l-196 -264l-144 -199l-18 -14q-12 0 -14 14l8 18l184 254q121 164 236 303l81 158l166 29l-252 -498q39 39 70 59q47 27 96 27q68 0 114 -49t46 -121q0 -59 -37 -123.5t-112 -111.5q-117 -74 -117 -140q0 -45 57 -45q59 0 158 107q66 76 117 162l14 8 q6 -4 10 -15l-10 -22q-96 -135 -131 -174q-86 -90 -178 -90q-76 0 -112 28.5t-36 75.5q0 82 87 147.5t134 145.5q43 68 43 125q0 70 -57 70q-51 0 -115.5 -59.5t-113.5 -149.5l-508 -981h-150z" />
<glyph unicode="&#x440;" horiz-adv-x="798" d="M-328 -610l680 1325l-196 -264l-144 -199l-18 -14q-12 0 -14 14l8 18l184 254q121 164 236 303l81 158l166 29l-252 -498q39 39 70 59q47 27 96 27q68 0 114 -49t46 -121q0 -59 -37 -123.5t-112 -111.5q-117 -74 -117 -140q0 -45 57 -45q59 0 158 107q66 76 117 162l14 8 q6 -4 10 -15l-10 -22q-96 -135 -131 -174q-86 -90 -178 -90q-76 0 -112 28.5t-36 75.5q0 82 87 147.5t134 145.5q43 68 43 125q0 70 -57 70q-51 0 -115.5 -59.5t-113.5 -149.5l-508 -981h-150z" />
<glyph unicode="&#xf1;" horiz-adv-x="585" d="M0 188q0 150 129 283t307 133q139 0 139 -94q0 -27 -19 -48.5t-54 -21.5q-20 0 -37 11q-27 16 -27 51q0 27 14.5 44t47.5 19h10q-10 10 -37 15q-92 0 -211 -178.5t-119 -305.5q0 -84 80 -84q104 0 205 82q78 61 139 168l15 12l6 2l6 -8l-8 -26q-82 -135 -187 -199 q-90 -55 -188 -55q-94 0 -152.5 56t-58.5 144z" />
<glyph unicode="&#x441;" horiz-adv-x="585" d="M0 188q0 150 129 283t307 133q139 0 139 -94q0 -27 -19 -48.5t-54 -21.5q-20 0 -37 11q-27 16 -27 51q0 27 14.5 44t47.5 19h10q-10 10 -37 15q-92 0 -211 -178.5t-119 -305.5q0 -84 80 -84q104 0 205 82q78 61 139 168l15 12l6 2l6 -8l-8 -26q-82 -135 -187 -199 q-90 -55 -188 -55q-94 0 -152.5 56t-58.5 144z" />
<glyph unicode="&#xf2;" horiz-adv-x="1220" d="M-16 260l6 10l180 240q92 96 158 96q55 0 83.5 -34.5t28.5 -82.5l-4 -32q47 63 82 96q58 53 109 53q68 0 106 -41q31 -35 31 -80l-4 -34q45 57 94 102q63 51 113 51q49 0 77.5 -34.5t28.5 -88.5q0 -45 -19.5 -97t-60.5 -109.5t-67.5 -115t-26.5 -89.5q0 -49 53 -50 q57 0 154 117l100 135l21 17l8 -13l-10 -24q-27 -41 -52.5 -76t-46.5 -61q-102 -127 -196 -127q-72 0 -112 26.5t-40 91.5q0 57 35 136l121 209q43 74 43 102q0 20 -23 22q-43 0 -123 -81q-68 -74 -129 -166l-167 -328h-156l246 481l14 33l6 35q0 27 -29 29q-35 0 -86 -52 q-12 -12 -48 -56t-93 -120l-180 -350h-160l260 489l15 33l8 31q0 14 -23 16q-61 0 -174 -139l-129 -174l-10 -6z" />
<glyph unicode="&#x442;" horiz-adv-x="1220" d="M-16 260l6 10l180 240q92 96 158 96q55 0 83.5 -34.5t28.5 -82.5l-4 -32q47 63 82 96q58 53 109 53q68 0 106 -41q31 -35 31 -80l-4 -34q45 57 94 102q63 51 113 51q49 0 77.5 -34.5t28.5 -88.5q0 -45 -19.5 -97t-60.5 -109.5t-67.5 -115t-26.5 -89.5q0 -49 53 -50 q57 0 154 117l100 135l21 17l8 -13l-10 -24q-27 -41 -52.5 -76t-46.5 -61q-102 -127 -196 -127q-72 0 -112 26.5t-40 91.5q0 57 35 136l121 209q43 74 43 102q0 20 -23 22q-43 0 -123 -81q-68 -74 -129 -166l-167 -328h-156l246 481l14 33l6 35q0 27 -29 29q-35 0 -86 -52 q-12 -12 -48 -56t-93 -120l-180 -350h-160l260 489l15 33l8 31q0 14 -23 16q-61 0 -174 -139l-129 -174l-10 -6z" />
<glyph unicode="&#xf3;" horiz-adv-x="940" d="M-150 -465q0 133 193 250q152 90 367 139l151 293q-74 -104 -131 -156q-84 -80 -156 -79q-66 0 -108 30q-37 31 -37 101q0 68 28.5 141.5t67.5 136.5l51 88q25 41 27 60q0 18 -27 18q-45 0 -174 -172l-106 -145l-14 -7l-11 11l4 10l207 274q23 23 50.5 37.5t66.5 18.5 q47 0 88 -30t41 -93q0 -78 -74 -219l-59 -103l-21 -47l-8 -45q0 -37 31 -37q57 0 207 170l114 144l134 260l163 18l-319 -627q115 45 203 134q59 57 133 163q10 10 16 13l10 -11l-10 -20q-70 -104 -135 -166q-90 -86 -229 -145l-172 -340q-53 -109 -161 -168.5t-226 -59.5 q-78 0 -126.5 43t-48.5 117zM-76 -485q0 -51 29 -80q25 -31 70 -31q63 0 115 46t120 173l143 273q-231 -61 -366 -181q-111 -98 -111 -200z" />
<glyph unicode="&#x443;" horiz-adv-x="940" d="M-150 -465q0 133 193 250q152 90 367 139l151 293q-74 -104 -131 -156q-84 -80 -156 -79q-66 0 -108 30q-37 31 -37 101q0 68 28.5 141.5t67.5 136.5l51 88q25 41 27 60q0 18 -27 18q-45 0 -174 -172l-106 -145l-14 -7l-11 11l4 10l207 274q23 23 50.5 37.5t66.5 18.5 q47 0 88 -30t41 -93q0 -78 -74 -219l-59 -103l-21 -47l-8 -45q0 -37 31 -37q57 0 207 170l114 144l134 260l163 18l-319 -627q115 45 203 134q59 57 133 163q10 10 16 13l10 -11l-10 -20q-70 -104 -135 -166q-90 -86 -229 -145l-172 -340q-53 -109 -161 -168.5t-226 -59.5 q-78 0 -126.5 43t-48.5 117zM-76 -485q0 -51 29 -80q25 -31 70 -31q63 0 115 46t120 173l143 273q-231 -61 -366 -181q-111 -98 -111 -200z" />
<glyph unicode="&#xf4;" horiz-adv-x="1222" d="M31 199q0 82 39 172q37 94 100 153q109 109 256 109q78 0 129 -29q53 -23 84 -74l272 535h152l-270 -535q111 86 229 86q172 0 172 -180q0 -86 -35 -174q-31 -88 -82 -158q-35 -51 -100.5 -81.5t-134.5 -30.5q-96 0 -160 40t-90 103l-348 -692h-154l326 645 q-41 -43 -86 -70q-47 -20 -101 -20q-86 0 -142 53t-56 148zM170 123q0 -43 16.5 -65.5t57.5 -22.5q57 0 105 31.5t118 119.5l145 289q-6 41 -49 74t-90 33q-51 0 -91 -19.5t-73 -66.5q-47 -63 -88 -160q-51 -125 -51 -213zM614 176q43 -123 160 -123q47 0 89 24.5t69 76.5 l49 94q53 119 53 211q0 43 -24.5 67.5t-67.5 24.5q-39 0 -84 -23q-45 -18 -100 -67z" />
<glyph unicode="&#x444;" horiz-adv-x="1222" d="M31 199q0 82 39 172q37 94 100 153q109 109 256 109q78 0 129 -29q53 -23 84 -74l272 535h152l-270 -535q111 86 229 86q172 0 172 -180q0 -86 -35 -174q-31 -88 -82 -158q-35 -51 -100.5 -81.5t-134.5 -30.5q-96 0 -160 40t-90 103l-348 -692h-154l326 645 q-41 -43 -86 -70q-47 -20 -101 -20q-86 0 -142 53t-56 148zM170 123q0 -43 16.5 -65.5t57.5 -22.5q57 0 105 31.5t118 119.5l145 289q-6 41 -49 74t-90 33q-51 0 -91 -19.5t-73 -66.5q-47 -63 -88 -160q-51 -125 -51 -213zM614 176q43 -123 160 -123q47 0 89 24.5t69 76.5 l49 94q53 119 53 211q0 43 -24.5 67.5t-67.5 24.5q-39 0 -84 -23q-45 -18 -100 -67z" />
<glyph unicode="&#xf5;" horiz-adv-x="815" d="M-18 256l12 20l151 209q88 106 183 107q59 0 93 -34t58 -118l43 60q19 24 35 39q55 51 111 51q47 0 75 -23q31 -18 31 -59q0 -29 -13 -42t-46 -17q-51 0 -51 51q0 16 11 31.5t36 17.5q-8 10 -17 12l-32 4q-47 0 -101 -59q-37 -41 -72 -107l9 -100l4 -119v-16 q0 -78 10 -111t49 -33q33 0 88.5 52.5t161.5 208.5l12 12l13 -2l2 -6l-13 -27q-80 -119 -125 -170q-86 -96 -151 -96q-94 0 -147.5 41t-73.5 143q-37 -80 -80 -123q-59 -63 -131 -63q-49 0 -83 20.5t-34 59.5q0 33 17.5 50t41.5 17q57 0 58 -55q0 -55 -41 -55q16 -12 41 -15 q55 0 114 68q27 33 88 141l-8 84l2 68l15 73l8 41l4 35q0 41 -39 41q-45 0 -102 -57l-191 -250l-10 -10z" />
<glyph unicode="&#x445;" horiz-adv-x="815" d="M-18 256l12 20l151 209q88 106 183 107q59 0 93 -34t58 -118l43 60q19 24 35 39q55 51 111 51q47 0 75 -23q31 -18 31 -59q0 -29 -13 -42t-46 -17q-51 0 -51 51q0 16 11 31.5t36 17.5q-8 10 -17 12l-32 4q-47 0 -101 -59q-37 -41 -72 -107l9 -100l4 -119v-16 q0 -78 10 -111t49 -33q33 0 88.5 52.5t161.5 208.5l12 12l13 -2l2 -6l-13 -27q-80 -119 -125 -170q-86 -96 -151 -96q-94 0 -147.5 41t-73.5 143q-37 -80 -80 -123q-59 -63 -131 -63q-49 0 -83 20.5t-34 59.5q0 33 17.5 50t41.5 17q57 0 58 -55q0 -55 -41 -55q16 -12 41 -15 q55 0 114 68q27 33 88 141l-8 84l2 68l15 73l8 41l4 35q0 41 -39 41q-45 0 -102 -57l-191 -250l-10 -10z" />
<glyph unicode="&#xf6;" horiz-adv-x="876" d="M-16 258l8 16l119 168l104 142l207 12l-205 -403l-22 -66q-12 -37 -13 -64q0 -43 33 -45q37 0 94 58q47 47 109 139l67 113l88 168l39 88l205 12l-209 -414l-28 -63q-12 -35 -13 -60q0 -47 49 -47q88 0 158 103l19 20l14 -8l-12 -72l-15 -67l43 22q25 10 45 29l9 -6 l-5 -8q-10 -16 -45 -35l-53 -35l-12 -74q-6 -43 -27 -86q-25 -68 -76 -67q-53 0 -53 59q0 29 12.5 55.5t44 61.5t91.5 69l28 111q-41 -53 -84 -74q-23 -10 -40 -15t-50 -5q-61 0 -105 31.5t-44 91.5q0 37 2 54t16.5 62t46.5 119l-86 -145q-74 -111 -136 -163t-107 -52 q-63 0 -98.5 43t-35.5 110l5 54q6 35 24 73l109 240l-191 -252l-8 -10zM631 -211q0 -35 31 -39q25 0 49 53l22 68l17 74q-18 -12 -41 -29.5t-33 -30.5q-23 -25 -34 -47t-11 -49z" />
<glyph unicode="&#x446;" horiz-adv-x="876" d="M-16 258l8 16l119 168l104 142l207 12l-205 -403l-22 -66q-12 -37 -13 -64q0 -43 33 -45q37 0 94 58q47 47 109 139l67 113l88 168l39 88l205 12l-209 -414l-28 -63q-12 -35 -13 -60q0 -47 49 -47q88 0 158 103l19 20l14 -8l-12 -72l-15 -67l43 22q25 10 45 29l9 -6 l-5 -8q-10 -16 -45 -35l-53 -35l-12 -74q-6 -43 -27 -86q-25 -68 -76 -67q-53 0 -53 59q0 29 12.5 55.5t44 61.5t91.5 69l28 111q-41 -53 -84 -74q-23 -10 -40 -15t-50 -5q-61 0 -105 31.5t-44 91.5q0 37 2 54t16.5 62t46.5 119l-86 -145q-74 -111 -136 -163t-107 -52 q-63 0 -98.5 43t-35.5 110l5 54q6 35 24 73l109 240l-191 -252l-8 -10zM631 -211q0 -35 31 -39q25 0 49 53l22 68l17 74q-18 -12 -41 -29.5t-33 -30.5q-23 -25 -34 -47t-11 -49z" />
<glyph unicode="&#xf7;" horiz-adv-x="686" d="M-18 256l8 16l166 234l-9 49q0 35 17.5 58.5t46.5 23.5q39 0 39 -39q0 -14 -10.5 -30.5t-28.5 -32.5q25 -94 92 -95q68 0 201 88l49 45l43 33q16 12 31 12q23 0 26 -30q0 -49 -69 -174l-92 -158l-74 -127q-31 -61 -31 -92q0 -25 27 -27q68 0 174 140l98 137l19 12l6 -6 l-9 -25q-74 -125 -155 -205q-39 -37 -74 -56t-65 -19q-63 0 -99 35q-33 39 -33 88q0 109 72 221q43 68 123 153q-115 -96 -195 -96q-78 0 -108 88l-74 -100l-88 -125l-12 -10q-4 2 -7 7t-5 7z" />
<glyph unicode="&#x447;" horiz-adv-x="686" d="M-18 256l8 16l166 234l-9 49q0 35 17.5 58.5t46.5 23.5q39 0 39 -39q0 -14 -10.5 -30.5t-28.5 -32.5q25 -94 92 -95q68 0 201 88l49 45l43 33q16 12 31 12q23 0 26 -30q0 -49 -69 -174l-92 -158l-74 -127q-31 -61 -31 -92q0 -25 27 -27q68 0 174 140l98 137l19 12l6 -6 l-9 -25q-74 -125 -155 -205q-39 -37 -74 -56t-65 -19q-63 0 -99 35q-33 39 -33 88q0 109 72 221q43 68 123 153q-115 -96 -195 -96q-78 0 -108 88l-74 -100l-88 -125l-12 -10q-4 2 -7 7t-5 7z" />
<glyph unicode="&#xf8;" horiz-adv-x="1286" d="M-16 258l8 16l125 175l104 135l201 12l-205 -403l-22 -66q-12 -37 -13 -64q0 -43 33 -45q37 0 94 58q47 47 109 139l102 168l64 113l39 88l194 12l-209 -414q-33 -59 -33 -119q0 -51 37 -51q57 0 129 90l80 113l99 164l65 117l41 88l195 12l-209 -414q-18 -31 -31 -67 l-10 -54q0 -43 47 -43q53 0 143 99q45 51 119 155l12 11l6 -13l-6 -16q-66 -106 -114 -160q-92 -104 -166 -104q-82 0 -118 29.5t-36 103.5q0 53 29 131l39 94l-52 -90l-32 -55q-66 -100 -103 -137q-70 -76 -131 -76q-68 0 -108 35q-39 39 -39 100q0 63 26 137q12 41 37 86 l-86 -145q-61 -92 -106 -137q-74 -78 -137 -78q-61 0 -97.5 37.5t-36.5 119.5q0 61 54 183q43 106 94 180l-119 -143l-82 -109l-8 -10z" />
<glyph unicode="&#x448;" horiz-adv-x="1286" d="M-16 258l8 16l125 175l104 135l201 12l-205 -403l-22 -66q-12 -37 -13 -64q0 -43 33 -45q37 0 94 58q47 47 109 139l102 168l64 113l39 88l194 12l-209 -414q-33 -59 -33 -119q0 -51 37 -51q57 0 129 90l80 113l99 164l65 117l41 88l195 12l-209 -414q-18 -31 -31 -67 l-10 -54q0 -43 47 -43q53 0 143 99q45 51 119 155l12 11l6 -13l-6 -16q-66 -106 -114 -160q-92 -104 -166 -104q-82 0 -118 29.5t-36 103.5q0 53 29 131l39 94l-52 -90l-32 -55q-66 -100 -103 -137q-70 -76 -131 -76q-68 0 -108 35q-39 39 -39 100q0 63 26 137q12 41 37 86 l-86 -145q-61 -92 -106 -137q-74 -78 -137 -78q-61 0 -97.5 37.5t-36.5 119.5q0 61 54 183q43 106 94 180l-119 -143l-82 -109l-8 -10z" />
<glyph unicode="&#xf9;" horiz-adv-x="1257" d="M-16 258l8 16l94 127l137 183l199 12l-205 -403l-22 -66q-12 -37 -13 -64q0 -43 33 -45q37 0 94 58q47 47 109 139l92 154l68 127l40 88l199 12l-209 -414q-33 -59 -33 -119q0 -51 37 -51q57 0 129 90l80 113l90 152l68 129l41 88l201 12l-209 -414l-29 -59 q-10 -33 -14 -64q0 -47 49 -47q53 0 90 25q14 10 32.5 30.5t35.5 47.5l14 14l8 6l6 -8l-28 -139l92 47l8 2l4 -6l-6 -13l-47 -30l-56 -29q-8 -49 -15 -83t-13 -50q-29 -100 -88 -100q-25 0 -40.5 17t-15.5 50q0 51 58 109q27 27 94 71l18 95q-29 -45 -66.5 -61.5 t-90.5 -16.5q-74 0 -114 33.5t-40 109.5q0 49 29 123l39 92l-84 -145q-61 -96 -101 -137q-70 -76 -133 -76q-150 0 -149 137q0 49 26 127l39 94l-86 -145q-74 -111 -136 -163t-107 -52q-63 0 -98.5 43t-35.5 110q0 70 45 162l97 205l-90 -113l-105 -139l-8 -10zM1024 -207 q0 -45 33 -47q29 0 51 55q18 53 37 144q-74 -59 -92 -80q-29 -39 -29 -72z" />
<glyph unicode="&#x449;" horiz-adv-x="1257" d="M-16 258l8 16l94 127l137 183l199 12l-205 -403l-22 -66q-12 -37 -13 -64q0 -43 33 -45q37 0 94 58q47 47 109 139l92 154l68 127l40 88l199 12l-209 -414q-33 -59 -33 -119q0 -51 37 -51q57 0 129 90l80 113l90 152l68 129l41 88l201 12l-209 -414l-29 -59 q-10 -33 -14 -64q0 -47 49 -47q53 0 90 25q14 10 32.5 30.5t35.5 47.5l14 14l8 6l6 -8l-28 -139l92 47l8 2l4 -6l-6 -13l-47 -30l-56 -29q-8 -49 -15 -83t-13 -50q-29 -100 -88 -100q-25 0 -40.5 17t-15.5 50q0 51 58 109q27 27 94 71l18 95q-29 -45 -66.5 -61.5 t-90.5 -16.5q-74 0 -114 33.5t-40 109.5q0 49 29 123l39 92l-84 -145q-61 -96 -101 -137q-70 -76 -133 -76q-150 0 -149 137q0 49 26 127l39 94l-86 -145q-74 -111 -136 -163t-107 -52q-63 0 -98.5 43t-35.5 110q0 70 45 162l97 205l-90 -113l-105 -139l-8 -10zM1024 -207 q0 -45 33 -47q29 0 51 55q18 53 37 144q-74 -59 -92 -80q-29 -39 -29 -72z" />
<glyph unicode="&#xfa;" horiz-adv-x="978" d="M-18 256l8 16l180 256l-6 17l-4 28q0 18 3 28.5t16.5 32t45.5 25.5q39 0 39 -41q0 -18 -26 -51q18 -25 46.5 -38t75.5 -13h31q14 0 32.5 3t38 8t48.5 16l29 55l157 12l-49 -98l-57 -106q4 4 29.5 20t31.5 20q47 20 97 21q80 0 129 -41q63 -51 63 -145q0 -113 -84 -203 q-90 -98 -223 -98q-129 0 -191.5 55t-62.5 147q0 63 27 135q16 49 67 150l-76 -14l-57 -4q-94 0 -154 57l-180 -254l-12 -10q-4 2 -7 7t-5 7zM504 137q0 -55 30.5 -94t75.5 -39q82 0 147.5 96.5t65.5 214.5q0 57 -19.5 87t-74.5 30q-53 0 -98 -29q-31 -18 -68 -55l-41 -100 q-18 -60 -18 -111z" />
<glyph unicode="&#x44a;" horiz-adv-x="978" d="M-18 256l8 16l180 256l-6 17l-4 28q0 18 3 28.5t16.5 32t45.5 25.5q39 0 39 -41q0 -18 -26 -51q18 -25 46.5 -38t75.5 -13h31q14 0 32.5 3t38 8t48.5 16l29 55l157 12l-49 -98l-57 -106q4 4 29.5 20t31.5 20q47 20 97 21q80 0 129 -41q63 -51 63 -145q0 -113 -84 -203 q-90 -98 -223 -98q-129 0 -191.5 55t-62.5 147q0 63 27 135q16 49 67 150l-76 -14l-57 -4q-94 0 -154 57l-180 -254l-12 -10q-4 2 -7 7t-5 7zM504 137q0 -55 30.5 -94t75.5 -39q82 0 147.5 96.5t65.5 214.5q0 57 -19.5 87t-74.5 30q-53 0 -98 -29q-31 -18 -68 -55l-41 -100 q-18 -60 -18 -111z" />
<glyph unicode="&#xfb;" horiz-adv-x="1161" d="M-10 262l4 14q143 209 233 316l207 24l-182 -360q-59 -119 -59 -184q0 -68 65 -68q31 0 55.5 8t63.5 33q74 47 125 127q-49 27 -88 84t-39 113q0 23 11 41t34 18q39 0 82 -50t43 -124l-4 -35l-9 -37l23 -4q20 0 52 19.5t83 78.5l115 152l113 156l12 10l198 18l-180 -356 l-47 -109q-25 -68 -29 -102q0 -31 23 -33q57 0 147 109q37 43 103 143l14 17l6 2l9 -13l-9 -20q-84 -129 -131 -180q-82 -88 -160 -88q-57 0 -85.5 22.5t-28.5 79.5q0 63 44 182t142 307l-115 -151l-129 -164q-51 -61 -87.5 -83.5t-61.5 -22.5q-20 0 -35 8 q-39 -59 -106 -115q-82 -63 -158 -63q-82 0 -129 49t-47 123q0 63 28 120l148 316l-111 -146l-131 -182l-10 -10z" />
<glyph unicode="&#x44b;" horiz-adv-x="1161" d="M-10 262l4 14q143 209 233 316l207 24l-182 -360q-59 -119 -59 -184q0 -68 65 -68q31 0 55.5 8t63.5 33q74 47 125 127q-49 27 -88 84t-39 113q0 23 11 41t34 18q39 0 82 -50t43 -124l-4 -35l-9 -37l23 -4q20 0 52 19.5t83 78.5l115 152l113 156l12 10l198 18l-180 -356 l-47 -109q-25 -68 -29 -102q0 -31 23 -33q57 0 147 109q37 43 103 143l14 17l6 2l9 -13l-9 -20q-84 -129 -131 -180q-82 -88 -160 -88q-57 0 -85.5 22.5t-28.5 79.5q0 63 44 182t142 307l-115 -151l-129 -164q-51 -61 -87.5 -83.5t-61.5 -22.5q-20 0 -35 8 q-39 -59 -106 -115q-82 -63 -158 -63q-82 0 -129 49t-47 123q0 63 28 120l148 316l-111 -146l-131 -182l-10 -10z" />
<glyph unicode="&#xfc;" horiz-adv-x="665" d="M18 184q0 43 16.5 97.5t55.5 140.5l88 176l164 12l-113 -204l25 19q10 7 39 21q47 20 94 21q80 0 136.5 -46t56.5 -140q0 -115 -87 -208t-221 -93q-115 0 -184.5 55t-69.5 149zM145 147q0 -61 29 -102t78 -41q82 0 147.5 108.5t65.5 215.5q0 49 -19.5 76.5t-74.5 27.5 q-51 0 -101 -29q-33 -18 -67 -55l-43 -117l-10 -43q-5 -18 -5 -41z" />
<glyph unicode="&#x44c;" horiz-adv-x="665" d="M18 184q0 43 16.5 97.5t55.5 140.5l88 176l164 12l-113 -204l25 19q10 7 39 21q47 20 94 21q80 0 136.5 -46t56.5 -140q0 -115 -87 -208t-221 -93q-115 0 -184.5 55t-69.5 149zM145 147q0 -61 29 -102t78 -41q82 0 147.5 108.5t65.5 215.5q0 49 -19.5 76.5t-74.5 27.5 q-51 0 -101 -29q-33 -18 -67 -55l-43 -117l-10 -43q-5 -18 -5 -41z" />
<glyph unicode="&#xfd;" horiz-adv-x="673" d="M-12 123q0 51 31.5 83t80.5 32l41 -7q10 0 15 -18q-2 -4 -6.5 -7t-6.5 -5l-16 4l-29 4q-33 0 -55 -23q-23 -18 -23 -57q0 -53 35 -85t123 -32q135 0 232 164q86 145 86 293q0 51 -23 80q-18 31 -65 31q-45 0 -62 -5q-18 0 -41 -14q14 -2 26.5 -16.5t16.5 -40.5 q0 -27 -18 -45q-14 -10 -43 -15q-61 0 -62 60q0 43 33 67q47 37 152 37q94 0 165.5 -65.5t71.5 -161.5q0 -145 -110 -262q-133 -137 -357 -137q-102 0 -147 38.5t-45 102.5zM98 324l11 14l57 35q41 16 76 20q45 0 64.5 -46t68.5 -46q23 0 41 8l33 21l14 4l4 -4l-8 -11 l-66 -40q-27 -10 -40 -13.5t-31 -3.5q-43 0 -62 31q-12 33 -31.5 43t-42.5 14l-34 -8l-37 -18l-11 -5z" />
<glyph unicode="&#x44d;" horiz-adv-x="673" d="M-12 123q0 51 31.5 83t80.5 32l41 -7q10 0 15 -18q-2 -4 -6.5 -7t-6.5 -5l-16 4l-29 4q-33 0 -55 -23q-23 -18 -23 -57q0 -53 35 -85t123 -32q135 0 232 164q86 145 86 293q0 51 -23 80q-18 31 -65 31q-45 0 -62 -5q-18 0 -41 -14q14 -2 26.5 -16.5t16.5 -40.5 q0 -27 -18 -45q-14 -10 -43 -15q-61 0 -62 60q0 43 33 67q47 37 152 37q94 0 165.5 -65.5t71.5 -161.5q0 -145 -110 -262q-133 -137 -357 -137q-102 0 -147 38.5t-45 102.5zM98 324l11 14l57 35q41 16 76 20q45 0 64.5 -46t68.5 -46q23 0 41 8l33 21l14 4l4 -4l-8 -11 l-66 -40q-27 -10 -40 -13.5t-31 -3.5q-43 0 -62 31q-12 33 -31.5 43t-42.5 14l-34 -8l-37 -18l-11 -5z" />
<glyph unicode="&#xfe;" horiz-adv-x="1081" d="M-12 262l8 21l84 127q78 109 127 153q23 23 49.5 35t67.5 12q49 0 82.5 -37.5t33.5 -80.5q0 -66 -32 -132l-23 -43h109q39 113 153.5 199t233.5 86q80 0 118 -45q33 -39 33 -108q0 -72 -37 -165.5t-77 -136.5q43 6 79.5 34t81.5 104l11 10l14 -8q-4 -20 -8 -25 q-35 -68 -90 -106q-41 -27 -105 -39q-57 -70 -104 -99q-61 -37 -127 -36q-88 0 -142.5 65.5t-54.5 165.5l2 39l6 35h-108l-142 -287h-170l252 479q12 31 17 60q0 43 -37 43q-33 0 -76 -45t-115 -144l-84 -123l-18 -12l-6 -2zM621 94q0 -37 15 -62.5t48 -25.5q78 0 150 74 q53 59 104 178l31 94q16 66 16 117q0 47 -18.5 78t-61.5 31q-59 0 -131 -93q-43 -55 -92 -159l-45 -121q-16 -66 -16 -111z" />
<glyph unicode="&#x44e;" horiz-adv-x="1081" d="M-12 262l8 21l84 127q78 109 127 153q23 23 49.5 35t67.5 12q49 0 82.5 -37.5t33.5 -80.5q0 -66 -32 -132l-23 -43h109q39 113 153.5 199t233.5 86q80 0 118 -45q33 -39 33 -108q0 -72 -37 -165.5t-77 -136.5q43 6 79.5 34t81.5 104l11 10l14 -8q-4 -20 -8 -25 q-35 -68 -90 -106q-41 -27 -105 -39q-57 -70 -104 -99q-61 -37 -127 -36q-88 0 -142.5 65.5t-54.5 165.5l2 39l6 35h-108l-142 -287h-170l252 479q12 31 17 60q0 43 -37 43q-33 0 -76 -45t-115 -144l-84 -123l-18 -12l-6 -2zM621 94q0 -37 15 -62.5t48 -25.5q78 0 150 74 q53 59 104 178l31 94q16 66 16 117q0 47 -18.5 78t-61.5 31q-59 0 -131 -93q-43 -55 -92 -159l-45 -121q-16 -66 -16 -111z" />
<glyph unicode="&#xff;" horiz-adv-x="796" d="M-70 82q0 29 23.5 52.5t58.5 23.5q33 0 56.5 -19.5t23.5 -60.5q0 -27 -8 -42.5t-35 -27.5l10 -2q51 0 97 39q29 29 69 98q55 98 117 148q20 16 98 51q-51 0 -100 27q-68 35 -68 100q0 68 50 117q57 57 151 57q55 0 95 -15.5t63 -49.5l18 38h158l-223 -438l-29 -67 q-12 -37 -12 -60t18 -26q37 0 117 94q57 70 115 157l14 11q6 -4 10 -15l-4 -12q-59 -94 -111 -156q-98 -117 -170 -116q-47 0 -83 24q-31 25 -31 78q0 39 28 109l170 354q-25 49 -86 49q-47 0 -92 -48t-45 -105q0 -29 18.5 -55.5t47.5 -41.5q16 16 37 21q18 0 18 -19l-6 -12 l-14 -8l-7 -2q-41 -18 -145 -213q-37 -66 -107.5 -98.5t-146.5 -32.5q-88 0 -123 22.5t-35 71.5z" />
<glyph unicode="&#x44f;" horiz-adv-x="796" d="M-70 82q0 29 23.5 52.5t58.5 23.5q33 0 56.5 -19.5t23.5 -60.5q0 -27 -8 -42.5t-35 -27.5l10 -2q51 0 97 39q29 29 69 98q55 98 117 148q20 16 98 51q-51 0 -100 27q-68 35 -68 100q0 68 50 117q57 57 151 57q55 0 95 -15.5t63 -49.5l18 38h158l-223 -438l-29 -67 q-12 -37 -12 -60t18 -26q37 0 117 94q57 70 115 157l14 11q6 -4 10 -15l-4 -12q-59 -94 -111 -156q-98 -117 -170 -116q-47 0 -83 24q-31 25 -31 78q0 39 28 109l170 354q-25 49 -86 49q-47 0 -92 -48t-45 -105q0 -29 18.5 -55.5t47.5 -41.5q16 16 37 21q18 0 18 -19l-6 -12 l-14 -8l-7 -2q-41 -18 -145 -213q-37 -66 -107.5 -98.5t-146.5 -32.5q-88 0 -123 22.5t-35 71.5z" />
<glyph unicode="&#x152;" horiz-adv-x="2043" d="M158 150q0 49 22.5 86.5t69.5 66.5l18 8l8 -8l-14 -16q-35 -18 -55.5 -52t-20.5 -79q0 -55 37 -100.5t105 -45.5q154 0 270 205q29 49 184 424q-37 -12 -76.5 -29.5t-99.5 -48.5q-106 -53 -141 -88l-10 -4l-6 4l10 16q37 41 149 103q82 41 183 78q27 78 50 135t52 113 q74 139 176 235l-113 -49q-92 -33 -147 -33q-96 0 -96 70l2 28l10 37l8 43q0 18 -28 19q-45 0 -125 -68q-66 -55 -111 -121l-20 -26l-7 -4l-4 6l13 28q66 111 165 179q88 59 154 59q41 0 58.5 -19.5t17.5 -82.5q0 -59 12 -80t43 -21q51 0 174 72q137 78 191 151l16 13l10 4 q14 0 17 -15l-11 -22q-84 -127 -147 -279q-35 -86 -107 -307l121 35l127 29l287 573l201 21l-279 -564q12 4 32.5 11.5t71 17.5t89.5 10q150 0 239 -102q82 -94 82 -236q0 -236 -172 -401q-160 -154 -364 -154q-166 0 -257.5 86t-91.5 236q0 100 41 215q31 94 109 254 l-152 -37q-37 -8 -61.5 -15t-36.5 -14q-37 -98 -71.5 -176t-79.5 -153q-106 -180 -226 -271q-150 -113 -325 -112q-80 0 -125 47q-20 23 -32.5 51.5t-12.5 63.5zM1296 258q0 -115 48.5 -181.5t134.5 -66.5q178 0 297 254q94 207 94 375q0 190 -187 190q-53 0 -118 -18 l-84 -23q-84 -156 -134.5 -302t-50.5 -228z" />
<glyph unicode="&#x153;" horiz-adv-x="1089" d="M-12 262l8 21l96 141q51 76 87 113.5t61 52.5q37 20 79 20q55 0 86 -42t31 -101q0 -37 -4 -51l-24 -54l-23 -38h121l147 260l162 12l-106 -190l57 22q20 6 63 10q84 0 145.5 -54t61.5 -144q0 -94 -71 -168q-90 -92 -256 -92q-117 0 -181.5 52t-64.5 138q0 53 29 117h-119 l-148 -287h-164l252 479q12 31 17 58q0 41 -47 41q-45 0 -174 -175l-91 -133l-18 -12l-6 -2zM604 135q0 -55 32 -93t79 -38q84 0 151 105q29 49 43.5 93t14.5 95q0 49 -23 78q-29 37 -94 37q-37 0 -68 -15l-49 -26l-63 -144q-23 -57 -23 -92z" />
<glyph unicode="&#x178;" horiz-adv-x="880" d="M-45 -446q0 66 68 120q35 29 127 72l51 158q6 18 20 20l8 -12l-26 -88l-25 -68l109 39l10 2l8 -10q-2 -4 -4 -7t-4 -5l-125 -51q-43 -127 -74 -175q-37 -55 -88 -55q-55 0 -55 60zM-18 -442q0 -35 30 -39q37 0 62.5 39t68.5 155q-82 -39 -100 -53q-61 -43 -61 -102z M66 137q0 39 13 89t38 106l110 252l195 12l-170 -340l-53 -111q-20 -55 -21 -84q0 -43 43 -43q33 0 90 58q43 43 107 139l92 156l68 125l40 88l201 12l-211 -414q-39 -82 -39 -119q0 -51 39 -51q72 0 185 146q33 39 86 125l14 14l10 6l6 -8q-4 -20 -8 -25 q-78 -123 -125 -176q-94 -106 -174 -106t-115.5 30.5t-35.5 94.5q0 27 6 58.5t22 72.5q6 18 17 44l28 60l-39 -67l-47 -78q-61 -90 -102 -133q-76 -82 -133 -82q-137 0 -137 149z" />
<glyph unicode="&#x2c6;" horiz-adv-x="532" d="M147 682q6 23 11 31l90 164q74 129 84 131q6 -16 10 -29q16 -47 29 -92l43 -180l4 -23l-4 -8l-4 -4l-17 22l-76 207l-139 -201l-16 -18l-8 -6z" />
<glyph unicode="&#x2dc;" horiz-adv-x="409" d="M-244 136l4 15q12 31 38.5 44t61.5 17l37 -2l41 -12l39 -19q25 -12 51 -16q33 0 51 31l11 10l10 -6l-4 -19q-12 -25 -45 -43q-29 -10 -64 -14l-47 2q-12 0 -39 14l-33 19q-12 6 -36 10q-35 0 -54 -27l-10 -10z" />
<glyph unicode="&#x2000;" horiz-adv-x="794" />
<glyph unicode="&#x2001;" horiz-adv-x="1589" />
<glyph unicode="&#x2002;" horiz-adv-x="794" />
<glyph unicode="&#x2003;" horiz-adv-x="1589" />
<glyph unicode="&#x2004;" horiz-adv-x="529" />
<glyph unicode="&#x2005;" horiz-adv-x="397" />
<glyph unicode="&#x2006;" horiz-adv-x="264" />
<glyph unicode="&#x2007;" horiz-adv-x="264" />
<glyph unicode="&#x2008;" horiz-adv-x="198" />
<glyph unicode="&#x2009;" horiz-adv-x="317" />
<glyph unicode="&#x200a;" horiz-adv-x="88" />
<glyph unicode="&#x2010;" horiz-adv-x="520" d="M37 352l12 10q53 23 90 33l64 11q39 0 55 -2.5t41 -14.5l55 -12l64 -6q33 0 53 10l8 2l8 -6l-8 -12q-25 -18 -74 -33t-79 -15l-56 2l-43 15q-55 20 -116 20l-54 -6l-8 -2z" />
<glyph unicode="&#x2011;" horiz-adv-x="520" d="M37 352l12 10q53 23 90 33l64 11q39 0 55 -2.5t41 -14.5l55 -12l64 -6q33 0 53 10l8 2l8 -6l-8 -12q-25 -18 -74 -33t-79 -15l-56 2l-43 15q-55 20 -116 20l-54 -6l-8 -2z" />
<glyph unicode="&#x2012;" horiz-adv-x="520" d="M37 352l12 10q53 23 90 33l64 11q39 0 55 -2.5t41 -14.5l55 -12l64 -6q33 0 53 10l8 2l8 -6l-8 -12q-25 -18 -74 -33t-79 -15l-56 2l-43 15q-55 20 -116 20l-54 -6l-8 -2z" />
<glyph unicode="&#x2013;" horiz-adv-x="671" d="M53 365l15 16q20 10 82 27q31 6 58 10t58 4q39 0 99 -12l92 -21l69 -8q45 0 86 20l9 2l6 -4l-6 -12q-25 -18 -82.5 -38.5t-116.5 -20.5l-53 2q-18 0 -56 14l-84 25q-43 12 -79 12q-45 0 -78 -16l-13 -5z" />
<glyph unicode="&#x2014;" horiz-adv-x="1079" d="M59 319l13 19q61 36 141 59q37 6 71.5 10.5t80.5 4.5q133 0 217 -21l163 -33l107 -10l74 4q27 0 56.5 9.5t57.5 25.5l13 4l-11 -18q-49 -37 -139 -56q-45 -6 -85 -10t-81 -4l-127 6l-143 25l-125 24q-59 12 -84 13h-31l-34 -6l-66 -25l-49 -21l-12 -4z" />
<glyph unicode="&#x2018;" horiz-adv-x="440" d="M313 934q0 23 12.5 54.5t88.5 98.5l56 47q22 19 56 44l27 14l-14 -14q-78 -61 -105.5 -96t-27.5 -60q0 -18 4 -23l14 -30l6 -33q0 -25 -14.5 -39t-46.5 -18q-56 0 -56 55z" />
<glyph unicode="&#x2019;" horiz-adv-x="561" d="M301 899l14 14l78 58q72 55 72 94l-8 22q-23 29 -23 64q0 31 15.5 50.5t50.5 23.5q59 0 59 -66q0 -29 -8 -51q-16 -43 -84 -98l-117 -84z" />
<glyph unicode="&#x201a;" horiz-adv-x="274" d="M-78 -227l23 16q35 20 51 33q6 4 45 35q86 68 86 114l-12 27l-19 39l-8 41q0 37 18.5 61.5t61.5 24.5q39 0 55 -23q18 -18 19 -57q0 -25 -13 -61q-18 -49 -102 -119q-55 -45 -139 -103l-58 -30z" />
<glyph unicode="&#x201c;" horiz-adv-x="671" d="M350 1079q0 27 11.5 57.5t80.5 90.5q49 43 117 86l49 26l-14 -16l-78 -55q-72 -59 -72 -97l11 -22q20 -27 20 -64q0 -33 -15.5 -52t-49.5 -19q-59 0 -60 65zM578 1079q0 27 11 57.5t81 90.5q49 43 116 86l41 22l9 4l-15 -16l-78 -55q-72 -59 -71 -97l8 -22q22 -27 22 -64 q0 -33 -15 -50t-50 -21q-59 0 -59 65z" />
<glyph unicode="&#x201d;" horiz-adv-x="624" d="M283 825l14 15q82 66 107.5 97.5t25.5 57.5q0 18 -4 23l-14 29l-6 34q0 25 14 39.5t47 18.5q55 -1 55 -56q0 -27 -10 -47q-16 -41 -90 -106l-56 -48q-22 -18 -57 -42zM492 825l14 15q82 66 107.5 97.5t25.5 57.5q0 18 -4 23l-14 29l-7 34q0 25 14.5 39.5t47.5 18.5 q55 -1 55 -56q0 -27 -10 -47q-16 -41 -90 -106l-55 -48q-23 -18 -58 -42z" />
<glyph unicode="&#x201e;" horiz-adv-x="624" d="M10 -41l19 12l77 56q72 59 72 96l-8 22q-23 29 -23 64q0 31 15.5 52.5t50.5 21.5q59 0 59 -68q0 -27 -8 -49q-16 -43 -84 -98l-117 -86l-47 -27zM238 -41l18 12l78 56q72 59 72 96l-9 22q-22 29 -22 64q0 31 15.5 52.5t49.5 21.5q59 0 60 -68q0 -27 -8 -49 q-16 -43 -84 -98l-117 -86l-49 -27z" />
<glyph unicode="&#x2022;" horiz-adv-x="649" d="M133 295q0 78 51 131q59 61 156 61q90 0 138 -51t48 -121q0 -78 -51 -131q-59 -61 -156 -61q-86 0 -139 49q-47 51 -47 123z" />
<glyph unicode="&#x2026;" horiz-adv-x="854" d="M86 59q0 31 21.5 57.5t58.5 26.5q29 0 47 -19t18 -48q0 -31 -20.5 -57.5t-58.5 -26.5q-31 0 -50 18q-12 16 -16 49zM373 59q0 31 21.5 57.5t58.5 26.5q29 0 47 -19t18 -48q0 -31 -20.5 -57.5t-58.5 -26.5q-31 0 -50 18q-12 16 -16 49zM659 59q0 31 21.5 57.5t58.5 26.5 q29 0 47 -19t18 -48q0 -31 -20.5 -57.5t-58.5 -26.5q-31 0 -50 18q-12 16 -16 49z" />
<glyph unicode="&#x202f;" horiz-adv-x="317" />
<glyph unicode="&#x2039;" horiz-adv-x="440" d="M39 403q0 16 86 89l223 161l17 9l10 2l10 -9q0 -14 -25 -32q-55 -37 -133 -121q-66 -72 -69 -88q0 -18 37.5 -94t87.5 -138q16 -20 20 -37l-10 -10l-10 4l-25 15q-61 51 -138 138.5t-81 110.5z" />
<glyph unicode="&#x203a;" horiz-adv-x="440" d="M53 158q0 14 25 32q55 37 133 121q66 72 70 88q0 18 -38 94t-87 138q-16 20 -21 37l10 10l11 -4l24 -15q53 -45 139 -141q80 -85 80 -108q0 -27 -139 -129l-170 -121l-16 -8l-11 -2z" />
<glyph unicode="&#x205f;" horiz-adv-x="397" />
<glyph unicode="&#x2122;" horiz-adv-x="669" d="M217 1153l21 51h200l-6 -51h-10v10q0 31 -35 31h-35l-57 -217h27l-3 -10h-92l4 10h27l57 217h-32q-37 0 -56 -41h-10zM426 967l2 10h27l59 219h-27l2 8h60l18 -180l107 180h67l-2 -8h-26l-60 -219h27l-2 -10h-90l2 10h26l54 201l-125 -211h-8l-19 196l-51 -186h27l-2 -10 h-66z" />
<glyph unicode="&#xe000;" horiz-adv-x="550" d="M0 550h550v-550h-550v550z" />
<glyph unicode="&#xfb01;" horiz-adv-x="933" d="M491 238l8 22l205 283l172 12l-234 -446q-10 -23 -14 -54q0 -47 45 -47q61 0 147 101q37 41 101 141l14 12l6 2l6 -6l-6 -20q-104 -158 -163.5 -204t-122.5 -46q-61 0 -93 37.5t-32 93.5q0 47 18 88l127 256l-162 -223l-10 -11zM816 764q0 35 22.5 59.5t61.5 24.5 q31 0 49.5 -19.5t18.5 -50.5t-20.5 -57.5t-61.5 -26.5q-31 0 -53 19q-12 16 -17 51zM-324 -567l324 628q-18 12 -18 33q0 35 30 35q12 0 19 -6l194 379q-41 -25 -129 -144l-88 -120l-10 -7l-10 9q0 8 2 12q2 0 2 2l121 166q78 100 133 135l71 150q45 94 89 163 q63 104 149 183q98 86 184 86t86 -74q0 -49 -25.5 -106.5t-78.5 -116.5q-68 -72 -165 -153t-183 -126l-240 -526l37 -17q35 -12 76 -12q57 0 153 121l99 131l12 8q12 0 12 -12l-4 -12q-90 -131 -131 -176q-74 -84 -141 -84q-41 0 -65.5 5t-61.5 21l-295 -575h-148zM387 598 q72 41 155.5 107.5t153.5 144.5q104 121 105 213q0 47 -45 47q-55 0 -138 -90q-63 -70 -114 -162l-60 -123z" />
</font>
</defs>
</svg>
