<?xml version="1.0" standalone="no"?>
<!DOCTYPE svg PUBLIC "-//W3C//DTD SVG 1.1//EN" "http://www.w3.org/Graphics/SVG/1.1/DTD/svg11.dtd" >
<svg xmlns="http://www.w3.org/2000/svg">
<metadata>
This is a custom SVG webfont generated by Font Squirrel.
Copyright   : Copyright c Ivan Zeifert works 2003 All rights reserved
Foundry     : Ivan Zeifert works
</metadata>
<defs>
<font id="CansellaristCansellarist" horiz-adv-x="632" >
<font-face units-per-em="2048" ascent="1638" descent="-410" />
<missing-glyph horiz-adv-x="1894" />
<glyph unicode=" "  horiz-adv-x="1894" />
<glyph unicode="&#x09;" horiz-adv-x="1894" />
<glyph unicode="&#xa0;" horiz-adv-x="1894" />
<glyph unicode="!" horiz-adv-x="795" d="M87 65q0 65 46 113q46 50 98 50q37 0 58 -23q18 -26 18 -61q0 -61 -42 -114q-47 -50 -99 -48q-33 0 -57 22q-22 24 -22 61zM818 1778q50 0 83 -32q33 -29 35 -79q0 -33 -18 -80q-15 -33 -97 -163q-101 -166 -177 -310q-80 -152 -144 -318q-69 -182 -128 -365 q-30 -87 -72 -87q-37 0 -39 39q0 18 31 91q84 181 152 379q68 205 113 398l65 246q37 155 83 220q41 61 113 61z" />
<glyph unicode="&#x22;" horiz-adv-x="666" d="M705 1186l-43 22l111 285q4 4 8 11q0 -4 11 33q26 73 46 97q19 22 52 22t57 -19q26 -26 26 -57q0 -37 -55 -109q-4 -4 -16 -19.5t-20 -23.5zM470 1186l-43 22l111 285q8 7 19 44q26 73 46 97q19 22 52 22t57 -19q26 -26 26 -57q0 -37 -55 -109l-35 -43z" />
<glyph unicode="#" horiz-adv-x="1230" d="M-65 -1197h-151l845 1399q-265 -213 -448 -213q-94 0 -148 61q-53 57 -51 152q0 112 64 242q65 130 189 257q318 333 651 333q102 0 167 -33q64 -37 64 -91q0 -26 -14 -46q-23 -19 -50 -19q-34 0 -76 34l-37 35q-58 50 -144 48q-102 0 -213 -61q-109 -61 -200 -159 q-94 -102 -152 -218q-61 -117 -61 -224q0 -72 46 -119q43 -42 110 -40q201 0 436 253q163 178 170 289q4 42 37 40h11h32q129 0 250 73q122 75 196 197q72 117 72 247q0 136 -67 218q-64 87 -168 89q-65 0 -113 -39l-42 -34q-23 -14 -45 -16q-22 0 -42 20q-15 22 -15 45 q0 49 54 87q53 33 133 35q159 0 261 -115q101 -117 101 -290q0 -134 -72 -263q-76 -130 -196 -215q-122 -83 -255 -96z" />
<glyph unicode="$" horiz-adv-x="1219" d="M723 1073l8 -9l209 538h-43q-79 0 -151 -37q-73 -42 -113 -107q-43 -65 -43 -143q0 -113 133 -242zM723 792l-11 11l-296 -766l58 -4q125 0 227 58q106 61 167 151q57 98 57 213q0 122 -83 215q-21 24 -119 122zM1121 1844l-72 -185q129 -18 213 -83q87 -65 87 -129 q0 -30 -19 -48q-18 -23 -54 -24q-46 0 -75 42l-52 69q-50 64 -130 94l-227 -572q7 -7 18 -19t47 -38q116 -109 170 -205q46 -91 46 -197q0 -159 -83 -292q-87 -137 -232 -211q-144 -76 -318 -76h-50l-72 -186h-87l76 198q-170 29 -292 123q-117 95 -117 206q0 37 26 65 q26 25 65 25q42 0 61 -22q18 -26 48 -107q37 -91 91 -135q53 -54 148 -80l314 807l-7 7q-106 102 -152 185q-42 84 -41 180q0 122 65 222q65 98 178 155q109 58 250 58h11h11l68 173h87z" />
<glyph unicode="%" horiz-adv-x="1591" d="M1402 538q0 -125 -76 -257q-79 -129 -198 -216q-116 -83 -231 -83q-105 0 -159.5 54.5t-54.5 159.5q0 113 83 244q76 130 224 246q196 159 373 159q58 0 95 -24q37 -18 39 -55q0 -19 -15 -35q-15 -15 -39 -15q-19 0 -59 11q-50 19 -104 19q-79 0 -166 -49 q-87 -53 -159 -144q-50 -68 -87 -159q-37 -94 -37 -159q0 -72 37 -113q37 -42 98 -42q83 0 162 61q80 64 130 159q46 98 46 196q0 37 -16 87q-8 22 -8 35q0 42 43 41q37 0 55 -30q24 -33 24 -91zM361 0h-159l1245 1537q-95 -22 -148 -22q-84 0 -219 50q-64 19 -103 19 q-109 0 -226 -84q-116 -79 -194 -205q-76 -126 -76 -239q0 -76 43 -120q42 -50 101 -50q122 0 228 126q98 126 98 276q0 64 -11 107q-19 46 -19 55q0 19 15 36q11 11 30 11q42 0 64 -47q26 -50 26 -116q0 -126 -76 -250q-79 -133 -196 -213q-116 -83 -235 -83q-94 0 -151 61 q-54 57 -54 148q0 152 107 302q102 155 269 255q162 98 318 98q68 0 102 -11l114 -31q61 -19 121 -19q64 0 133 31q72 34 118 91l41 -42l-11 -12q-106 -109 -428 -499l-482 -611q-224 -299 -370 -523z" />
<glyph unicode="&#x26;" horiz-adv-x="2442" d="M1160 1371q220 109 337 220q113 113 113 209q0 43 -30 68q-30 26 -80 26q-76 0 -151 -72q-80 -72 -124 -188q-54 -123 -65 -263zM1432 289q76 83 133 207q54 116 52 213q0 151 -83 246q-84 90 -208 90q-83 0 -166 -37l4 -11q18 -133 55 -266q37 -130 93 -239 q51 -113 120 -203zM997 1219q-166 -94 -288 -214q-126 -117 -182 -247q-65 -125 -65 -258q0 -186 134 -319q137 -129 318 -127q209 0 394 124q-113 136 -198 333q-80 201 -102 386q-144 -151 -144 -344q0 -98 50 -213l-46 -22q-61 102 -61 224q0 257 194 435v13 q-4 122 -4 135v94zM1153 1095v-11q122 57 253 56q159 0 242 -91q87 -91 87 -250q0 -133 -72 -283q-68 -148 -189 -274q62 -64 139 -101q76 -43 141 -43q83 0 174 68q94 69 162 174l39 -29q-61 -141 -198 -239q-133 -102 -264 -102q-80 0 -156 37q-72 34 -155 123l-7 7l-8 -7 q-166 -110 -296 -152q-126 -50 -264 -50q-228 0 -372 140q-144 137 -144 348q0 455 675 831q37 22 65 37v11q25 265 151 433q84 109 193 174q105 65 216 65q87 0 137 -43q54 -37 52 -109q0 -113 -102 -217q-102 -98 -340 -220l-137 -66l-22 -13q-4 -61 -4 -109q0 -12 4 -95z " />
<glyph unicode="'" horiz-adv-x="431" d="M470 1186l-43 22l111 285q8 7 19 44q26 73 46 97q19 22 52 22t57 -19q26 -26 26 -57q0 -37 -55 -109l-35 -43z" />
<glyph unicode="(" horiz-adv-x="1259" d="M618 -405l-4 -26h-68q-4 105 -4 91q0 116 19 318q18 174 49 329q54 307 163 594q102 292 269 585q159 281 390 593l99 126l90.5 110l113.5 129q156 170 272 264h96q-177 -177 -314 -358q-152 -202 -300 -456q-155 -264 -274 -492q-109 -212 -210 -462q-99 -228 -187 -485 q-163 -477 -200 -860z" />
<glyph unicode=")" horiz-adv-x="1259" d="M1565 2686l4 22h68q4 -105 4 -90q0 -109 -24 -311q-19 -181 -45 -337q-42 -224 -118 -455q-72 -239 -166 -431q-98 -209 -232 -425q-133 -221 -310 -463l-200 -246q-106 -126 -194 -211q-113 -113 -182 -170h-94q170 170 318 363q137 181 296 451q102 166 204 363 q101 185 179 357q80 170 152 344q72 181 135 375q79 228 133 444q46 178 72 420z" />
<glyph unicode="*" horiz-adv-x="926" d="M1698 2107h8l7 11l-7 8h-8l-9 -8zM1891 1955l-182 152l37 -231l8 -39q4 -37 4 -33q0 -22 -15 -39q-15 -15 -41 -15q-22 0 -39 19q-18 14 -18 35q0 3 1.5 12.5t1.5 20.5l8 39l37 231l-182 -152l-25 -24q-30 -29 -54 -29q-19 0 -37 22q-19 18 -20 43q0 33 57 57l35 11 l222 83l-222 80l-35 11q-30 15 -41 29q-15 12 -16 32q0 22 20 41q18 18 37 20q18 0 54 -31l25 -19l182 -152l-37 232l-8 33q-3 42 -3 39q0 18 18 33q19 15 39 15q26 0 41 -11q15 -15 15 -37q0 7 -4 -39l-8 -33l-37 -232l182 152l26 19q37 29 53 31q22 0 41 -17 q15 -18 17 -44q0 -22 -17 -35q-11 -15 -41 -26l-33 -11l-224 -80l224 -83l33 -11q58 -22 58 -57q0 -26 -17 -47q-19 -18 -37 -18q-19 0 -57 29z" />
<glyph unicode="," d="M-68 -242l-8 -4l-26 33q185 141 207 217h-14q-73 0 -73 79q0 58 39 102q34 43 87 43q37 0 65 -26q22 -26 22 -69q0 -83 -79 -183q-80 -102 -220 -192z" />
<glyph unicode="-" horiz-adv-x="965" d="M126 474v122h612v-122h-612z" />
<glyph unicode="." d="M37 65q0 61 43 109q46 54 98 54q42 0 57 -23q22 -26 22 -61q0 -61 -41 -114q-46 -50 -99 -48q-34 0 -56 22q-24 27 -24 61z" />
<glyph unicode="/" horiz-adv-x="1465" d="M1974 2708h98l-1883 -3139h-102z" />
<glyph unicode="0" horiz-adv-x="1491" d="M1443 1143q0 69 -22 119q-22 46 -83 101q-34 30 -34 58q0 26 22 50q23 22 52 22q46 0 89 -43q46 -42 67 -101q26 -65 27 -137q0 -95 -38 -215q-34 -116 -102 -242q-80 -141 -167 -255q-101 -134 -212 -235q-296 -289 -568 -287q-178 0 -282 98q-105 94 -105 264 q0 167 109 391q106 213 296 422q228 249 466 373q235 130 463 130q148 0 227 -39q84 -43 84 -113q0 -30 -15 -46q-19 -19 -46 -19q-23 0 -65 28l-72 52q-87 65 -196 65q-182 0 -406 -167q-227 -170 -397 -427q-69 -102 -122 -213q-54 -117 -84 -220q-26 -102 -26 -189 q0 -137 65 -216q61 -80 178 -80q133 0 288 98q152 102 302 289q152 181 231 359q76 177 76 325z" />
<glyph unicode="1" horiz-adv-x="760" d="M213 30l-17 -30h-233q50 94 141.5 249.5t224.5 360.5l130 187.5l101 144t85 115.5l139 183l235 290l19 28q-144 -98 -348 -213q-205 -113 -346 -170l-26 87q58 14 113 42q22 8 213 98q155 76 213 102q46 26 192 122q98 69 118 67q8 0 19 -4q7 -7 11 -15q7 -7 7 -18 q0 -15 -40 -69l-58 -68q-76 -87 -201 -272l-171 -274l-181 -303l-170 -313z" />
<glyph unicode="2" horiz-adv-x="1172" d="M977 337l50 -19q-54 -155 -148 -246q-91 -94 -196 -94q-122 0 -256 102l-113 86q-68 62 -129 62q-65 0 -87 -39q-30 -34 -30 -113q0 -91 -68 -91q-83 0 -83 98q0 137 148 274q109 105 379 246q224 113 344 193q117 75 189 155q174 177 176 372q0 83 -39 155 q-37 65 -106 102q-64 42 -144 42q-94 0 -181 -46q-91 -50 -145 -129q-57 -76 -57 -163q0 -94 102 -102q72 -7 103 -22q23 -15 23 -54q0 -42 -30 -76q-37 -25 -89 -25q-83 0 -142 64q-58 61 -58 156q0 125 80 238q79 113 216 182q134 68 280 68q116 0 205 -42 q87 -43 137 -121q50 -79 48 -187q0 -368 -622 -680l-275 -137q-318 -159 -361 -289q83 57 187 57q126 0 257 -90q46 -37 98 -69q33 -22 61 -33q19 -7 54 -9q135 0 222 224z" />
<glyph unicode="3" horiz-adv-x="1208" d="M583 834l35 56q250 54 398 179q148 126 148 287q0 122 -80 194q-79 76 -205 76q-80 0 -163 -39q-83 -42 -130 -98q-46 -65 -44 -129q0 -34 19 -52q18 -19 75 -32q91 -11 91 -75q0 -37 -30 -65q-33 -30 -79 -30q-69 0 -118 58q-50 53 -49 127q0 113 73 209q64 91 188 156 q122 53 257 53q167 0 274 -83q102 -87 102 -224q0 -140 -120 -274q-126 -133 -328 -207q106 -11 167 -79q61 -76 61 -191q0 -163 -117 -322q-126 -159 -314 -253q-193 -98 -387 -98q-170 0 -270 79q-102 76 -102 200q0 113 83 194q87 80 210 80q75 0 112 -35q47 -34 47 -87 q0 -33 -30 -57q-30 -30 -65 -30q-29 0 -57 11l-61 24q-30 11 -48 11q-46 0 -76 -35q-30 -33 -32 -91q0 -83 80 -144q80 -57 198 -55q155 0 294 79q137 76 224 207q87 130 87 278q0 109 -63 174q-68 61 -187 61q-18 0 -68 -8z" />
<glyph unicode="4" horiz-adv-x="1215" d="M636 648l4 7l-15 7q-116 30 -201 32q-65 0 -110 -28q-46 -26 -94 -98q-42 -65 -98 -65q-18 0 -42 21q-15 14 -15 33q0 33 57 76q122 87 215 174q79 75 187 209q212 268 210 423q0 61 -29 108l-39 48q-15 22 -15 53q0 30 32 58q26 22 68 22q65 0 106 -61q42 -57 40 -141 q0 -87 -37 -174q-37 -79 -137 -209q-144 -188 -359 -392l-20 -20q148 72 300 72q42 0 79 -4l8 8q29 53 88.5 145.5l104.5 161l88.5 131.5t71.5 100q46 65 117 155l42 -29l-15 -28q-72 -113 -159 -268q-98 -178 -205 -398l-4 -11l8 -4q3 0 16 -3.5t41 -16.5q80 -26 117 -26 q64 0 98 76q22 50 53 50q15 0 22 -8q12 -11 13 -27q0 -47 -50 -95q-50 -50 -122 -79q-79 -30 -142 -30q-50 0 -126 19l-61 -130l-57 -128q-102 -212 -150 -364h-220l14 30q121 260 322 618z" />
<glyph unicode="5" horiz-adv-x="1143" d="M329 788l-40 26l525 823q174 -101 322 -103q205 0 364 140l43 -29q-196 -265 -494 -267q-141 0 -276 61l-349 -525q166 94 307 94q140 0 235 -87q90 -87 90 -220q0 -109 -55 -231q-57 -122 -156 -231q-105 -117 -249 -185q-145 -69 -285 -69q-170 0 -278 80 q-105 79 -105 203q0 98 72 169q72 68 174 66q68 0 115 -29q42 -34 40 -80q0 -37 -22 -65q-22 -26 -57 -26q-15 0 -15 4l-61 11q-22 8 -57 8q-47 0 -74 -23q-34 -25 -36 -68q0 -76 87 -133q84 -58 195 -56q133 0 257 87q129 87 209 224q83 141 83 272q0 105 -68 174 q-69 68 -184 68q-124 0 -257 -83z" />
<glyph unicode="6" horiz-adv-x="1309" d="M568 857l-11 48q102 79 213 122q109 46 199 46q123 0 195 -80q72 -79 72 -205q0 -159 -115 -340q-109 -178 -307 -318q-205 -152 -413 -152q-151 0 -231 87q-83 83 -83 235q0 166 83 359q83 196 235 386q76 95 161 182.5t192 171.5q341 272 637 272q116 0 192 -37 q76 -43 76 -104q0 -26 -18 -48q-19 -22 -54 -24q-37 0 -76 20l-98 52q-87 46 -174 46q-109 0 -238 -79q-137 -80 -278 -232q-189 -209 -314 -458q-123 -250 -121 -435q0 -117 69 -198q68 -80 174 -80q125 0 249 87q122 84 200 224q76 141 76 281q0 72 -30 132q-29 53 -83 96 q-57 33 -122 33q-120 0 -257 -90z" />
<glyph unicode="7" horiz-adv-x="904" d="M614 818l-7 -11h250l-36 -61h-260l-4 -12q-246 -351 -361 -669q-54 -159 -52 -304q0 -101 30 -216q22 -72 22 -106q0 -42 -33 -68q-30 -26 -80 -26q-68 0 -113 69q-46 61 -46 170q0 140 61 322q65 185 178 390l124 198.5t168 239.5l7 12h-209l36 61h218l9 11l207 262 l319 344l22 26q-163 -57 -291 -55q-109 0 -220 41q-105 42 -105 90q0 26 33 72l65 84h26q26 -76 140 -128q117 -54 254 -54q87 0 170 26q140 152 194 152q43 0 41 -33q0 -69 -178 -141q-116 -105 -288 -311q-174 -209 -291 -375z" />
<glyph unicode="8" horiz-adv-x="1248" d="M731 875q-178 -43 -307 -113q-126 -68 -189 -163q-65 -90 -65 -201q0 -152 95 -246q98 -102 242 -102q126 0 227 55q98 54 167 156q61 98 61 209q0 203 -231 405zM882 984l12 6q357 122 357 305q0 83 -73 93l-35 3q-53 8 -51 56q0 33 25 53q23 15 65 15q80 0 130 -48 q50 -50 48 -129q0 -130 -109 -235q-113 -106 -315 -171q170 -185 170 -379q0 -116 -53 -224q-54 -109 -139 -188q-91 -84 -202 -130q-109 -46 -238 -44q-202 0 -330 105q-133 102 -133 265q0 205 167 353q159 144 505 242q-69 91 -100 160q-30 64 -30 136q0 130 76 239 t205 178q130 64 280 64q116 0 181 -31q68 -26 68 -80q0 -18 -14 -33q-19 -18 -41 -18q-19 0 -76 22l-50 15q-83 33 -170 33q-137 0 -231 -87q-98 -91 -98 -207q0 -65 37 -137q37 -69 118 -152q7 -7 16.5 -14.5t11.5 -11t7.5 -12t8.5 -12.5z" />
<glyph unicode="9" horiz-adv-x="1280" d="M955 868l29 -34q-98 -122 -214 -194q-122 -68 -221 -68q-125 0 -205 79q-79 80 -79 202q0 177 129 366q126 193 318 318q193 122 380 122q148 0 231 -83q87 -83 87 -235q0 -311 -318 -738q-224 -300 -482 -459q-264 -166 -512 -166q-126 0 -203 37q-84 37 -84 102 q0 25 23 49q22 26 49 26q37 0 67 -22l87 -57q80 -50 187 -48q133 0 283 94q155 98 307 272q94 113 166.5 226t122.5 218q101 228 101 401q0 126 -64 206q-65 79 -167 79q-126 0 -253 -94q-117 -87 -200 -235q-80 -148 -80 -288q0 -102 56 -171q61 -64 155 -64q137 0 304 159 z" />
<glyph unicode=":" d="M37 65q0 61 43 109q46 54 98 54q42 0 57 -23q22 -26 22 -61q0 -61 -41 -114q-46 -50 -99 -48q-34 0 -56 22q-24 27 -24 61zM224 546q0 64 44 113q46 50 100 50q37 0 56 -23q18 -22 20 -61q0 -61 -43 -109q-46 -54 -98 -54q-29 0 -57 23q-22 27 -22 61z" />
<glyph unicode=";" d="M-68 -242l-8 -4l-26 33q185 141 207 217h-14q-73 0 -73 79q0 58 39 102q34 43 87 43q37 0 65 -26q22 -26 22 -69q0 -83 -79 -183q-80 -102 -220 -192zM202 546q0 64 44 113q46 50 94 50q43 0 58 -23q22 -22 22 -57q0 -65 -41 -113q-46 -54 -98 -54q-33 0 -57 23 q-22 24 -22 61z" />
<glyph unicode="?" horiz-adv-x="1189" d="M253 65q0 65 47 113q42 50 94 50q37 0 57 -23q23 -26 23 -61q0 -61 -47 -114q-42 -50 -98 -48q-29 0 -51 22q-25 24 -25 61zM683 644l48 -11q-22 -126 -95 -217q-68 -90 -151 -90q-54 0 -91 38q-33 37 -33 98q0 95 63 189q64 95 209 217q181 159 209 188q109 113 170 224 q57 106 57 209q0 102 -53 163q-58 54 -156 54q-94 0 -181 -54q-83 -61 -137 -152q-54 -87 -54 -188q0 -65 39 -115q37 -50 83 -48q84 0 136 83q53 80 53 215v20h54q4 -61 4 -57q0 -145 -80 -243t-198 -98q-87 0 -148 59q-61 65 -59 156q0 133 72 246q76 109 196 179 q130 69 274 69q163 0 257 -89q94 -83 94 -226q0 -122 -72 -223q-72 -110 -227 -213l-159 -102q-156 -102 -250 -209q-91 -102 -91 -181q0 -76 65 -76q43 0 91 57q42 48 61 128z" />
<glyph unicode="A" horiz-adv-x="3272" d="M2788 640l-174 -387q-33 -87 -33 -105q0 -68 101 -68q84 0 160 42q75 37 116 109q46 65 46 141q0 79 -57 152q-57 74 -159 116zM1981 1053l126 198h-39q-174 0 -174 -87q0 -58 87 -111zM2155 969q72 -29 133 -51q137 -58 185 -76q95 -34 173 -65l275 477h-603l-33 -61.5 t-19 -32.5q-11 -22 -28.5 -49t-28.5 -42zM2361 1323q64 -4 260 -8q141 -3 198 -3h135l130 211l110 168l98 146t92 126q155 216 246 307q33 33 57 33q22 0 22 -18q0 -15 -42 -76q-113 -152 -222 -341q-137 -227 -270 -480l-34 -65l109 11q182 18 239 140l35 69q26 61 84 59 q36 0 59 -22q22 -26 24 -65q0 -113 -156 -185q-79 -33 -166 -50q-87 -15 -263 -22q-87 -155 -290 -561q122 -61 185 -144q64 -87 64 -189q0 -109 -68 -198q-76 -86 -189 -133q-126 -50 -277 -48q-213 0 -213 109q0 58 57 167l239 459q-42 18 -181 72l-311 126 q-15 -23 -22 -39q-4 -8 -12.5 -17t-11.5 -17q-91 -151 -197.5 -274t-222.5 -231q-76 -68 -161 -128t-166.5 -105.5t-172.5 -84.5q-264 -109 -542 -109q-163 0 -307 41q-144 46 -224 114q-83 69 -83 145q0 37 26 68q26 26 68 26q61 0 111 -79q76 -102 106 -134q29 -29 76 -57 q109 -57 272 -55q196 0 390 79q196 80 353 224q80 72 163 174q94 116 181 238q95 134 198 296q-101 50 -148 99q-50 42 -50 98q0 79 65 114q61 34 209 34h91q15 -4 26 -4h18l357 514q95 126 201 240t219 208q330 288 731 288q137 0 242 -27q106 -23 169 -67q61 -50 59 -104 q0 -36 -26 -64q-26 -26 -61 -26q-30 0 -80 35l-109 74q-29 22 -90 46q-54 19 -123 34q-61 14 -123 16q-178 0 -343 -100q-162 -98 -336 -318q-171 -216 -383 -586q-76 -128 -98 -174z" />
<glyph unicode="B" horiz-adv-x="3135" d="M2792 1178q-34 58 -121 95q-90 37 -181 39q-50 0 -85 -24q-33 -23 -33 -56q0 -46 57 -68q54 -26 141 -28q127 0 222 42zM1572 788l174 315q152 272 221 375q75 122 144 200q94 113 185 205q98 91 189 159q87 65 220 141q113 61 242 113q-265 159 -561 159 q-307 0 -582 -155q-272 -156 -437 -417q-163 -261 -163 -560q0 -209 95 -350q96 -135 273 -185zM1728 697q-133 -166 -281 -292q-152 -129 -319 -203q-162 -80 -340 -108q91 -22 205 -37q123 -14 208 -14q144 0 296 51q144 54 253 145q-7 37 -7 79q0 83 42 144q37 58 91 58 q30 0 48 -24q18 -19 20 -56q0 -113 -122 -216q26 -80 109 -130q84 -46 202 -44q192 0 368 113q170 116 272 311q102 188 102 405q0 133 -48 242q-133 -46 -254 -44q-125 0 -205 44q-80 50 -80 126q4 72 80 116q72 47 185 47q213 0 387 -159q144 79 220 212q83 137 83 295 q0 140 -65 270q-64 129 -174 223q-188 -61 -340 -179q-163 -122 -296 -294q-144 -185 -272 -440q-133 -261 -148 -296q-80 -148 -176 -280q159 8 357 106l23 -54q-98 -57 -204 -87q-118 -30 -220 -30zM3123 2350q113 25 207 40q87 8 163 8q133 0 238 -30q117 -30 174 -80 q65 -53 65 -112q0 -34 -22 -58q-19 -22 -54 -22q-29 0 -55 15q-30 15 -80 68q-159 148 -383 146q-72 0 -198 -25q98 -87 152 -204q54 -116 54 -263q0 -196 -106 -366q-57 -87 -129 -153.5t-163 -116.5q87 -148 87 -315q0 -231 -133 -434q-130 -213 -344 -343 q-221 -125 -456 -123q-136 0 -231 48q-94 53 -137 151q-116 -101 -294 -159q-174 -53 -364 -52q-178 0 -531 41q-130 15 -185 15q-130 0 -265 -52q-42 -18 -65 -20q-29 0 -50 20q-18 22 -18 44q0 62 72 99q69 37 178 38q64 0 212 -11q73 -7 128 -7q202 0 365 59 q159 61 303 191q137 125 279 340q-148 54 -253 148q-102 91 -156 220q-53 126 -51 296q0 224 109 431q57 98 133 191.5t178 176.5q192 160 451 250q254 91 529 91q181 0 353 -50q171 -45 293 -131z" />
<glyph unicode="C" horiz-adv-x="2795" d="M1656 1399q50 -4 126 -4q192 0 384 44q193 50 339 141q152 91 261 220q-61 80 -61 163q0 57 27 94q30 37 76 39q43 0 63 -35q26 -33 28 -91q0 -90 -54 -159q76 -72 217 -72q83 0 166 33q76 30 137 85q61 54 98 121q33 72 33 144q0 126 -101 209q-102 80 -272 80 q-133 0 -289 -50q-152 -47 -314 -145q-163 -94 -330 -231q-174 -144 -303 -287q-137 -148 -231 -299zM1356 1295l57 76q-148 26 -270 103q-122 76 -192 182q-69 102 -69 224q0 125 76 249q76 122 217 209q140 87 299 117l12 -44q-197 -87 -304 -232q-109 -148 -109 -318 q0 -322 385 -433q192 228 422 429q220 193 455 341q227 140 449 216q224 76 418 76q202 0 326 -89q122 -90 120 -235q0 -129 -79 -242q-80 -109 -211 -181q-133 -69 -278 -69q-166 0 -268 84q-105 -130 -266 -224q-156 -95 -367 -146q-209 -54 -421 -54q-87 0 -148 4 q-130 -185 -211 -409q-80 -220 -80 -383q0 -130 59 -228q61 -98 172 -152q113 -53 257 -53q189 0 383 100q193 98 319 249q122 152 120 304q0 94 -52 152q-57 57 -148 55q-94 0 -174 -52q-76 -50 -165 -179l-44 24q43 102 117 189q75 83 172 133q101 46 192 44 q106 0 174 -68q68 -69 68 -185q0 -137 -94 -296q-91 -156 -257 -298q-178 -152 -368 -231q-185 -80 -376 -80q-177 0 -318 69q-141 68 -216 192q-76 126 -76 285q0 181 76 385q79 209 216 390z" />
<glyph unicode="D" horiz-adv-x="3261" d="M2470 1706q-196 -19 -298 -72q-80 -47 -126 -126q-50 -80 -50 -159q0 -109 91 -182q72 134 190 300q113 155 193 239zM1880 520q-174 -170 -357 -270q-182 -95 -428 -145q65 -3 307 -29q206 -26 330 -26q192 0 390 48q202 50 359 137q166 87 307 216q109 102 202 235 q87 134 151 280q61 140 95 296q33 148 33 303q0 193 -56 352q-61 155 -175 273q-117 110 -269 171q-162 57 -355 57q-314 0 -577 -141q-261 -144 -413 -390q-148 -250 -148 -553q0 -372 247 -588q116 -102 235 -128q116 174 284 470q-181 94 -181 283q0 116 83 209 q84 87 232 137q155 46 351 44q220 202 383 202q46 0 72 -19q26 -22 26 -57q-7 -109 -133 -144q-126 -34 -322 -41q-57 -76 -105 -165q-80 -148 -148 -325q-4 -11 -17 -43.5l-28 -69.5q30 -4 48 -4q87 0 178 45q91 42 194 129l19 -44q-102 -106 -213 -148q-109 -47 -211 -47 h-43q-98 -227 -296 -451q11 -4 50 -4q174 0 387 91l11 -52q-205 -98 -405 -98q-11 0 -94 4zM1709 549q-133 37 -251 121q-117 83 -193 175q-83 99 -116 211q-37 117 -39 248q0 250 126 485q65 117 153.5 219.5t197.5 185.5q130 94 285 167q159 72 318 105q156 37 311 39 q300 0 529 -115q228 -109 357 -311q130 -201 130 -457q0 -162 -46 -331q-50 -170 -130 -322q-87 -155 -211 -303q-126 -148 -281 -272q-189 -155 -368 -239q-185 -90 -385 -133q-209 -42 -455 -40q-239 0 -679 44q-144 15 -239 17q-192 0 -322 -61q-49 -23 -75 -25 q-73 0 -73 65q0 122 278 122q37 0 148 -3q22 -4 91 -4q201 0 379 48q174 50 325 144q141 91 235 220z" />
<glyph unicode="E" horiz-adv-x="2799" d="M1500 1197l-7 -7q98 -15 224 -15q216 0 412 44q196 43 372 126q170 83 311 205t200 246l4 11q-126 76 -124 197q0 37 25 68q23 26 65 28q54 0 87 -46q33 -47 33 -117q0 -43 -14 -100q61 -18 114 -18q80 0 146 38q65 34 108 102q37 65 37 137q0 141 -113 226 q-122 87 -303 89q-206 0 -387 -93q-185 -91 -296 -239q-109 -151 -109 -318q0 -50 11 -98q220 -15 220 -126q0 -33 -35 -55q-30 -22 -80 -24q-61 0 -120 39q-61 37 -91 98q-125 -11 -246 -61q-125 -54 -231 -135q-115 -80 -213 -202zM1330 1232l11 -4q102 106 239 193 q144 90 296 151q155 62 290 84q-11 46 -11 94q0 141 83 270q84 130 228 239q141 105 322 170q178 61 364 61q156 0 265 -42q109 -43 176 -117q61 -80 59 -179q0 -160 -128 -272q-129 -117 -307 -119q-83 0 -144 24q-46 -129 -220 -285q-145 -122 -326 -209 q-185 -90 -394 -131q-213 -46 -440 -46q-133 0 -246 18l-8 -7q-101 -145 -144 -261q-43 -126 -41 -261q0 -246 148 -387q145 -140 391 -140q188 0 379 87q192 94 318 235q126 148 124 285q0 94 -65 151q-61 58 -155 56q-80 0 -159 -41q-72 -42 -174 -144l-30 37 q87 122 211 194q126 76 248 76q113 0 181 -68q73 -69 73 -174q0 -261 -326 -524q-170 -133 -372 -209t-412 -74q-182 0 -322 67q-141 72 -217 194q-79 122 -79 279q0 159 76 346q75 181 196 326l-12 3q-148 47 -249 121q-106 79 -159 183q-61 102 -61 224q0 166 94 305 q94 137 266 216q167 80 370 80q196 0 372 -72l-22 -48q-152 53 -300 51q-166 0 -311 -75q-144 -76 -223 -204q-84 -133 -84 -292q0 -152 91 -265q93 -113 270 -170z" />
<glyph unicode="F" horiz-adv-x="2625" d="M2152 1240q-43 46 -98 75q-58 30 -102 30q-69 0 -69 -50q0 -72 133 -70q49 0 136 15zM1793 296l-11 -4q37 -7 62 -7q137 0 246 72q113 72 180 196q65 130 65 278q0 64 -21 135l-3 -8q-98 -174 -243 -368q-142 -185 -275 -294zM1728 1550q0 -57 -54 -100q-50 -37 -124 -37 q-101 0 -166 73q-69 68 -69 166q0 148 91 292q91 141 253 258q206 148 444 216q117 33 249.5 52.5t283.5 19.5q72 0 180 -5q68 -4 177 -15l420 -52q167 -19 343 -20q188 0 329 50l102 33q25 7 46 9q61 0 59 -65q0 -144 -352 -144q-216 0 -499 37q-46 11 -152 24 q-11 4 -59 11.5t-89 10.5q-238 30 -349 41q-113 11 -219 13q-177 0 -349 -39q-174 -33 -318 -98q-145 -68 -254 -159q-102 -83 -170 -209q-65 -117 -65 -220q0 -61 22 -98q23 -43 58 -41q29 0 68 33q46 47 83 47t58 -24q22 -26 22 -60zM2263 1262l7 11q129 238 279 429 q156 192 326 337q126 98 255 155q126 50 250 48q178 0 178 -94q0 -72 -80 -72q-26 0 -83 14q-133 30 -185 32q-122 0 -228 -80q-109 -79 -227 -270q-152 -231 -250 -434q152 46 344 46q216 0 216 -104q0 -29 -22 -48q-22 -22 -50 -24q-22 0 -72 17q-177 68 -281 66 q-72 0 -159 -18l-11 -4l-117 -235q37 -98 37 -220q0 -163 -72 -298q-72 -133 -192 -213q-126 -75 -278 -75q-65 0 -128 11l-7 -4q-448 -340 -958 -340q-296 0 -490 127q-189 133 -189 339q0 137 98 238q98 98 239 98q87 0 144 -42q57 -43 57 -102q0 -37 -31 -65 q-30 -26 -76 -26q-33 0 -59 12l-61 22q-15 7 -58 7q-79 0 -124 -44q-50 -46 -50 -122q0 -102 76 -189q80 -87 213 -137q126 -54 287 -54q227 0 455 93q231 91 398 246q-91 57 -145 148q-53 83 -51 181q0 130 79 228q80 98 218 155l21 -50q-254 -105 -256 -329 q0 -192 184 -292l7 7q91 87 181 202q87 105 170 242q80 130 198 344q8 8 12 21q3 3 5 7l2 4l4 11q-11 15 -15 18q-83 -26 -178 -26q-113 0 -194 41q-76 46 -76 111q0 46 43 76q37 26 101 26q76 0 167 -46q91 -50 152 -121q35 4 50 8z" />
<glyph unicode="G" horiz-adv-x="3048" d="M2266 1330l11 4q300 42 546 181q122 69 220 156t163 186q-65 65 -65 150q0 95 65 96q37 -3 63 -46q22 -33 24 -98q0 -37 -20 -79q94 -69 201 -69q167 0 285 98q122 102 120 239q0 105 -83 170q-87 61 -227 61q-217 0 -474 -144q-261 -148 -481 -387q-222 -240 -348 -518z M3437 1132q0 -22 -16 -33q-11 -19 -34 -19q-11 0 -50 8q-42 15 -90 15q-117 0 -193 -80q-46 -54 -76 -105l-118 -224q-133 -254 -253 -405q-126 -156 -282 -256q-303 -192 -703 -192q-162 0 -299 33q-137 37 -235 108q-95 68 -152 170q-54 94 -54 216q0 193 130 322 q129 133 314 131q134 0 235 -70q102 -72 102 -165q0 -37 -22 -62q-26 -26 -65 -28q-53 0 -83 61q-50 98 -98 140q-54 37 -126 37q-83 0 -159 -48q-72 -50 -117 -133q-46 -83 -46 -181q0 -144 83 -246q80 -109 232 -163q151 -54 360 -54q163 0 298 37q137 37 252 115 q109 72 226 207q116 130 231 318q133 213 224 324q87 106 198 185q144 109 283 109q103 0 103 -72zM2054 1323q136 311 499 625q174 148 368 268q189 109 368 170q185 62 333 62q167 0 276 -76q105 -76 107 -196q0 -110 -72 -206q-68 -102 -190 -159q-123 -61 -247 -61 q-136 0 -249 72l-8 -7q-144 -213 -401 -357q-265 -148 -583 -193h-17q-33 -105 -33 -188q0 -84 54 -145q53 -64 127 -64q54 0 115 18q58 22 128 69l183 133q246 192 340 246q95 54 196 54q50 0 84 -25q29 -18 31 -55q0 -50 -53 -50q-15 0 -37 4q-50 11 -84 11 q-151 0 -322 -137l-205 -163q-281 -220 -474 -218q-136 0 -216 83q-80 87 -80 226q0 98 36 190h-8h-4q-205 0 -357 65q-155 65 -238 174q-80 109 -80 261q0 159 83 292q87 133 235 209t322 76q196 0 326 -68l-22 -50q-130 53 -265 53q-144 0 -266 -68q-122 -69 -189 -191 q-72 -122 -72 -264q0 -182 152 -296q148 -113 409 -124z" />
<glyph unicode="H" horiz-adv-x="3385" d="M2947 579l-11 -11q-141 -174 -261 -268q-122 -98 -289 -174h19q37 0 72 -9l72 -12q65 -11 152 -11q152 0 250 84q94 79 96 212q-2 113 -100 189zM2126 969l3 11l65 100q37 61 41 69l3 11h-18q-174 0 -174 -100q0 -54 80 -91zM3077 1088l14 29h-11q-57 0 -318 8 q-261 15 -318 18h-8q-68 -137 -140 -246l102 -29l100 -30q223 -68 260 -80q65 -22 110 -49l7 7q11 26 111 205q11 19 29.5 55t42.5 77zM3084 1182h42q15 22 41 72q26 54 39 76q102 189 208.5 358t222.5 316q83 105 157 183.5t144.5 135t149.5 113.5q224 145 428 145 q105 0 177 -39q69 -33 69 -94q0 -26 -22 -54q-22 -26 -58 -26q-22 0 -76 30q-125 61 -234 61q-106 0 -208 -54q-105 -61 -209 -167q-144 -148 -242 -310q-105 -174 -281 -529q-98 -193 -102 -206l11 4q155 18 239 87l76 61q26 22 57 22q26 0 46 -18q19 -15 19 -41 q0 -68 -134 -122q-129 -54 -329 -61q-15 0 -18 -4l-8 -7q-140 -261 -288 -463l-8 -15q47 -37 76 -79q26 -43 37 -83q11 -37 13 -91q0 -109 -54 -198q-57 -91 -155 -135q-105 -50 -231 -50q-58 0 -159 11q-65 7 -134 7q-68 0 -173 -14q-23 -4 -50 -4q-34 0 -56 22t-24 54 q0 61 93 72q112 11 162 22q50 15 113 58q220 140 379 416l8 11q-80 42 -365 129l-105 30l-105 35l-4 -11l-141 -183q-79 -98 -166 -181l-8 -8q47 -7 106 -7q122 0 296 44l22 -52q-155 -53 -314 -53q-73 0 -163 15l-8 -8q-140 -122 -288 -212.5t-296 -149.5 q-300 -117 -651 -119q-174 0 -326 43q-144 42 -235 113q-87 72 -87 151q0 43 26 72q26 26 65 26q42 0 64 -18q23 -22 73 -98q140 -220 523 -220q265 0 529 112q261 113 433 300l33 43l8 7q-141 61 -246 163q-98 98 -152 239q-54 133 -52 299q0 268 139 522q141 257 383 459 q239 205 553 318q311 117 637 118q162 0 292 -24q129 -22 192 -59q72 -42 72 -89q0 -29 -18 -48q-19 -18 -50 -18q-30 0 -83 26l-102 50q-65 37 -185 62q-113 23 -235 25q-261 0 -516 -108q-254 -109 -455 -303q-137 -130 -243 -305q-109 -178 -166 -369q-61 -196 -61 -375 q0 -193 92 -337q87 -144 243 -201l7 7q133 163 283 403l7 8q-75 26 -116 66q-46 43 -46 96q0 145 277 145h33h32h11q113 188 117 196l159 253q46 76 122 174q351 463 644 463q57 0 87 -19q29 -18 31 -50q0 -50 -57 -48q-15 0 -80 15q-46 7 -79 7q-126 0 -261 -159 q-76 -87 -155.5 -213.5t-179.5 -317.5l-83 -159l-80 -163l126 -7q177 -11 272 -11q187 -4 220 -4z" />
<glyph unicode="I" horiz-adv-x="2499" d="M1811 368l-11 -7q-189 -156 -379 -263q-181 -98 -387 -152q-196 -50 -409 -48q-277 0 -451 124q-174 126 -174 322q0 130 83 217t206 87q75 0 131 -34q54 -37 54 -94q0 -30 -23 -54q-22 -26 -46 -26q-22 0 -61 19q-50 22 -83 22q-72 0 -117 -54q-50 -50 -50 -127 q0 -98 69 -174q72 -80 189 -122q122 -47 277 -47q152 0 289 32q144 29 268 87q126 54 242 137q113 79 202 177l26 26l3 8q-122 64 -205 166q-91 102 -131 241q-50 129 -50 283q0 336 238 668q145 196 319 336q177 137 421 239q134 54 259.5 87t247 52.5t250.5 19.5 q113 0 242 -15q123 -18 224 -50q109 -29 163 -61q72 -37 72 -90q0 -23 -18 -41q-19 -19 -47 -21q-25 0 -48 13l-75 41q-91 58 -285 102q-196 42 -352 42q-174 0 -350 -46q-170 -46 -321 -127q-159 -91 -285 -209q-156 -145 -269 -319q-105 -174 -170 -372q-65 -188 -65 -366 q0 -170 76 -314q76 -145 202 -209l7 7q117 144 197 270l223 355q163 289 282 463q122 177 214 292q102 113 209 200q257 213 511 213q177 0 179 -87q0 -23 -20 -43q-19 -15 -41 -15q-18 0 -68 15q-83 26 -159 28q-213 0 -383 -191q-80 -87 -182 -261q-75 -129 -198 -371 q-109 -217 -181 -344q-83 -156 -140 -243q-134 -209 -276 -335l-8 -7q73 -11 132 -11q281 0 516 152l15 -54q-58 -46 -152 -83q-94 -43 -189 -60q-101 -22 -194 -24q-87 2 -185 28z" />
<glyph unicode="J" horiz-adv-x="2991" d="M2255 272l-9 -7q-156 -193 -337 -345q-189 -159 -383 -264q-209 -109 -401 -163q-202 -57 -402 -57q-188 0 -359 64q-166 62 -266 178q-98 109 -98 242q0 141 105 243q110 105 252 105q57 0 102 -18q46 -19 72 -54q22 -33 22 -74q0 -42 -22 -65q-26 -26 -61 -27 q-22 0 -61 13q-72 22 -106 22q-83 0 -137 -54q-49 -54 -49 -128q0 -159 183 -270q177 -109 455 -109q185 0 370 56q189 61 338 159q296 196 591 603l3 11q-137 61 -235 167q-98 109 -148 255q-53 140 -52 318q0 205 84 420q79 205 238 401q152 189 356 333q503 348 1167 350 q102 0 227 -17q106 -14 217 -40q102 -34 163 -65q79 -43 79 -94q0 -26 -20 -47q-19 -14 -41 -14q-42 0 -140 53q-80 46 -185 80q-110 29 -217 48q-113 15 -231 17q-133 0 -260 -23.5t-244.5 -67t-241.5 -115.5q-351 -205 -557 -546q-212 -336 -212 -723q0 -224 79 -383 q76 -155 224 -239l8 8l253 394q15 33 76 129l41.5 67.5t26.5 49.5q26 37 178 303q202 352 348 531q148 185 323 300q221 144 443 142q166 0 166 -87q0 -53 -59 -51q-15 0 -107 22q-69 15 -124 15q-196 0 -350 -148q-148 -152 -352 -561l-227 -451q-113 -228 -217 -389 q-98 -170 -227 -335l-4 -7q76 -15 141 -15q322 0 625 213l30 -57q-159 -110 -322 -163q-163 -58 -329 -58q-102 0 -193 19z" />
<glyph unicode="K" horiz-adv-x="3568" d="M3088 1291q7 26 7 39q0 58 -26 98q-26 43 -65 43q-42 0 -40 -50q0 -46 37 -80q33 -39 87 -50zM1952 466l-8 -7q43 -8 98 -8q122 0 261 41q141 43 250 118l31 -46q-94 -72 -246 -120q-155 -50 -288 -50q-65 0 -156 15q-238 -224 -571 -355q-333 -134 -657 -134 q-185 0 -337 43q-151 37 -242 109q-87 72 -87 156q0 37 26 68q30 26 68 26q54 0 87 -54l80 -109q46 -57 115 -91q75 -42 173 -61q106 -18 213 -18q182 0 352 54q177 49 336 149q163 106 300 248l8 8q-15 3 -12 3l-11 8q-192 76 -314 268q-117 189 -117 437q0 268 139 521 q141 254 387 455q246 202 556 315q304 113 633 115q156 0 289 -24q126 -19 196 -61q72 -37 72 -87q0 -23 -22 -41q-22 -22 -46 -22q-34 0 -91 26q-278 133 -507 133q-261 0 -527 -111q-91 -43 -170.5 -87.5t-153.5 -101.5t-139 -122q-216 -216 -336 -488 q-126 -269 -126 -546q0 -409 342 -546l11 15q69 83 137 179q76 102 124 185q50 76 152 254l177 311q43 72 108 170l140 201l132 174q129 152 270 243q137 83 261 83q125 0 125 -69q0 -49 -53 -48q-15 0 -50 8q-69 15 -98 15q-246 0 -535 -557l-159 -315q-109 -220 -204 -375 q-101 -170 -190 -280q-91 -118 -196 -220zM3073 1236q-87 22 -148 79q-57 58 -57 132q0 57 35 90q29 37 83 39q42 0 87 -29q37 -30 65 -89q22 -50 22 -109q0 -26 -4 -65q133 15 231 65q98 53 193 151q98 102 216 282l185 283q326 507 751 508q98 0 159 -31q54 -26 54 -76 q0 -33 -28 -61q-22 -26 -59 -26q-22 0 -61 7q-122 26 -174 28q-288 0 -577 -410l-189 -269q-174 -246 -357 -379q-177 -129 -344 -128h-7h-11q-76 -159 -239 -198q68 -50 91 -98q26 -53 26 -125q0 -73 -65 -246q-69 -174 -67 -265q0 -72 45 -118q49 -37 133 -37 q166 0 318 173l48 -22q-105 -144 -250 -227q-144 -87 -268 -87q-98 0 -148 44q-54 46 -54 126q0 37 17 87q15 46 80 202q68 166 66 257q0 98 -52 177q-53 80 -137 109q-75 23 -192 36l30 64l18 -3q122 -8 178 -8q140 0 224 41q90 43 133 126z" />
<glyph unicode="L" horiz-adv-x="2943" d="M2307 1970l7 8q-144 87 -322 140q-170 50 -325 48q-281 0 -470 -155q-185 -159 -185 -394q0 -231 196 -377q196 -145 524 -152q0 7 3 11l8 11l181 326q80 144 187 292q102 148 196 242zM2455 1963l7 -8q91 -64 167 -140l-41 -43q-42 47 -155 130l-11 7l-8 -7 q-109 -178 -318 -564q-72 -141 -122 -228l-4 -7h8q730 101 1012 571q-87 80 -87 178q0 46 26 79q29 34 68 36q43 0 68 -36q26 -37 26 -98q0 -64 -26 -131q99 -65 235 -65q113 0 221 52q98 54 159 148q53 94 51 209q0 170 -116 272q-117 102 -315 104q-148 0 -299 -54 q-156 -54 -285 -141q-126 -87 -215 -203l-39 -54h-3q-4 -3 -4 -7zM3038 1645q-117 -246 -413 -405q-288 -163 -694 -206l-7 -7q-91 -163 -215.5 -311t-291.5 -272q-159 -126 -316 -200t-313 -100q76 -14 307 -53q43 -8 65 -8q37 -7 65 -7q18 -4 33 -6t33 -5q182 -26 235 -32 q95 -11 187 -11q246 0 459 69q216 68 344 187q126 116 124 246q0 29 -7 51l-15 65q-4 11 -4 35q0 43 22 67q22 26 65 28q50 0 76 -39q26 -37 28 -106q0 -140 -93 -264q-91 -130 -257 -224q-322 -185 -864 -187q-178 0 -366 24l-361 44q-152 19 -292 19q-122 0 -211 -15 q-98 -11 -169 -40l-70 -32q-22 -15 -54 -15q-68 0 -68 72q0 73 91 106q68 26 140 35l141 7l44 4h46q406 26 641 167q166 105 299 264q106 126 287 429l9 8h-13q-383 18 -605 181q-223 163 -223 414q0 126 57 239t166 196q102 87 250 137q141 46 307 44q361 0 716 -207l8 -7 q231 231 488 351q257 126 516 126q243 0 381 -111q141 -109 141 -303q0 -133 -80 -254q-83 -122 -211 -188q-136 -69 -288 -69q-157 0 -270 69z" />
<glyph unicode="M" horiz-adv-x="4256" d="M4096 348l11 16l46 -31q-101 -155 -266 -261q-163 -105 -304 -105q-109 0 -173 63q-62 61 -62 179q0 102 43 257q37 156 113 341q79 185 163 346q94 166 235 373q144 217 281 380q91 112 174 191t177 141q174 113 324 115q65 0 109 -18q37 -23 37 -58q0 -18 -15 -39 q-14 -14 -37 -14q-14 0 -38 7l-45 20q-53 23 -90 23q-269 0 -676 -661q-83 -129 -164.5 -280l-142.5 -274t-105 -234q-152 -357 -152 -529q0 -181 170 -183q98 0 189 53q89 52 198 182zM1678 401l-7 -7q-221 -235 -474 -351q-253 -123 -514 -123q-185 0 -339 47 q-159 42 -250 116q-94 72 -94 159q0 43 26 69q30 26 65 26q57 0 94 -59l72 -115q57 -83 170 -133q117 -47 259 -45q496 0 898 442l7 10q-170 83 -279 264q-106 181 -108 394q0 281 145 542q57 98 113.5 172t125 142.5t158.5 144.5q122 94 277.5 177.5t311.5 131.5 q325 113 688 115q231 0 387 -43q148 -42 148 -113q0 -14 -12 -33q-14 -19 -38 -20q-26 0 -60 20q-136 61 -277 91q-152 29 -287 29q-122 0 -266 -29q-141 -30 -280 -87q-133 -54 -255 -126q-122 -76 -231 -170q-213 -193 -341 -467q-133 -281 -133 -530q0 -182 72 -326 q69 -137 198 -213l8 8q137 177 344 527q192 318 281 451q94 152 174 254q87 122 155 198q72 75 159 149q243 210 481 210q73 0 119 -23q42 -26 41 -68q0 -50 -45 -50q-15 0 -50 13q-61 22 -87 22q-90 0 -177 -111q-91 -109 -152 -294q-61 -181 -80 -398l-38 -486 q-15 -141 -30 -265l-35 -203l-4 -24l13 14l139 221q11 14 21 31.5t29 43.5q7 11 44 76l365 564q155 235 264 372q141 185 235 285q117 113 235 207q420 322 849 322q159 0 254 -37q94 -42 96 -111q0 -64 -58 -63q-29 0 -64 15q-113 54 -178 72q-61 19 -159 19 q-196 0 -429 -113q-228 -117 -435 -327q-79 -80 -166 -178t-174 -213l-169 -222l-96 -148.5l-119 -182.5l-96.5 -149l-100.5 -160q-102 -170 -170.5 -272.5t-129.5 -182.5q-105 -133 -235 -224q-102 -76 -163 -98q-68 -26 -155 -28q-126 0 -124 76q0 34 22 54q19 15 58 15 q22 0 51 -8l58 -11q50 -7 64 -7q62 0 113 37q58 42 89 103q26 47 41 132q15 72 39 273q33 361 76.5 624t108.5 451q116 357 347 524q-101 -4 -231 -102q-102 -79 -211 -239q-113 -155 -270 -432l-203 -359l-145 -228l-136 -190q-84 -106 -156 -182l-15 -15q84 -22 159 -22 q185 0 352 113l31 -42q-166 -137 -416 -135q-96 0 -183 25z" />
<glyph unicode="N" horiz-adv-x="3243" d="M1698 398l-9 -8q-231 -235 -488 -360q-254 -117 -539 -117q-170 0 -318 44q-155 47 -250 123q-94 75 -94 151q0 37 26 65q30 26 68 26q50 0 87 -54l80 -116q57 -87 170 -130q109 -46 259 -44q246 0 477 116q232 117 417 333l7 10q-181 83 -283 257q-102 170 -104 401 q0 272 145 535q148 257 397 457q258 201 579 314q322 113 676 115q238 0 397 -46q156 -46 156 -113q0 -19 -11 -35q-19 -19 -43 -19q-29 0 -55 11l-137 54q-167 68 -405 68q-145 0 -285 -25q-130 -23 -280 -80q-136 -54 -266 -133q-130 -80 -228 -170q-216 -209 -344 -478 q-125 -277 -125 -538q0 -167 72 -303q68 -141 194 -213l7.5 7.5t3.5 7.5q4 3 5.5 8t5.5 8q37 50 141 207l185 304l238 390q106 167 184 270q75 106 131 170q174 202 361 315q181 109 340 109q76 0 122 -22q43 -26 41 -68q0 -23 -11 -39q-19 -19 -43 -19q-22 0 -37 8l-26 14 q-33 11 -68 13q-141 0 -254 -231q-87 -178 -129 -444q-15 -98 -30 -213q-14 -116 -39 -390q-18 -217 -49 -453l-4 -35q144 205 440 715l220 380q137 242 246 394q113 163 220 274q106 109 243 196q299 201 590 201q122 0 191 -39q72 -33 72 -90q0 -43 -32 -69 q-26 -25 -72 -25q-33 0 -94 11q-84 18 -178 18q-326 0 -596 -242q-105 -95 -203 -213q-98 -117 -220 -294q-126 -189 -322 -527l-171 -286.5l-98 -164.5t-102 -162l-77 -111q-94 -144 -170 -220t-178 -137q-140 -83 -277 -83q-122 0 -120 76q0 29 22 53q22 19 57 19 q19 0 56 -7l57 -15q54 -8 72 -8q61 0 109 37q50 43 84 111q22 47 38 139q19 102 30 255l28.5 242.5l32.5 272.5q50 314 122 534t185 372q91 130 189 185q-109 -11 -242 -115q-76 -57 -143 -135q-57 -68 -152 -212q-79 -117 -194 -311l-174 -300l-238 -394 q-91 -133 -206 -268q-3 0 -5 -2t-2 -6q-4 -3 -11 -11q68 -18 140 -20q159 0 341 107l14 11l39 -46q-181 -129 -397 -127q-87 0 -182 22z" />
<glyph unicode="O" horiz-adv-x="3150" d="M1474 1186l-11 -15q69 -4 121 -4q307 0 542 113q224 113 347 330q-83 64 -83 175q0 43 28 72q22 30 55 30q43 0 69 -39q26 -42 28 -109q0 -54 -21 -102q117 -94 319 -94q101 0 212 33q117 37 193 91q-23 159 -102 246q-80 83 -204 83q-98 0 -220 -76l-42 11 q37 95 133 156q94 65 200 65q94 0 172 -45q76 -50 120 -126q50 -83 65 -192q105 94 105 246q0 109 -52 192q-57 84 -155 130q-102 42 -231 41q-178 0 -383 -76q-209 -80 -387 -211q-253 -193 -462 -426q-106 -122 -193 -242t-163 -257zM3273 1595q-189 -117 -402 -117 q-196 0 -348 94q-133 -223 -375 -344q-246 -125 -568 -125q-83 0 -148 7l-8 -7q-136 -293 -136 -520q0 -152 61 -265q68 -113 185 -170q122 -61 285 -61q253 0 516 133q253 130 470 348q209 220 336 492q128 270 132 535zM1215 1140l10 13q-213 68 -343 210 q-125 141 -124 322q0 122 73 246q68 123 181 198q94 73 235 106q141 37 283 39q126 0 235 -32l-26 -48q-87 15 -167 15q-288 0 -462 -148q-94 -80 -148 -189q-54 -113 -52 -227q0 -156 91 -270q91 -113 257 -167l4 7q155 269 447 550q285 272 591 444q473 272 856 272 q144 0 250 -41q109 -50 166 -133q58 -80 58 -196q0 -235 -209 -418l-15 -11q-4 -174 -58 -344q-53 -182 -155 -354q-105 -181 -239 -336q-86 -99 -186 -193t-206.5 -170t-219.5 -141q-337 -177 -679 -177q-181 0 -322 70q-144 72 -220 205q-76 134 -76 311q0 148 47 292 q40 143 123 295z" />
<glyph unicode="P" horiz-adv-x="2780" d="M2459 1861q109 4 177 30q61 22 61 61q0 22 -29 22q-80 0 -209 -113zM1811 1117q4 8 6 11.5t2 7.5l11 17q98 166 166 268q69 105 133 185l152 179l7 8h-11q-201 -26 -322 -122q-94 -73 -148 -171q-61 -101 -61 -205q0 -91 65 -178zM1959 993q156 -68 333 -68q178 0 326 59 q148 61 266 172q109 106 174 257q65 145 65 315q0 209 -107 372q-106 159 -300 250q-193 86 -442 86q-235 0 -452 -83q-212 -83 -386 -242q-130 -126 -211 -270q-87 -152 -133 -311q-50 -167 -50 -322q0 -242 101 -412q98 -171 293 -254l7 -7q91 109 266 412l63 106 q-140 151 -138 318q0 105 64 209q69 102 167 155q98 54 231 84q141 33 242 33h8h4q94 83 203 144q105 58 179 58q87 0 87 -65q0 -83 -125 -137q-122 -54 -304 -56q-83 -87 -139 -174q-64 -90 -96 -164q-22 -46 -170 -402l-7.5 -20t-3.5 -13t-3.5 -11t-11.5 -19zM1931 936 l-3 -11q-126 -257 -326 -437q109 -18 246 -18q83 0 156 11l16 -54q-109 -18 -205 -18q-137 0 -261 28h-11q-152 -126 -331 -213q-174 -87 -318 -111q148 -33 357 -52q220 -22 386 -24q209 0 370 54q174 53 343 170l29 -45q-329 -253 -792 -253q-246 0 -625 37 q-333 33 -477 33q-163 0 -235 -26l-106 -37q-53 -14 -76 -16q-68 0 -68 64q0 84 113 112q61 7 220 7h191q564 0 875 340q-171 72 -289 185q-113 113 -178 274q-64 159 -64 333q0 254 112 481q113 224 319 390q201 167 466 265q268 91 570 93q288 0 507 -97 q231 -101 351 -272q126 -170 126 -394q0 -174 -80 -336q-79 -159 -216 -285q-133 -126 -315 -193q-181 -72 -373 -72q-226 0 -404 87z" />
<glyph unicode="Q" horiz-adv-x="2806" d="M2795 1254q-133 -72 -275 -101q-156 -37 -300 -39q-166 0 -337 61v-15q0 -98 -35 -187q-37 -98 -102 -170q-64 -76 -148 -120q73 -50 137 -122q109 -126 209 -272l8 -17q3 -4 7 -15l11 8q182 101 344 255q163 155 289 344q120 181 192 390zM2812 1334l11 4q37 140 37 257 q0 192 -87 303q-83 113 -235 113q-53 0 -94 -19q-46 -18 -102 -61l-42 24q57 99 140 148q87 54 181 52q113 0 198 -55q84 -58 128 -163q50 -105 50 -239q0 -105 -30 -255q102 87 159 213q58 122 56 264q0 141 -68 252q-69 105 -193 163q-129 61 -288 59q-239 0 -515 -139 q-277 -140 -546 -407q-170 -163 -303 -337q-137 -181 -235 -358q-87 -174 -120 -296q-37 -134 -39 -278q0 -148 61 -257q57 -106 174 -163q117 -54 285 -54q196 0 370 65l46 19l8 3l-34 73l-42 72q-113 220 -213 307l-15 -4q-83 -30 -131 -30q-58 0 -100 26q-37 26 -37 65 q0 72 102 72q79 0 194 -61q87 50 146 119q61 68 100 153q33 83 33 169v44q-79 37 -116 83q-47 50 -47 95q0 29 19 49q18 19 50 19q76 0 137 -139q196 -102 446 -103q266 0 501 133zM1996 202q98 -163 180 -224q79 -65 166 -65q141 0 257 148l37 -35q-76 -122 -170 -185 q-94 -65 -192 -65q-243 0 -417 346q-148 -72 -314 -111q-167 -37 -315 -37q-268 0 -432 156q-163 155 -163 408q0 485 447 1009q167 201 383 373q206 170 431 300q217 122 444 194q221 65 409 63q167 0 304 -55q137 -61 211 -171q72 -105 72 -251q0 -185 -106 -359 q-105 -178 -296 -300q-94 -351 -420 -708q-116 -133 -257 -246q-142 -121 -259 -185z" />
<glyph unicode="R" horiz-adv-x="3385" d="M2777 1857q129 11 201 37q76 30 76 65q0 30 -38 30q-95 2 -239 -132zM2603 1782l4 11q-4 -4 -8 -4l-53 -4q-202 -11 -341 -140q-137 -130 -137 -300q0 -109 80 -209q61 109 152 248l162 233q65 85 141 165zM2830 993q163 37 300 147q133 112 207 273q76 163 76 337 q0 202 -98 361q-102 155 -281 242q-178 83 -409 83q-174 0 -337 -46q-181 -50 -318 -131q-148 -83 -257 -198q-109 -113 -187 -257q-79 -145 -120 -304q-46 -159 -46 -318q0 -220 114 -394q113 -181 295 -250l3 8q58 68 119 155q68 98 140 231q30 58 84 145 q-152 125 -152 325q0 126 76 228q76 105 199 155q84 30 167 45q68 14 231 27h43q102 95 205 147q102 53 181 53q91 0 91 -72q0 -50 -54 -91q-53 -46 -144 -72q-76 -18 -233 -26h-13q-61 -61 -124 -166q-72 -109 -111 -194l-142 -326l-13 -26q0 -4 -5.5 -17.5t-13.5 -24.5 l-3 -12q140 -64 314 -64q68 0 144 11v24q0 68 -26 102q-29 33 -79 33q-26 0 -50 -8l-39 -7q-22 -7 -37 -7q-61 0 -61 64q0 43 35 65q30 22 83 22q102 0 167 -72q61 -66 79 -200zM2834 925v-11q0 -69 -11 -168l-24 -239q-7 -94 -7 -170q0 -130 35 -182q29 -53 109 -53 q122 0 235 133l42 -39q-90 -105 -194 -174q-102 -61 -192 -59q-106 0 -159 63q-58 65 -58 183q0 109 30 228q46 181 54 207q42 174 57 270l-11 -4q-106 -4 -104 -5q-196 0 -362 72l-4 -11q-144 -265 -357 -463l-7 -7q90 -19 184 -19q148 0 274 47l22 -54q-129 -57 -286 -57 q-126 0 -252 27l-7 -9q-189 -174 -374 -283q-178 -109 -364 -163q-178 -53 -383 -53q-174 0 -341 38q-166 34 -262 102q-117 83 -117 156q0 42 22 64t58 22q29 0 57 -14q22 -15 65 -69q64 -83 138 -137q73 -50 171 -76q94 -25 216 -25q549 0 986 481l7 7q-166 72 -284 194 q-126 122 -185 280q-69 162 -69 340q0 159 58 322q53 159 155 300q102 140 235 242q105 79 235 144q137 72 257 111q109 37 261 63q140 22 285 24q277 0 488 -96q213 -94 333 -261q126 -170 126 -386q0 -189 -107 -370q-110 -186 -287 -308q-178 -125 -387 -155z" />
<glyph unicode="S" horiz-adv-x="2231" d="M1421 1504q-109 -68 -159 -170q-58 -109 -72 -292q155 -110 155 -232q0 -46 -22 -72t-61 -26q-113 0 -137 243q-58 72 -145 109q-90 37 -192 39q-105 0 -198 -58q-90 -53 -139 -151q-53 -102 -53 -219q0 -181 98 -331q98 -148 270 -235q170 -87 370 -87q163 0 307 50 q141 50 259 144q109 87 174 211q61 122 61 256q0 75 -20 138q-23 73 -60 134q-42 72 -111 155l-166 209q-113 143 -159 185zM1569 1648l7 -7q80 15 137 15q174 0 307 -91q137 -91 185 -235l-53 -18q-43 87 -106 151q-65 61 -155 98q-87 34 -182 34q-42 0 -83 -8l83 -87 l84 -83q174 -177 246 -322q76 -148 76 -307q0 -122 -47 -235q-46 -116 -127 -224q-87 -105 -195 -177q-268 -189 -643 -189q-243 0 -437 83q-196 84 -302 235q-109 148 -111 333q0 231 160 391q159 159 390 159q174 0 329 -84q26 322 256 478q-84 137 -84 279q0 167 117 318 q116 152 311 243q192 94 397 96q109 0 217 -35q102 -26 174 -87q76 -58 113 -134q42 -75 42 -166q0 -159 -129 -268q-130 -109 -319 -111q-98 0 -192 35l15 50q65 -11 122 -13q144 0 229 76q84 76 84 205q0 98 -56 181q-61 84 -166 134q-106 50 -235 50q-148 0 -285 -69 q-133 -68 -213 -183q-83 -113 -83 -242q0 -139 122 -269z" />
<glyph unicode="T" horiz-adv-x="2541" d="M3600 2144q0 -29 -24 -54q-26 -22 -52 -22q-29 0 -92 19q-87 29 -163 31q-133 0 -222 -68q-94 -72 -172 -174q-126 -174 -215 -353l-212 -417q-160 -318 -311 -510q-156 -202 -372 -361q-217 -159 -466 -250q-246 -90 -481 -90q-202 0 -359 59q-156 57 -243 168 q-90 109 -90 239q0 140 102 235q94 94 238 94q80 0 141 -39q53 -33 52 -94q0 -37 -26 -69q-34 -29 -72 -29q-23 0 -73 15q-90 29 -124 29q-68 0 -114 -44q-50 -50 -48 -119q0 -162 170 -268q166 -105 416 -105q192 0 368 44q174 50 326 155q155 106 290 265q137 159 274 390 l242 415q152 257 298 446.5t285 309.5q285 243 574 243q72 0 113 -22q42 -26 42 -69zM2031 1800l45 -22q-34 -76 -121 -187q-105 -122 -212 -185q-106 -65 -213 -65q-109 0 -185 72q-72 69 -72 174q0 137 102 300q105 159 281 289q216 162 470 238q246 72 571 71 q206 0 557 -45q206 -22 315 -22q116 0 223 18q102 19 247 69q64 22 98 22q33 0 53 -18q19 -19 19 -54q0 -76 -106 -120q-109 -50 -277 -50q-106 0 -280 22q-162 22 -173 28q-43 3 -69 11q-30 4 -54 4q-18 3 -61 11q-14 3 -31 5t-32 2q-18 4 -37.5 5.5t-30.5 1.5 q-296 47 -455 47q-549 0 -932 -319q-254 -209 -254 -421q0 -84 57 -135q50 -58 136 -58q98 0 216 87q118 83 205 224z" />
<glyph unicode="U" horiz-adv-x="2965" d="M2425 683l-3 -13l11 5q185 50 311 193q122 144 120 314q0 91 -34 156l-7 -8l-174 -266l-68 -113q-15 -26 -36.5 -60t-32.5 -53q-53 -87 -87 -155zM1232 1565l37 -46q-192 -205 -394 -204q-98 0 -170 76t-72 185q0 159 122 337q116 177 329 318q402 278 912 278 q257 0 405 -47q148 -50 148 -127q0 -34 -22 -54q-18 -22 -46 -22q-30 0 -63 15l-83 33q-250 105 -502 107q-253 0 -495 -111q-246 -105 -398 -279q-156 -178 -156 -365q0 -83 61 -144q58 -65 145 -65q126 2 242 115zM2220 659l7 7l11 28q137 242 482 738l9 11 q-72 46 -176 46q-33 0 -72 -7l-52 -8q-4 -3 -15 -3q-53 0 -53 48q0 37 33 57q37 19 100 19q152 0 275 -95l8 11q181 247 329 409q69 76 152 157.5t159 146.5q155 129 296 198q141 64 250 63q68 0 111 -26q42 -23 40 -69q0 -33 -22 -52q-26 -18 -68 -20q-22 0 -87 17 q-80 26 -115 26q-144 0 -298 -141q-122 -109 -251 -268q-134 -159 -280 -376l-118 -170l-7 -7q68 -102 68 -232q0 -201 -159 -364t-398 -200q-155 -296 -155 -414q0 -91 101 -91q126 0 343 155l18 15l43 -33q-113 -113 -267 -189q-151 -76 -253 -76q-91 0 -144 45 q-50 46 -49 129q0 47 12 95q14 53 44 122q33 76 115 225l3 13q-98 15 -166 49q-33 -178 -148 -334q-122 -162 -289 -253q-166 -91 -340 -91q-224 0 -376 128q-148 133 -148 333q0 126 50 244q43 113 145 235q64 80 192 200q122 109 220 178l307 227q170 130 276 224 q109 98 152 170q42 76 42 148q0 33 -11 95q-4 46 -6 50q0 29 25 57q18 18 51 18q47 0 69 -35q26 -33 28 -90q0 -87 -54 -178q-50 -87 -185 -216q-122 -117 -353 -304q-202 -163 -261 -214q-91 -80 -170 -160q-65 -72 -141 -175q-155 -206 -155 -417q0 -174 112 -279 q110 -113 285 -115q145 0 272 76q130 72 220 202q95 133 134 303q-84 43 -134 106q-50 61 -48 116q0 43 30 65q22 22 65 22q64 0 109 -63q46 -64 46 -163q0 8 -4 -42q72 -46 189 -57z" />
<glyph unicode="V" horiz-adv-x="2673" d="M1436 614l-4 -11q-130 -177 -318 -331q-87 -68 -145 -98q-61 -33 -135 -52q80 -4 124 -5q235 0 478 72q231 64 473 205q228 137 444 333q326 303 546 747q224 441 235 814q0 117 18 148q23 43 73 41q49 0 79 -44q26 -47 26 -126q0 -98 -44 -242q-50 -156 -130 -330 q-91 -188 -181 -336q-206 -333 -452 -592q-249 -261 -534 -439q-289 -181 -598 -277q-311 -95 -621 -95q-148 0 -274 19q-122 22 -182 61q-61 37 -61 90q0 34 25 54q22 19 48 19q33 0 72 -11l137 -47q72 -22 135 -22q192 0 364 141q80 68 119 116q42 58 112 187l4 11 q-289 30 -459 220q-170 185 -170 465q0 281 144 523q145 243 417 416q427 272 943 274q217 0 341 -42q129 -43 129 -109q0 -30 -15 -47q-18 -18 -42 -18q-30 0 -76 15l-146 50q-72 22 -172 37q-91 11 -193 13q-235 0 -451 -80q-213 -83 -376 -231q-163 -152 -253 -342 q-91 -189 -91 -406q0 -264 145 -451q140 -189 364 -215q33 69 44 113l148 387q137 372 250 572q109 201 242 325q87 83 191 133q105 50 185 50q54 0 80 -20q25 -19 25 -48q0 -61 -68 -61q4 0 -52 3q-37 8 -65 8q-166 0 -284 -144q-54 -73 -110 -215q-57 -141 -140 -426 q-83 -284 -128 -412q-54 -133 -129 -254l-8 -7q193 30 341 141q155 109 242 275q87 167 87 357q0 -14 -4 67l58 7q7 -79 7 -105q0 -202 -102 -383q-105 -181 -288 -298q-178 -118 -394 -137z" />
<glyph unicode="W" horiz-adv-x="3724" d="M1371 607q-95 -122 -211 -220q-122 -102 -246 -167q-117 -68 -259 -98q54 -7 100 -9q253 0 544 100q137 42 288.5 111.5t306.5 160.5q156 90 300 196.5t283 232.5l13 7l37 167l43 170q72 292 166 474q94 174 242 318q202 188 428 188q166 0 166 -94q0 -22 -18 -41 q-15 -14 -46 -16q-26 0 -76 13q-91 29 -135 29q-171 0 -293 -151q-122 -148 -185 -431l-72 -343l-11 -40v-11l8 7l140 155q217 254 218 457v85q4 87 73 87q33 0 57 -27q18 -26 18 -76q0 -65 -33 -156q-37 -83 -118 -203q-76 -117 -170 -228q-87 -105 -221 -235l-7 -7l-7 -19 q-54 -209 -145 -368q-90 -155 -231 -292q-159 -155 -307 -200q91 -15 168 -16q145 0 291 31q155 30 292 83q141 54 292 145q152 86 261 185q315 264 500 621q188 357 190 679q0 167 -57 294q-61 126 -167 198q-109 69 -249 69q-87 0 -202 -32l-4 61q141 72 322 72 q156 0 278 -75q122 -76 185 -210q68 -136 68 -310q0 -235 -113 -500q-113 -272 -320 -527q-212 -265 -457 -442q-629 -463 -1243 -463q-178 0 -288 37t-110 97q0 25 23 40q18 19 46 19q7 0 33 -4l61 -15q22 -7 57 -7q171 0 341 166q91 95 148 191q50 94 94 261l4 11l-7 -8 l-91 -72q-246 -192 -524 -348q-285 -155 -549 -251q-189 -61 -348 -87q-163 -26 -337 -26q-220 0 -346 37q-129 43 -127 111q0 26 26 48q22 22 53 24q23 0 67 -15q87 -29 133 -42q30 -8 83 -8q189 0 391 126q196 122 329 326l7 7q-238 34 -408 239q-171 201 -171 459 q0 235 119 449q113 217 322 383q205 167 477 267q268 94 549 94q141 0 276 -20q133 -23 213 -56q83 -33 83 -94q0 -65 -72 -65q-26 0 -61 11l-124 50q-202 83 -463 83q-314 0 -580 -144q-261 -141 -417 -394q-151 -250 -151 -553q0 -152 57 -285q57 -137 159 -224 q94 -87 239 -124v11q76 130 159 379l102 311q87 250 190 413q102 163 239 272q201 166 383 166q76 0 116 -22q43 -18 43 -61q0 -22 -21 -37q-18 -19 -44 -19q-18 0 -57 8q-95 26 -141 26q-155 0 -279 -145q-95 -101 -152 -260q-26 -80 -54 -189q-11 -30 -53 -202 q-34 -133 -80 -264q-37 -122 -94 -239q-50 -102 -95 -163q206 11 369 121q166 116 261 307q94 185 94 408q0 73 -19 141l54 15q22 -102 22 -189q0 -238 -109 -436q-105 -193 -296 -311q-190 -117 -429 -124z" />
<glyph unicode="X" horiz-adv-x="3159" d="M2401 633q43 -206 104 -402q22 -72 52 -94q33 -30 103 -32q91 0 148 50q58 50 56 126q0 204 -463 352zM1989 860l3 8q4 7 62 83l61 91l61 90v24l-4 2q-6 2 -9 2h-15q-170 22 -220 22q-65 0 -106 -29q-37 -30 -37 -73q8 -111 204 -220zM2194 766l8 -4v11q-4 50 -6 78 t-5.5 67.5t-7.5 100.5v8l-43 -58l-37 -55q-3 -8 -9.5 -16t-12 -15.5t-9.5 -14.5q-7 -11 -12.5 -18.5t-5.5 -11.5l-8 -7l8 -6q7 -2 140 -59zM1678 1682h54v-23q0 -64 -30 -140t-85 -148q-50 -69 -120 -106q-76 -33 -156 -33q-129 0 -213 91q-86 87 -86 227q0 185 111 363 q109 177 294 314t433 221q242 75 503 75q181 0 296 -38q105 -37 105 -102q0 -26 -22 -45q-22 -22 -57 -24q-43 0 -109 28q-134 46 -198 56q-87 14 -189 16q-144 0 -268 -31q-134 -30 -270 -91q-156 -68 -269 -170q-116 -106 -183 -228q-65 -125 -63 -242q0 -126 72 -205 q73 -80 178 -80q72 0 128 43q61 42 100 109q37 72 44 163zM2311 1219l3 -11h11q106 -7 176 -7q141 0 196 27q61 30 98 117q37 72 93 72q26 0 41 -18q18 -15 18 -47q0 -68 -52 -116q-53 -54 -144 -76q-98 -30 -228 -32q-46 0 -188 12h-13l3 -12l28 -181l33 -231l4 -15l28 -11 q272 -87 394 -190q117 -106 117 -250q0 -130 -91 -200q-91 -76 -257 -76q-209 0 -259 113q-26 57 -56 202q-37 192 -57 394v11l-11 3q-98 37 -152 61q-22 12 -42 19l-4 -7q-106 -141 -214 -264t-214 -214q-220 -181 -451 -270q-235 -90 -499 -90q-337 0 -500 133 q-57 50 -89 101q-33 54 -33 95q0 46 22 72q26 30 58 31q37 0 57 -20q15 -15 72 -109q137 -231 470 -231q413 0 795 303q113 87 215 193q94 98 252 296l7 7l-11 7q-311 159 -311 322q0 61 45 96q49 34 136 34q50 0 189 -15l156 -19l20 -3v40v43q-8 102 -9 192q0 380 83 583 q79 205 235 205q50 0 83 -18q30 -22 32 -57q0 -23 -15 -37q-15 -15 -43 -17q-15 0 -37 13l-35 15q-18 11 -41 11q-148 0 -148 -474q0 -177 23 -390v-15q14 22 28 39l29 37q11 15 20 31.5t21 31.5l100 140q318 467 593 694q278 228 535 228q113 0 174 -30q68 -30 68 -85 q0 -76 -83 -74q-29 0 -76 11l-65 19q-57 18 -136 18q-126 0 -235 -54q-117 -53 -226 -159q-126 -112 -256.5 -271.5t-259.5 -347.5l-213 -315z" />
<glyph unicode="Y" horiz-adv-x="3163" d="M1467 1689l37 -37q-72 -126 -189 -202q-122 -75 -235 -75q-122 0 -198 75q-75 76 -75 195q0 151 114 322q106 170 294 310q126 87 285 156q156 65 344 98q182 33 358 33q238 0 408 -52q171 -57 171 -137q0 -64 -65 -64q-34 0 -63 20l-89 37q-189 98 -488 98 q-182 0 -367 -41q-181 -42 -334 -125q-117 -62 -211 -160q-98 -98 -152 -209q-57 -112 -57 -214q0 -98 61 -163t148 -65q162 -2 303 200zM2781 1171l11 4l87 140q249 413 486 681q69 80 154 167.5t152.5 146t150.5 115.5q220 148 407 148q72 0 113 -31q37 -26 37 -72 q0 -37 -26 -59q-22 -23 -61 -25q-30 0 -91 12q-75 18 -140 20q-102 0 -200 -54q-102 -50 -213 -166q-87 -95 -152 -178q-75 -90 -138 -190q-69 -106 -145 -239q-101 -167 -162 -287l-54 -103q72 11 129 11q110 0 178 -41q65 -46 65 -126q0 -33 -24 -55q-22 -22 -48 -24 q-54 0 -69 53l-7 30q-30 91 -148 91q-54 0 -115 -8l-48 -94l-50 -91q-224 -423 -390 -686q-159 -254 -318 -442q-95 -109 -185.5 -201t-208.5 -182q-84 -69 -203 -146.5t-243 -146.5q-235 -122 -474 -181q-239 -65 -477 -65q-466 0 -664 272q-76 109 -76 235q0 91 46 172 q43 80 120 121q72 46 167 46q83 0 129 -35q50 -30 50 -91q0 -33 -28 -61q-22 -22 -55 -22q-26 0 -54 11q-76 26 -105 28q-80 0 -130 -58q-57 -61 -57 -137q0 -122 87 -216q79 -94 231 -146q152 -54 346 -54q289 0 564 94q282 99 531 282q122 90 226 192q102 106 213 239 q113 144 235 329q140 213 246 390l307 524l11 15l19 29l31 50h-11l-11 -3q-54 -8 -148 -8q-87 0 -141 11v-50q0 -360 -209 -636q-272 -348 -651 -348q-242 0 -394 130q-148 133 -148 347q0 148 61 282q57 137 159 242q83 87 209 185q102 80 344 242q278 182 368 261 q217 174 215 342q0 58 -19 106q-11 42 -11 57q0 22 22 41q19 15 47 15q22 0 48 -19q18 -15 35 -48q11 -33 11 -79q0 -73 -33 -148q-37 -80 -108 -156q-116 -126 -214 -198q-8 -3 -194 -137q-15 -11 -58 -37q-3 0 -25.5 -16.5t-46.5 -36.5q-599 -420 -597 -851 q0 -117 57 -213q57 -102 150 -159q94 -61 198 -61q192 0 355 126q166 122 266 329q98 209 98 435v57q-162 54 -162 174q0 30 22 54q22 22 50 22q53 0 90 -48q47 -50 65 -145q46 -11 120 -11q104 0 221 15z" />
<glyph unicode="Z" horiz-adv-x="2719" d="M2845 2238q102 -29 206 -29q105 0 177 33q69 30 69 76q0 57 -104 57q-79 0 -166 -33q-98 -39 -182 -104zM1891 777l-23 7q-220 -281 -490 -440q-220 -133 -409 -181q84 -8 243 -33q50 -12 288 -50q250 -37 406 -37q166 0 296 48q125 50 199 140q72 83 72 193 q0 125 -98 198q-98 75 -325 120zM1837 1092l43 68h-12h-107q-238 0 -238 -118q0 -102 175 -160l11 -3l4 11l87 137zM2694 2281l72 -22q272 209 512 207q80 0 124 -26q50 -33 50 -83q0 -91 -111 -148q-105 -54 -287 -54q-129 0 -285 32q-90 -69 -192 -191 q-141 -166 -326 -542l-61 -116l-61 -123h23q11 -3 50 -3q177 0 268 35q90 33 163 128q68 83 122 83q29 0 50 -19q18 -18 18 -48q0 -50 -46 -96q-50 -50 -117 -80q-155 -64 -451 -62h-98h-11q-61 -130 -187 -300l-15 -15q22 -7 26 -7l148 -35q466 -95 466 -359 q0 -134 -90 -245q-91 -109 -250 -166q-163 -61 -365 -59q-125 0 -279 15q-189 14 -383 36q-292 43 -353 47q-80 3 -167 3q-257 0 -459 -75q-42 -15 -62 -15q-23 0 -39 15q-15 14 -15 37q0 46 57 83q58 37 156 61q98 22 218 22h172q155 0 294 39q137 33 255 109 q122 76 222 194q106 113 217 283l7 10q-133 29 -224 101q-87 69 -87 156q0 72 61 105q65 34 206 35q42 0 148 -3h70l69 -6l34 55t19 30q8 19 9.5 20.5t1.5 5.5q365 590 701 860l12 12l-113 18l-115 18q-546 99 -818 100q-318 0 -512 -155q-94 -76 -152 -191 q-61 -112 -59 -207q0 -116 91 -205q90 -87 203 -87q159 0 289 120q129 122 151 300l54 -4q-4 -133 -107 -279q-83 -130 -207 -198q-126 -69 -267 -69q-137 0 -227 87q-91 91 -91 228q0 209 144 394q145 189 380 300q231 113 488 113q116 0 268 -26t304 -80l220 -76z" />
<glyph unicode="[" horiz-adv-x="1259" d="M2152 2649h-280l-1432 -3017h280l-30 -63h-488l1491 3139h490z" />
<glyph unicode="\" horiz-adv-x="1465" d="M845 -431l-401 3139h91l397 -3139h-87z" />
<glyph unicode="]" horiz-adv-x="1259" d="M-46 -368h281l1428 3017h-275l29 59h485l-1489 -3139h-489z" />
<glyph unicode="_" horiz-adv-x="1894" d="M0 -625v122h1894v-122h-1894z" />
<glyph unicode="`" horiz-adv-x="817" d="M564 1269l-33 -33l-174 120q-105 76 -107 130q0 29 22 51q18 23 46 24q34 0 58 -27q25 -26 75 -98z" />
<glyph unicode="a" horiz-adv-x="1208" d="M940 803h148l-243 -405q-53 -91 -87 -163q-33 -61 -35 -87q0 -43 35 -43q58 0 222 152l28 -44q-94 -98 -212 -167q-113 -68 -182 -68q-42 0 -65 22q-25 15 -25 54q0 64 55 174q-250 -246 -420 -246q-83 0 -137 51q-50 54 -48 145q0 151 117 329q122 185 314 331 q289 213 561 211q113 0 187 -26q72 -30 72 -83q0 -26 -24 -46q-19 -19 -48 -19q-19 0 -61 19q-50 18 -76 31q-80 30 -167 30q-155 0 -325 -124q-98 -76 -180 -176q-83 -106 -128 -211q-50 -113 -50 -191q0 -57 30 -90q33 -37 82 -37q83 0 181 70q94 69 200 198 q168 207 281 409z" />
<glyph unicode="b" horiz-adv-x="1339" d="M784 845l-29 37q216 160 348 160q87 0 148 -62q53 -61 53 -159q0 -90 -50 -199q-57 -117 -144 -228q-94 -113 -196 -189q-141 -109 -315 -168q-177 -61 -357 -59q-177 0 -296 40q-109 43 -109 112q0 25 19 48q22 18 53 18q15 0 76 -22q26 -8 41 -8q68 0 194 148 q106 130 242 383q76 152 232 493q94 220 174 364q79 137 159 239q76 94 185 192q148 133 314 205q167 73 318 73q117 0 202 -39q76 -34 76 -95q0 -29 -22 -57q-22 -22 -54 -22q-30 0 -118 50q-122 68 -235 66q-174 0 -341 -174q-105 -112 -216 -290q-65 -113 -113 -205 q-37 -76 -57 -113q-15 -26 -31.5 -59.5t-29.5 -51.5q-69 -141 -189 -352q-113 -205 -167 -288q-125 -202 -234.5 -323t-212.5 -177q148 -68 307 -68q268 0 481 238q102 113 159 235t57 224q0 69 -33 109q-37 43 -96 43q-48 0 -193 -69z" />
<glyph unicode="c" horiz-adv-x="900" d="M694 326l29 -41q-101 -130 -249 -217q-145 -86 -265 -86q-102 0 -159 64q-61 65 -61 170q0 137 105 308q106 166 293 314q242 185 431 185q76 0 118 -26q43 -29 41 -76q0 -33 -22 -53q-23 -26 -58 -26q-33 0 -55 18q-15 11 -24 15q0 4 -9.5 9.5l-16.5 9.5q-34 29 -91 31 q-105 0 -235 -118q-76 -69 -148 -163q-65 -95 -102 -189q-42 -98 -42 -170t50 -115q42 -42 105 -40q72 0 178 55q103 54 187 141z" />
<glyph unicode="d" horiz-adv-x="1259" d="M1027 239l22 14l24 -40q-105 -98 -220 -167q-113 -68 -183 -68q-87 0 -87 87q0 61 57 170q-126 -126 -246 -185q-126 -65 -220 -65q-91 0 -144 58q-58 61 -56 146q0 72 30 148q29 83 79 155q50 76 122 156q69 75 159 151q98 76 182 126q94 54 185 83q87 26 163 26 q129 0 129 -76q0 -26 -18 -44q-19 -19 -50 -20q-15 0 -69 16q-76 26 -113 26q-155 0 -333 -181q-116 -113 -194 -252q-76 -137 -76 -231q0 -65 39 -109q37 -46 91 -46q188 0 409 273q79 95 192 269l115 179q18 33 33 56l25 39.5l21 32.5l30 57l266 424q122 192 235 349 q94 122 163 196q220 243 477 243q91 0 145 -30q53 -33 51 -90q0 -34 -18 -54q-22 -22 -58 -22q-33 0 -61 18l-62 46q-65 37 -126 37t-117 -33q-65 -37 -118 -103q-98 -123 -265 -394l-773 -1296l-26 -42q-54 -91 -54 -124t30 -35q50 0 213 126z" />
<glyph unicode="e" horiz-adv-x="904" d="M231 516q167 54 315 139q109 68 155 118q50 54 50 106q0 26 -20 46q-19 15 -48 15q-50 0 -108 -30q-50 -26 -116 -92q-65 -61 -122 -132q-56 -76 -106 -170zM712 326l11 -58q-137 -137 -272 -211q-140 -79 -242 -79q-98 0 -159 68q-61 65 -61 167q0 137 91 294 q98 163 260 307q113 102 235 159q126 61 217 61q61 0 98 -26q37 -33 39 -79q0 -159 -343 -333q-188 -98 -384 -156q-26 -76 -28 -137q0 -75 42 -125q43 -50 106 -48q72 0 163 40q87 50 227 156z" />
<glyph unicode="f" horiz-adv-x="871" d="M265 -54v21l-12 -24l-162 -287q-137 -231 -311 -440t-329 -322q46 -4 75 -4q160 0 293 80q137 79 235 220q98 140 159 340q52 200 52 416zM285 431l7 -37l72 159l73 156q22 42 40 83l61 126l8 11h-11q-19 0 -28 3h-22q-109 0 -171 -64q-61 -72 -61 -193q2 -100 32 -244z M213 231l29 65q-3 22 -5 31.5t-2 12.5l-7 50l-23 121q-42 220 -42 288q0 95 57 148q58 50 163 50q79 0 155 -7h15l19 -6l3 13l119 222q549 1038 1117 1040q202 0 200 -107q0 -23 -22 -45q-22 -18 -58 -20q-29 0 -63 16l-53 30q-61 33 -133 33q-145 0 -333 -170 q-130 -109 -257 -325q-110 -182 -261 -504l-43 -98l-50 -96l13 -4q109 -3 91 -3q137 0 148 79l7 47q11 61 67 61q64 0 64 -73q0 -75 -64 -125q-61 -47 -170 -45q-106 0 -182 8l-61 -134l-65 -136l-246 -531l-18 -37q11 -76 11 -137q0 -254 -65 -470q-64 -213 -192 -374 q-126 -155 -300 -239q-170 -87 -383 -88q-116 0 -196 42q-83 33 -83 87q0 26 18 46q19 19 50 19q30 0 80 -35q46 -30 79 -30q34 0 98 57q61 58 163 182q106 144 220 329q12 15 76 130q43 72 91 162q18 37 48.5 94.5t45.5 94.5q19 43 98 209z" />
<glyph unicode="g" horiz-adv-x="1176" d="M516 117q-148 -95 -205 -117q-65 -26 -133 -26q-87 0 -148 59q-58 58 -56 156q0 133 113 307q117 177 300 314q299 232 593 232q126 0 221 -34q90 -42 90 -90q0 -30 -18 -50q-15 -23 -45 -23q-33 0 -53 12l-87 48q-98 53 -228 53q-235 0 -444 -220q-105 -113 -181 -253 q-72 -141 -72 -228q0 -68 42 -109q34 -46 98 -46q117 0 250 133q76 72 213 268q129 189 189 255q61 58 125 56q61 0 60 -52q0 -53 -60 -57l-50 -4q-46 -4 -83 -50q-46 -50 -98 -163q-53 -98 -170 -383q-83 -201 -159 -357.5t-141 -271.5q-133 -227 -288 -373 q-171 -163 -402 -263q-238 -98 -455 -98q-152 0 -272 57q-116 50 -187 152q-68 94 -66 218q0 109 55 213q58 94 159 156q98 57 220 57q134 0 221 -57q87 -62 87 -145q0 -37 -23 -63q-26 -26 -61 -27q-42 0 -76 49q-53 73 -98 102q-46 30 -122 30q-116 0 -203 -94 q-91 -95 -93 -215q0 -159 133 -267q130 -101 319 -101q174 0 349 68q171 65 298 181q95 87 194 232q98 148 182 318l111 220q83 174 155 291z" />
<glyph unicode="h" horiz-adv-x="1367" d="M394 159l26 -29q-106 -84 -189 -119q-87 -37 -181 -37q-109 0 -176 33q-65 30 -63 80q0 33 23 54q18 18 53 18q19 0 33 -7l43 -19q22 -7 41 -7q50 0 144 94q109 113 200 261q94 152 194 390q137 319 261 546q72 126 144 239q80 116 148 192q65 80 141 141q76 65 166 122 q228 140 466 140q106 0 182 -38q76 -34 76 -95q0 -29 -26 -57q-22 -22 -54 -22q-26 0 -72 22l-80 42q-87 50 -192 49q-185 0 -346 -167q-91 -91 -200 -268q-50 -80 -183 -333q-94 -182 -113 -213l-114 -205l-87 -152q-26 -46 -34 -56q4 4 4 8q4 0 4 2t2 3l1 2l30 23 q113 109 259 181q144 72 253 72q87 0 145 -48q57 -54 55 -133q0 -69 -59 -145q-61 -79 -202 -192l-137 -111q-90 -80 -146 -152q-57 -79 -57 -127q0 -61 57 -61q30 0 95 22q83 29 116 31q43 0 61 -20q19 -15 19 -45q0 -33 -22 -50q-23 -18 -61 -18h-15h-22l-58 11 q-50 4 -105 4q-69 0 -159 -15h-35q-54 0 -52 65q0 68 87 170q37 50 199 181q304 246 304 398q0 117 -126 118q-65 0 -166 -50q-95 -50 -200 -140q-106 -87 -198 -200l-132 -170q-166 -213 -284 -281q46 -11 86 -11q119 0 228 79z" />
<glyph unicode="i" horiz-adv-x="604" d="M731 1543q0 54 39 94q33 43 79 41q30 0 52 -22q18 -19 20 -54q0 -50 -39 -94q-37 -43 -79 -41q-72 0 -72 76zM420 268l24 -44q-122 -113 -220 -174q-106 -65 -170 -65q-91 0 -91 83q0 65 87 200l307 513q57 98 56 109q0 22 -23 24q-29 0 -98 -43q-83 -46 -148 -101 l-22 44q113 94 226 159q102 57 159 57q33 0 61 -18q22 -22 22 -61q0 -46 -74 -170l-288 -474q-80 -126 -80 -163q0 -26 30 -27q57 0 223 136z" />
<glyph unicode="j" horiz-adv-x="579" d="M159 773l-26 41q102 91 215 155q109 61 172 61q37 0 59 -18q22 -19 24 -57q0 -58 -68 -171l-326 -527q-137 -224 -277.5 -426.5t-274.5 -371t-260 -293.5q-185 -196 -322 -280q-144 -87 -265 -87q-72 0 -114 30q-46 30 -45 79q0 30 19 54q22 19 50 19q33 0 94 -30 q65 -33 117 -35q144 0 364 246q156 174 344 451q235 344 354 539l231 375q148 239 189 322q11 22 11 37q0 22 -26 24q-26 0 -91 -39q-72 -40 -148 -98zM746 1543q0 54 38 94q34 43 80 41q30 0 50 -22q18 -19 18 -54q0 -50 -38 -94q-37 -43 -80 -41q-26 0 -48 22 q-20 24 -20 54z" />
<glyph unicode="k" horiz-adv-x="1306" d="M1088 261l18 -37q-87 -102 -196 -167q-113 -72 -183 -72q-50 0 -76 26q-29 22 -29 69q0 42 37 116l35 69q42 87 40 155q0 18 -3 50q-141 11 -141 83q0 46 61 46q72 0 111 -68q91 11 178 48q79 43 140 111q54 65 52 124q0 117 -124 118q-109 0 -238 -101 q-134 -102 -308 -331q-166 -213 -257 -304q-72 -68 -133 -98q37 -11 80 -11q133 0 242 87l22 -30l-18 -14q-189 -145 -380 -145q-209 0 -207 106q0 26 23 50q14 18 44 18q22 0 39 -7l46 -15q19 -7 37 -7q65 0 174 127q109 133 190 274q69 122 211 442l152 322 q83 170 159 292q76 133 137 206q65 83 137 155q314 315 684 315q113 0 187 -36q72 -33 72 -90q0 -34 -24 -54q-22 -22 -55 -22q-30 0 -72 26q-145 79 -267 79q-223 0 -416 -246q-109 -140 -337 -571q-3 -8 -10.5 -21l-16.5 -29q-4 -11 -11.5 -24t-14.5 -24 q-11 -26 -15 -32.5t-11 -21.5q-30 -54 -57 -98l-91 -167l-106 -186q117 136 272 231q156 94 265 96q76 0 126 -46q46 -43 46 -113q0 -87 -76 -187q-79 -94 -198 -163q-116 -68 -250 -87q15 -37 15 -83q0 -54 -3 -98q-12 -98 -12 -115q0 -76 61 -76t178 104l41 33 q13 11 24 19z" />
<glyph unicode="l" horiz-adv-x="771" d="M448 148l22 -31q-174 -141 -424 -139q-105 0 -172 29q-65 30 -63 84q0 29 23 50q14 18 44 18q22 0 65 -18q42 -11 53 -11q54 0 163 112q185 196 341 546l166 368q76 170 159 322t168 261q84 117 163 198q76 76 182 150q246 170 527 172q109 0 181 -39q69 -37 69 -98 q0 -30 -19 -50q-26 -18 -54 -18q-29 0 -79 18l-83 46q-98 43 -178 41q-117 0 -235 -63q-117 -65 -220 -187q-102 -116 -228 -362l-109 -235q-26 -50 -68.5 -141t-49.5 -107q-137 -304 -261 -500q-126 -185 -270 -322q-109 -98 -185 -137q72 -29 144 -29q111 0 228 72z" />
<glyph unicode="m" horiz-adv-x="1844" d="M83 0h-192q72 91 131 189l43 68q61 91 87 137q83 130 94 155l111 185q72 123 70 137q0 26 -29 26q-26 0 -91 -37q-57 -37 -137 -102l-26 41q72 69 174 141q126 87 202 87q33 0 59 -19q22 -18 24 -53q0 -54 -61 -167l-15 -22q91 76 224 152q185 112 298 112 q122 0 122 -109q0 -57 -31 -129l24 18q288 228 481 228q90 0 144 -45q54 -49 52 -125q0 -72 -56 -148q-65 -84 -209 -200q-196 -163 -257 -235q-76 -87 -76 -152t52 -65q26 0 100 26q79 26 113 28q42 0 64 -20q19 -19 19 -45q0 -61 -68 -61l-49 4q-112 7 -155 7 q-72 0 -144 -11l-47 -3q-57 0 -55 61q0 116 163 253l127 113q156 133 224 220q65 80 65 159q0 58 -39 87q-37 33 -94 35q-98 0 -254 -107q-148 -105 -260 -257q-106 -144 -198 -289q-102 -170 -152 -268h-189l79.5 119.5t96.5 150l128 200.5q79 126 166 281q50 83 48 117 q0 18 -18 33q-19 11 -41 13q-91 0 -239 -104q-144 -101 -262 -257q-72 -94 -121 -170q-53 -76 -118 -194z" />
<glyph unicode="n" horiz-adv-x="1265" d="M94 22l-14 -22h-189l231 352q192 303 272 462q26 54 26 65q0 26 -22 26q-58 0 -235 -147l-26 41q102 95 211 163q109 65 172 65q79 0 79 -72q0 -73 -96 -224q322 311 570 311q80 0 135 -49q54 -49 54 -125q0 -84 -61 -159q-61 -76 -250 -235q-285 -228 -285 -348 q0 -54 50 -54q26 0 98 19q94 26 130 26t57 -15q18 -19 18 -45q0 -33 -22 -53q-22 -19 -57 -19q-22 0 -54 4q-79 11 -148 11q-105 0 -166 -7q-26 -4 -30 -4q-26 0 -46 15q-15 14 -15 46q0 61 61 135q54 72 209 205q174 152 246 243q72 94 72 174q0 50 -39 79q-37 33 -86 35 q-87 0 -217 -83q-129 -83 -246 -209q-91 -102 -209 -292l-91 -156z" />
<glyph unicode="o" horiz-adv-x="1006" d="M901 666q0 -122 -83 -272q-87 -152 -222 -264q-182 -160 -357 -160q-117 0 -185 73q-65 75 -65 203q0 109 57 231q58 117 163 232q105 109 239 196q113 72 218 107q113 37 209 37q65 0 105 -22q43 -26 43 -65q0 -26 -22 -44q-26 -19 -57 -21q-26 0 -106 24 q-80 23 -126 23q-113 0 -246 -102q-129 -106 -216 -267q-84 -155 -84 -303q0 -192 156 -192q105 0 213 79q101 76 174 198q68 117 68 233q0 50 -26 126q-11 33 -13 54q0 26 24 44q19 22 45 24q46 0 68 -50q26 -46 26 -122z" />
<glyph unicode="p" horiz-adv-x="1180" d="M-289 -1049l28 -39q-91 -68 -239 -113q-144 -46 -284 -46q-278 0 -276 115q0 33 26 55q22 23 61 24q29 0 59 -16q50 -19 65 -19q68 0 152 91q94 105 257 383q109 185 310 568q182 348 304 562q277 470 492 681q220 216 426 216q64 0 94 -25q33 -23 33 -65q0 -34 -22 -58 q-22 -22 -61 -22q-30 0 -59 8q-106 25 -130 25q-140 0 -296 -188q-126 -156 -214 -342q272 288 495 288q98 0 152 -57q50 -58 48 -156q0 -140 -94 -314q-98 -178 -250 -318q-231 -213 -459 -211q-68 0 -109 37q-46 37 -46 87q0 33 22 57q22 22 57 22q43 0 50 -37l4 -27 q7 -73 83 -71q65 0 152 52q87 57 163 137q102 117 174 272t72 263q0 61 -33 98q-34 37 -87 37q-95 0 -209 -71q-117 -76 -221 -205q-83 -98 -173 -268q-73 -126 -185 -387q-141 -318 -252 -501q-113 -185 -272 -355q-178 -189 -285 -239q65 -22 137 -22q174 0 340 94z" />
<glyph unicode="q" horiz-adv-x="1150" d="M973 716h122l-1160 -1913h-151l845 1399q-265 -213 -448 -213q-94 0 -148 61q-53 57 -51 152q0 112 64 242q65 130 189 257q318 333 651 333q102 0 167 -33q64 -37 64 -91q0 -26 -14 -46q-23 -19 -50 -19q-34 0 -76 34l-37 35q-58 50 -144 48q-102 0 -213 -61 q-109 -61 -200 -159q-94 -102 -152 -218q-61 -117 -61 -224q0 -72 46 -119q43 -42 110 -40q105 0 227 75q130 80 231 200q113 137 189 300z" />
<glyph unicode="r" horiz-adv-x="886" d="M80 0h-193q57 72 128 189l79 137l304 495q26 47 26 54q0 19 -23 19q-53 0 -227 -128l-15 -11l-22 41q57 53 148 118q79 50 142 79q73 34 108 34q29 0 48 -19q18 -15 20 -46q0 -54 -68 -178q98 102 196 167q101 61 174 61q53 0 92 -22q30 -26 30 -65q0 -33 -15 -54 q-19 -22 -46 -22q-19 0 -45 15l-27 11q-26 11 -63 11q-95 0 -213 -98q-126 -98 -246 -281q-187 -268 -292 -507z" />
<glyph unicode="s" horiz-adv-x="858" d="M973 1077q-94 15 -94 83q0 22 15 41q18 18 46 18q37 0 68 -33q26 -33 26 -83q0 -95 -79 -159q-76 -69 -185 -69q-26 0 -100 7q-30 8 -39 8h-17l-39 7q-26 8 -51 8q-47 0 -73 -26q-29 -22 -31 -65q0 -57 104 -181q83 -95 112 -159q26 -65 26 -137q0 -95 -52 -178 q-61 -91 -155 -144q-98 -54 -209 -52q-141 0 -231 74q-91 76 -91 191q0 98 69 166q64 65 162 65q73 0 113 -39q46 -37 46 -98q0 -54 -29 -83q-30 -34 -76 -34q-26 0 -50 23q-22 18 -22 50q0 14 4 29l11 22q3 15 3 19q0 26 -38 28q-54 0 -91 -47q-37 -42 -37 -101 q0 -84 76 -141q72 -57 174 -57q116 0 192 72q76 68 76 179q0 87 -76 200q-72 113 -87 152q-18 37 -18 87q0 122 90 205q91 87 224 87q46 0 80 -4q116 -15 144 -15q91 0 109 84z" />
<glyph unicode="t" horiz-adv-x="908" d="M561 524q-102 -174 -235 -285q-134 -109 -280 -137q98 -34 182 -34q155 0 264 91q106 91 107 224q-1 72 -38 141zM481 723l7 8l61 122q43 76 47 91q-34 3 -61 3q-58 0 -84 -26q-33 -26 -35 -68q0 -46 46 -107l12 -15q7 -4 7 -8zM448 655l7 11l-11 13l-31 30 q-69 79 -84 98q-15 18 -22 46q-7 15 -7 41q0 50 40 79q43 33 108 35q57 0 162 -15h15l4 8q390 738 742 738q94 0 96 -50q0 -22 -17 -33q-14 -11 -37 -11q-3 0 -38 3q-43 8 -63 8q-117 0 -228 -106q-79 -83 -157 -221.5t-161 -348.5l-8 -7q80 -11 102 -11q156 0 167 107v30 q3 54 57 54q69 0 69 -73q0 -75 -76 -125q-72 -47 -202 -45q-68 0 -137 11q-7 -15 -33 -90q-50 -134 -115 -256q61 -94 61 -196q0 -116 -65 -213q-64 -86 -188 -140q-117 -50 -272 -48q-122 0 -194 29q-73 34 -73 87q0 58 58 58h11l22 -11q19 -4 35 -4q61 0 141 68 q50 43 135 159q91 117 137 204z" />
<glyph unicode="u" horiz-adv-x="1117" d="M940 278l26 -47q-109 -109 -220 -177q-110 -69 -182 -69q-79 0 -79 72q0 65 72 193l11 22l-19 -19q-281 -264 -444 -264q-57 0 -94 33q-37 37 -37 100q0 43 22 94q15 47 72 132l269 455q42 68 42 87q0 26 -27 28q-65 0 -219 -126l-20 46q94 87 198 142q94 58 159 58 q37 0 65 -19q22 -18 22 -53q0 -54 -76 -170l-292 -489q-58 -98 -56 -144q0 -19 19 -41q18 -18 44 -20q61 0 168 72q110 76 211 187q174 185 319 457q29 50 31 72q0 29 -24 31q-37 0 -192 -114l-15 -11l-28 42q98 94 198 146q98 54 159 54q30 0 57 -19q26 -18 26 -53 q0 -50 -87 -189l-281 -474l-37 -64q-33 -58 -35 -84q0 -37 35 -38q61 1 239 161z" />
<glyph unicode="v" horiz-adv-x="1082" d="M488 977q-140 -22 -223 -80l-49 -37q-22 -15 -42 -15q-54 0 -52 52q0 58 98 87q137 43 272 43q65 0 65 -30q0 -26 -41 -65q-90 -94 -152 -246q-64 -151 -64 -288q0 -43 11 -102q7 -57 7 -83q0 -34 -15 -54q-18 -26 -50 -26q-53 0 -79 48q-30 47 -30 126q0 167 91 341 q94 177 253 329zM-50 43q0 29 20 44q19 18 48 18q15 0 65 -7q69 -11 137 -11q126 0 220 46q91 37 189 139q122 126 185 270q61 141 61 283q0 7 -4 72q-3 50 -3 72q0 76 76 76q101 0 101 -148q0 -151 -113 -351q-116 -202 -296 -350q-133 -109 -279 -166q-148 -58 -296 -56 q-111 0 -111 69z" />
<glyph unicode="w" horiz-adv-x="1552" d="M723 364q109 130 174 254q61 116 61 185q0 57 -37 57q-68 -3 -133 -151t-65 -296v-49zM500 977q-152 -22 -247 -98q-33 -34 -61 -34q-26 0 -37 19q-14 15 -14 33q0 54 75 87q110 50 280 50q76 0 76 -41q0 -22 -45 -68q-98 -105 -151 -242q-62 -137 -62 -270 q0 -61 12 -110q11 -53 11 -75q0 -37 -23 -65q-22 -22 -61 -22q-94 0 -94 173q0 163 94 345q95 181 247 318zM666 224l-11 -11q-265 -239 -564 -239q-130 0 -128 76q0 61 70 59q8 0 39 -4l54 -7q57 -11 105 -11q243 0 428 205v48q0 167 50 326q53 159 129 266q80 102 152 102 q37 0 59 -29q22 -30 24 -84q0 -116 -93 -288q-90 -163 -242 -333q54 -156 183 -156q113 0 215 80q98 76 163 213q61 129 61 279q0 61 -11 144q-8 54 -8 80q0 50 26 79q22 30 57 30q91 0 91 -155q0 -152 -76 -326q-76 -178 -192 -333q-87 -109 -191 -178q-98 -64 -185 -64 q-79 0 -133 61q-57 57 -72 170z" />
<glyph unicode="x" horiz-adv-x="1013" d="M383 481l4 11h-178l26 69h178q37 105 38 194q0 61 -35 102q-33 37 -90 37q-37 0 -84 -19q-22 -11 -40 -11q-15 0 -24 11q-12 11 -12 22q0 30 36 65q29 30 83 54q50 18 91 18q79 0 120 -50q46 -53 46 -135q0 -53 -11 -107q68 90 144 159q80 68 163 107q83 37 146 37 q43 0 65 -18q26 -19 28 -50q0 -72 -133 -80q-148 -11 -250 -90q-102 -80 -187 -239l-7 -7h170l-30 -69h-170q-72 -152 -72 -264q0 -80 46 -130q46 -46 124 -44q57 0 102 29q42 34 42 76q0 61 -53 61q-26 0 -34 -4h-26q-57 0 -57 56q0 42 33 72q37 30 91 32q65 0 107 -47 q37 -42 37 -109q0 -98 -72 -166q-76 -72 -181 -72q-106 0 -167 68q-64 68 -64 189v11q-95 -133 -217 -204q-122 -72 -235 -72q-42 0 -70 26q-30 22 -32 61q0 72 80 72h11q4 -3 15 -3q26 0 43.5 -2t21.5 -2q129 0 242 94q115 91 198 261z" />
<glyph unicode="y" horiz-adv-x="1154" d="M133 751l-24 33q130 122 231 178q106 65 167 65q79 0 79 -72q0 -69 -83 -209l-63 -106l-205 -340q-80 -134 -80 -167q0 -50 65 -50q133 0 322 163q185 159 372 433l102 155q151 217 288 215q34 0 56 -15q22 -18 24 -50q0 -29 -13 -44q-11 -15 -37 -30q-30 -15 -91 -28 q-79 -18 -133 -57q-54 -37 -109 -120q-72 -102 -183 -307q-95 -182 -219 -455q-129 -282 -216 -435q-83 -152 -178 -274q-87 -109 -205 -214q-303 -258 -607 -260q-113 0 -185 39q-72 34 -72 98q0 30 22 54q26 22 54 22q37 0 83 -22l80 -50q76 -37 177 -37q148 0 282 102 q86 61 166 174q76 98 174 296l144 268l137 254.5t152 254.5l11 18q-15 -11 -19 -15l-3 -3q-87 -69 -116 -90t-49 -40q-30 -18 -102 -53q-105 -54 -185 -52q-144 0 -144 127q0 47 15 84q18 46 68 125l257 420q69 113 69 137q0 23 -22 23q-34 0 -109 -41q-80 -48 -145 -102z " />
<glyph unicode="z" horiz-adv-x="862" d="M553 618l-57 -57h174l-34 -69h-209l-63 -65l-64 -63q-122 -122 -183 -190l-15 -15q133 57 259 57q72 0 131 -24q61 -18 98 -55q33 -37 35 -83q0 -30 -18 -54q-22 -26 -54 -26q-33 0 -109 59q-113 87 -231 89q-130 0 -213 -89q-46 -42 -61 -51q-19 -12 -41 -12 q-26 0 -46 19q-15 11 -15 37q0 37 65 87q68 53 124 103q166 141 274 246l22 23l7 7h-177l29 69h217l7 7q109 109 257 277l21 19q-117 -33 -213 -33q-109 0 -174 37q-61 33 -61 94q0 26 18 54q19 18 47 18q22 0 64 -37q87 -76 235 -76q91 0 156 41l52 39q29 18 53 18 q15 0 26 -14q15 -15 15 -28q0 -43 -52 -91l-111 -98l-124 -118z" />
<glyph unicode="&#xaa;" horiz-adv-x="1208" d="M940 803h148l-243 -405q-53 -91 -87 -163q-33 -61 -35 -87q0 -43 35 -43q58 0 222 152l28 -44q-94 -98 -212 -167q-113 -68 -182 -68q-42 0 -65 22q-25 15 -25 54q0 64 55 174q-250 -246 -420 -246q-83 0 -137 51q-50 54 -48 145q0 151 117 329q122 185 314 331 q289 213 561 211q113 0 187 -26q72 -30 72 -83q0 -26 -24 -46q-19 -19 -48 -19q-19 0 -61 19q-50 18 -76 31q-80 30 -167 30q-155 0 -325 -124q-98 -76 -180 -176q-83 -106 -128 -211q-50 -113 -50 -191q0 -57 30 -90q33 -37 82 -37q83 0 181 70q94 69 200 198 q168 207 281 409z" />
<glyph unicode="&#xad;" horiz-adv-x="965" d="M126 474v122h612v-122h-612z" />
<glyph unicode="&#xba;" horiz-adv-x="1006" d="M901 666q0 -122 -83 -272q-87 -152 -222 -264q-182 -160 -357 -160q-117 0 -185 73q-65 75 -65 203q0 109 57 231q58 117 163 232q105 109 239 196q113 72 218 107q113 37 209 37q65 0 105 -22q43 -26 43 -65q0 -26 -22 -44q-26 -19 -57 -21q-26 0 -106 24 q-80 23 -126 23q-113 0 -246 -102q-129 -106 -216 -267q-84 -155 -84 -303q0 -192 156 -192q105 0 213 79q101 76 174 198q68 117 68 233q0 50 -26 126q-11 33 -13 54q0 26 24 44q19 22 45 24q46 0 68 -50q26 -46 26 -122z" />
<glyph unicode="&#x410;" horiz-adv-x="3272" d="M2788 640l-174 -387q-33 -87 -33 -105q0 -68 101 -68q84 0 160 42q75 37 116 109q46 65 46 141q0 79 -57 152q-57 74 -159 116zM1981 1053l126 198h-39q-174 0 -174 -87q0 -58 87 -111zM2155 969q72 -29 133 -51q137 -58 185 -76q95 -34 173 -65l275 477h-603l-33 -61.5 t-19 -32.5q-11 -22 -28.5 -49t-28.5 -42zM2361 1323q64 -4 260 -8q141 -3 198 -3h135l130 211l110 168l98 146t92 126q155 216 246 307q33 33 57 33q22 0 22 -18q0 -15 -42 -76q-113 -152 -222 -341q-137 -227 -270 -480l-34 -65l109 11q182 18 239 140l35 69q26 61 84 59 q36 0 59 -22q22 -26 24 -65q0 -113 -156 -185q-79 -33 -166 -50q-87 -15 -263 -22q-87 -155 -290 -561q122 -61 185 -144q64 -87 64 -189q0 -109 -68 -198q-76 -86 -189 -133q-126 -50 -277 -48q-213 0 -213 109q0 58 57 167l239 459q-42 18 -181 72l-311 126 q-15 -23 -22 -39q-4 -8 -12.5 -17t-11.5 -17q-91 -151 -197.5 -274t-222.5 -231q-76 -68 -161 -128t-166.5 -105.5t-172.5 -84.5q-264 -109 -542 -109q-163 0 -307 41q-144 46 -224 114q-83 69 -83 145q0 37 26 68q26 26 68 26q61 0 111 -79q76 -102 106 -134q29 -29 76 -57 q109 -57 272 -55q196 0 390 79q196 80 353 224q80 72 163 174q94 116 181 238q95 134 198 296q-101 50 -148 99q-50 42 -50 98q0 79 65 114q61 34 209 34h91q15 -4 26 -4h18l357 514q95 126 201 240t219 208q330 288 731 288q137 0 242 -27q106 -23 169 -67q61 -50 59 -104 q0 -36 -26 -64q-26 -26 -61 -26q-30 0 -80 35l-109 74q-29 22 -90 46q-54 19 -123 34q-61 14 -123 16q-178 0 -343 -100q-162 -98 -336 -318q-171 -216 -383 -586q-76 -128 -98 -174z" />
<glyph unicode="&#x411;" horiz-adv-x="3135" d="M3981 1974q-383 -80 -521 -46q-182 33 -250 118q-95 109 -206 205q-188 -61 -340 -179q-163 -122 -296 -294q-144 -185 -272 -440q-133 -261 -148 -296q-80 -148 -176 -280q159 8 357 106l23 -54q-98 -57 -204 -87q-116 -30 -220 -30q-133 -166 -281 -292 q-152 -129 -319 -203q-162 -80 -340 -108q91 -22 205 -37q123 -14 208 -14q144 0 296 51q144 54 253 145q-7 37 -7 79q0 83 42 144q37 58 91 58q30 0 48 -24q18 -19 20 -56q0 -113 -122 -216q26 -80 109 -130q84 -46 202 -44q192 0 368 113q170 116 272 311q102 188 102 405 q15 116 -48 242l-19 39q-50 76 -137 113q-90 37 -181 39q-50 0 -85 -24q-33 -23 -33 -56l-65 -13q-15 98 61 144q72 47 185 47q257 3 463 -250q57 -109 57 -278q0 -231 -133 -434q-130 -213 -344 -343q-221 -125 -456 -123q-136 0 -231 48q-94 53 -137 151 q-116 -101 -294 -159q-174 -53 -364 -52q-178 0 -531 41q-130 15 -185 15q-130 0 -265 -52q-42 -18 -65 -20q-29 0 -50 20q-18 22 -18 44q0 62 72 99q69 37 178 38q64 0 212 -11q73 -7 128 -7q202 0 365 59q159 61 303 191q137 125 279 340q-148 54 -253 148 q-102 91 -156 220q-53 126 -51 296q0 224 109 431q57 98 133 191.5t178 176.5q192 160 451 250q254 91 529 91q181 0 353 -50q171 -46 293 -131q113 25 207 40q87 8 163 8q133 0 238 -30q117 -30 174 -80q65 -53 65 -112q0 -34 -22 -58q-19 -22 -54 -22q-29 0 -55 15 q-30 15 -80 68q-159 148 -383 146q-72 0 -198 -25q98 -87 183 -171q91 -101 287 -125q113 0 322 24zM1572 788l174 315q152 272 221 375q75 122 144 200q94 113 185 205q98 91 189 159q87 65 220 141q113 61 242 113q-265 159 -561 159q-307 0 -582 -155 q-272 -156 -437 -417q-163 -261 -163 -560q0 -209 95 -350q96 -135 273 -185z" />
<glyph unicode="&#x412;" horiz-adv-x="3135" d="M2792 1178q-34 58 -121 95q-90 37 -181 39q-50 0 -85 -24q-33 -23 -33 -56q0 -46 57 -68q54 -26 141 -28q127 0 222 42zM1572 788l174 315q152 272 221 375q75 122 144 200q94 113 185 205q98 91 189 159q87 65 220 141q113 61 242 113q-265 159 -561 159 q-307 0 -582 -155q-272 -156 -437 -417q-163 -261 -163 -560q0 -209 95 -350q96 -135 273 -185zM1728 697q-133 -166 -281 -292q-152 -129 -319 -203q-162 -80 -340 -108q91 -22 205 -37q123 -14 208 -14q144 0 296 51q144 54 253 145q-7 37 -7 79q0 83 42 144q37 58 91 58 q30 0 48 -24q18 -19 20 -56q0 -113 -122 -216q26 -80 109 -130q84 -46 202 -44q192 0 368 113q170 116 272 311q102 188 102 405q0 133 -48 242q-133 -46 -254 -44q-125 0 -205 44q-80 50 -80 126q4 72 80 116q72 47 185 47q213 0 387 -159q144 79 220 212q83 137 83 295 q0 140 -65 270q-64 129 -174 223q-188 -61 -340 -179q-163 -122 -296 -294q-144 -185 -272 -440q-133 -261 -148 -296q-80 -148 -176 -280q159 8 357 106l23 -54q-98 -57 -204 -87q-118 -30 -220 -30zM3123 2350q113 25 207 40q87 8 163 8q133 0 238 -30q117 -30 174 -80 q65 -53 65 -112q0 -34 -22 -58q-19 -22 -54 -22q-29 0 -55 15q-30 15 -80 68q-159 148 -383 146q-72 0 -198 -25q98 -87 152 -204q54 -116 54 -263q0 -196 -106 -366q-57 -87 -129 -153.5t-163 -116.5q87 -148 87 -315q0 -231 -133 -434q-130 -213 -344 -343 q-221 -125 -456 -123q-136 0 -231 48q-94 53 -137 151q-116 -101 -294 -159q-174 -53 -364 -52q-178 0 -531 41q-130 15 -185 15q-130 0 -265 -52q-42 -18 -65 -20q-29 0 -50 20q-18 22 -18 44q0 62 72 99q69 37 178 38q64 0 212 -11q73 -7 128 -7q202 0 365 59 q159 61 303 191q137 125 279 340q-148 54 -253 148q-102 91 -156 220q-53 126 -51 296q0 224 109 431q57 98 133 191.5t178 176.5q192 160 451 250q254 91 529 91q181 0 353 -50q171 -45 293 -131z" />
<glyph unicode="&#x413;" horiz-adv-x="2541" d="M3600 2144q0 -29 -24 -54q-26 -22 -52 -22q-29 0 -92 19q-87 29 -163 31q-133 0 -222 -68q-94 -72 -172 -174q-126 -174 -215 -353l-212 -417q-160 -318 -311 -510q-156 -202 -372 -361q-217 -159 -466 -250q-246 -90 -481 -90q-202 0 -359 59q-156 57 -243 168 q-90 109 -90 239q0 140 102 235q94 94 238 94q80 0 141 -39q53 -33 52 -94q0 -37 -26 -69q-34 -29 -72 -29q-23 0 -73 15q-90 29 -124 29q-68 0 -114 -44q-50 -50 -48 -119q0 -162 170 -268q166 -105 416 -105q192 0 368 44q174 50 326 155q155 106 290 265q137 159 274 390 l242 415q152 257 298 446.5t285 309.5q285 243 574 243q72 0 113 -22q42 -26 42 -69zM2031 1800l45 -22q-34 -76 -121 -187q-105 -122 -212 -185q-106 -65 -213 -65q-109 0 -185 72q-72 69 -72 174q0 137 102 300q105 159 281 289q216 162 470 238q246 72 571 71 q206 0 557 -45q206 -22 315 -22q116 0 223 18q102 19 247 69q64 22 98 22q33 0 53 -18q19 -19 19 -54q0 -76 -106 -120q-109 -50 -277 -50q-106 0 -280 22q-162 22 -173 28q-43 3 -69 11q-30 4 -54 4q-18 3 -61 11q-14 3 -31 5t-32 2q-18 4 -37.5 5.5t-30.5 1.5 q-296 47 -455 47q-549 0 -932 -319q-254 -209 -254 -421q0 -84 57 -135q50 -58 136 -58q98 0 216 87q118 83 205 224z" />
<glyph unicode="&#x414;" horiz-adv-x="3261" d="M2470 1706q-196 -19 -298 -72q-80 -47 -126 -126q-50 -80 -50 -159q0 -109 91 -182q72 134 190 300q113 155 193 239zM1880 520q-174 -170 -357 -270q-182 -95 -428 -145q65 -3 307 -29q206 -26 330 -26q192 0 390 48q202 50 359 137q166 87 307 216q109 102 202 235 q87 134 151 280q61 140 95 296q33 148 33 303q0 193 -56 352q-61 155 -175 273q-117 110 -269 171q-162 57 -355 57q-314 0 -577 -141q-261 -144 -413 -390q-148 -250 -148 -553q0 -372 247 -588q116 -102 235 -128q116 174 284 470q-181 94 -181 283q0 116 83 209 q84 87 232 137q155 46 351 44q220 202 383 202q46 0 72 -19q26 -22 26 -57q-7 -109 -133 -144q-126 -34 -322 -41q-57 -76 -105 -165q-80 -148 -148 -325q-4 -11 -17 -43.5l-28 -69.5q30 -4 48 -4q87 0 178 45q91 42 194 129l19 -44q-102 -106 -213 -148q-109 -47 -211 -47 h-43q-98 -227 -296 -451q11 -4 50 -4q174 0 387 91l11 -52q-205 -98 -405 -98q-11 0 -94 4zM1709 549q-133 37 -251 121q-117 83 -193 175q-83 99 -116 211q-37 117 -39 248q0 250 126 485q65 117 153.5 219.5t197.5 185.5q130 94 285 167q159 72 318 105q156 37 311 39 q300 0 529 -115q228 -109 357 -311q130 -201 130 -457q0 -162 -46 -331q-50 -170 -130 -322q-87 -155 -211 -303q-126 -148 -281 -272q-189 -155 -368 -239q-185 -90 -385 -133q-209 -42 -455 -40q-239 0 -679 44q-144 15 -239 17q-192 0 -322 -61q-49 -23 -75 -25 q-73 0 -73 65q0 122 278 122q37 0 148 -3q22 -4 91 -4q201 0 379 48q174 50 325 144q141 91 235 220z" />
<glyph unicode="&#x415;" horiz-adv-x="2828" d="M1478 1197l-7 -7q98 -15 222 -15q216 0 414 44q196 43 366 126q171 83 308 205q140 122 197 246l4 11q-126 76 -129 197q0 37 26 68q22 26 64 28q54 0 87 -46q34 -47 39 -117q0 -43 -15 -100q61 -18 113 -18q80 0 148 38q65 34 102 102q37 65 39 137q-4 141 -119 226 q-125 87 -307 89q-205 0 -381 -93q-185 -91 -292 -239q-106 -151 -106 -318q4 -50 15 -98q220 -15 219 -126q3 -33 -30 -55q-30 -22 -80 -24q-61 0 -120 39q-65 37 -96 98q-126 -11 -246 -61q-122 -54 -228 -135q-113 -80 -207 -202zM1308 1232l11 -4q98 106 235 193 q144 90 290 151q156 62 293 84q-11 46 -15 94q0 141 80 270q83 130 223 239q141 105 319 170q177 61 362 61q156 0 267 -42q109 -43 177 -117q61 -80 65 -179q0 -160 -126 -272q-129 -117 -307 -119q-83 0 -144 24q-43 -129 -211 -285q-145 -122 -322 -209 q-185 -90 -394 -131q-213 -46 -440 -46q-134 0 -247 18l-7 -7q-98 -145 -137 -261q-42 -126 -37 -261q4 -246 156 -387q144 -140 390 -140q189 0 377 87q189 94 315 235q122 148 118 285q0 94 -65 151q-64 58 -159 56q-79 0 -155 -41q-72 -42 -174 -144l-30 37 q87 122 208 194q126 76 246 76q113 0 183 -68q72 -69 76 -174q3 -261 -318 -524q-167 -133 -369 -209q-196 -76 -408 -74q-182 0 -326 67q-141 72 -220 194q-80 122 -83 279q-4 159 72 346q72 181 188 326l-11 3q-148 47 -249 121q-110 79 -163 183q-65 102 -65 224 q-4 166 87 305q94 137 261 216q166 80 372 80q196 0 371 -72l-24 -48q-151 53 -297 51q-167 0 -307 -75q-145 -76 -224 -204q-80 -133 -76 -292q4 -152 94 -265q96 -113 274 -170z" />
<glyph unicode="&#x416;" horiz-adv-x="4473" d="M3334 1399q50 -4 126 -4q192 0 386 44q193 50 337 141q152 91 261 220q-61 80 -60 163q0 57 26 94q30 37 76 39q43 0 65 -35q26 -33 26 -91q0 -90 -54 -159q76 -72 217 -72q83 0 166 33q76 30 137 85q61 54 98 121q33 72 35 144q0 126 -103 209q-102 80 -272 80 q-133 0 -289 -50q-152 -47 -314 -145q-163 -94 -330 -231q-174 -144 -303 -287q-137 -148 -231 -299zM2004 1103q-50 3 -124 3q-193 0 -387 -46q-192 -50 -337 -139q-151 -90 -262 -220q61 -79 61 -163q0 -57 -26 -94q-30 -37 -76 -39q-43 0 -65 35q-26 34 -26 91 q0 91 52 159q-76 72 -215 72q-83 0 -168 -35q-76 -30 -135 -83q-61 -54 -100 -120q-33 -73 -33 -145q0 -126 102 -209q101 -79 273 -79q134 0 287 50q152 46 315 144q162 94 331 231q174 144 301 287q137 148 232 300zM3380 2433q-261 -130 -372 -246q-155 -148 -189 -330 q-42 -166 49 -288q75 126 111.5 180.5l89.5 130.5l91 124q140 201 250 327q75 98 162 181zM3572 2553q113 43 115 4q-26 -65 -159 -222q-196 -235 -307 -426q-98 -166 -239 -427q87 -33 156 -54q192 228 420 429q220 193 455 341q227 140 451 216t416 76q202 0 326 -89 q122 -90 120 -235q0 -129 -79 -242q-80 -109 -211 -181q-134 -69 -278 -69q-166 0 -268 84q-106 -130 -265 -224q-155 -95 -368 -146q-209 -54 -420 -54q-87 0 -148 4q-129 -185 -212 -409q-80 -220 -80 -383q0 -130 61 -228t170 -152q113 -53 257 -53q189 0 383 100 q193 98 319 249q122 152 122 304q0 94 -54 152q-57 57 -148 55q-94 0 -174 -52q-76 -50 -163 -179l-46 24q43 102 118 189q76 83 171 133q101 46 192 44q105 0 174 -68q68 -69 68 -185q0 -137 -94 -296q-91 -156 -257 -298q-178 -152 -368 -231q-185 -80 -376 -80 q-177 0 -318 69q-141 68 -215 192q-75 126 -75 285q0 181 75 385q80 209 215 390l57 76q-53 11 -148 35h4q0 4 -79 -148q-73 -113 -276 -520l-285 -712q-213 0 -211 111q0 57 56 166q64 130 238 459l95 167q-123 98 -283 144q-193 -228 -420 -429q-221 -193 -456 -341 q-227 -140 -451 -216t-416 -76q-202 0 -326 87q-122 91 -122 235q0 129 80 242q79 109 212 183q134 69 276 67q167 0 270 -83q106 129 265 224q155 94 368 148q209 53 420 53q87 0 148 -3q129 185 213 408q79 221 79 383q0 130 -61 228t-170 152q-113 53 -259 51 q-189 0 -381 -98q-193 -98 -318 -249q-123 -152 -123 -304q0 -94 54 -151q57 -58 148 -58q94 0 174 54q76 50 163 178l44 -23q-42 -101 -116 -188q-76 -84 -171 -134q-101 -46 -194 -46q-105 0 -174 69q-68 68 -68 186q0 137 94 295q91 155 259 299q178 152 367 232 q184 79 375 79q178 0 318 -68q141 -69 217 -193q76 -126 76 -285q0 -181 -76 -386q-80 -209 -217 -391l-57 -76q148 -25 288 -112v0l278 466v0q-94 79 -115 163q-26 137 8 249q46 122 114 221q76 109 232 220q131 92 521 218z" />
<glyph unicode="&#x417;" horiz-adv-x="2799" d="M3119 1276q261 58 489 187l-104 -114q-189 -80 -390 -124l-34 -6q-50 -144 -209 -340q-148 -185 -344 -359q-216 -159 -427 -281q-243 -137 -466 -209q-224 -69 -406 -67q-212 0 -331 74q-94 76 -98 224q0 261 329 538q141 106 293 185q151 72 264 72q122 0 141 -83 q42 -79 -11 -200l-83 -39q7 102 -4 145q-26 42 -106 42q-94 0 -220 -57q-144 -57 -249 -152q-171 -151 -235 -299q-61 -141 14 -250q84 -87 272 -87q246 0 561 155q333 141 633 402q166 137 292 261q94 133 181 277l-3 7q-117 -18 -250 -18q-228 0 -387 44q-155 43 -227 134 q-76 101 -76 223q14 156 137 300q-91 -22 -174 -24q-178 0 -148 118q11 113 209 287q129 98 279 180q167 79 333 127q163 47 320 47q185 0 280 -69q101 -72 101 -177q11 -110 -72 -254q-83 -129 -242 -270q-76 -54 -146 -109q105 -22 207 -83q68 -62 98 -152q29 -87 -4 -209 l13 3v0zM2895 1243q69 133 59 215q-14 83 -62 137q-69 50 -172 61q-106 -61 -219 -98q-122 -37 -183 -39q-50 0 -41 24q-11 22 41 55q130 110 379 130l126 109q220 167 296 329q83 152 4 245q-69 94 -274 94q-181 0 -409 -91q-227 -87 -394 -227q-105 -87 -144 -152 q-50 -68 -11 -104q15 -37 94 -37q54 0 141 19q37 57 98 98q105 72 194 126q87 53 139 53q42 0 16 -31q-3 -37 -53 -80q-145 -122 -376 -196l4 -11q-106 -137 -102 -262q-26 -123 37 -204q65 -98 209 -141q144 -46 361 -46q126 0 250 17l-8 7v0z" />
<glyph unicode="&#x418;" horiz-adv-x="2965" d="M2425 683l-3 -13l11 5q185 50 311 193q122 144 120 314q0 91 -34 156l-7 -8l-174 -266l-68 -113q-15 -26 -36.5 -60t-32.5 -53q-53 -87 -87 -155zM1232 1565l37 -46q-192 -205 -394 -204q-98 0 -170 76t-72 185q0 159 122 337q116 177 329 318q402 278 912 278 q257 0 405 -47q148 -50 148 -127q0 -34 -22 -54q-18 -22 -46 -22q-30 0 -63 15l-83 33q-250 105 -502 107q-253 0 -495 -111q-246 -105 -398 -279q-156 -178 -156 -365q0 -83 61 -144q58 -65 145 -65q126 2 242 115zM2220 659l7 7l11 28q137 242 482 738l9 11 q-72 46 -176 46q-33 0 -72 -7l-52 -8q-4 -3 -15 -3q-53 0 -53 48q0 37 33 57q37 19 100 19q152 0 275 -95l8 11q181 247 329 409q69 76 152 157.5t159 146.5q155 129 296 198q141 64 250 63q68 0 111 -26q42 -23 40 -69q0 -33 -22 -52q-26 -18 -68 -20q-22 0 -87 17 q-80 26 -115 26q-144 0 -298 -141q-122 -109 -251 -268q-134 -159 -280 -376l-118 -170l-7 -7q68 -102 68 -232q0 -201 -159 -364t-398 -200q-155 -296 -155 -414q0 -91 101 -91q126 0 343 155l18 15l43 -33q-113 -113 -267 -189q-151 -76 -253 -76q-91 0 -144 45 q-50 46 -49 129q0 47 12 95q14 53 44 122q33 76 115 225l3 13q-98 15 -166 49q-33 -178 -148 -334q-122 -162 -289 -253q-166 -91 -340 -91q-224 0 -376 128q-148 133 -148 333q0 126 50 244q43 113 145 235q64 80 192 200q122 109 220 178l307 227q170 130 276 224 q109 98 152 170q42 76 42 148q0 33 -11 95q-4 46 -6 50q0 29 25 57q18 18 51 18q47 0 69 -35q26 -33 28 -90q0 -87 -54 -178q-50 -87 -185 -216q-122 -117 -353 -304q-202 -163 -261 -214q-91 -80 -170 -160q-65 -72 -141 -175q-155 -206 -155 -417q0 -174 112 -279 q110 -113 285 -115q145 0 272 76q130 72 220 202q95 133 134 303q-84 43 -134 106q-50 61 -48 116q0 43 30 65q22 22 65 22q64 0 109 -63q46 -64 46 -163q0 8 -4 -42q72 -46 189 -57z" />
<glyph unicode="&#x419;" horiz-adv-x="2965" d="M2744 2884q33 15 65.5 1t53.5 -41.5t25 -62t-17 -61.5q15 -84 80 -108t156.5 -13t193 49t188.5 81.5t148 81.5t72 53t-13 -16.5t-63.5 -77l-82 -90t-65.5 -47.5q-87 -54 -161 -80t-142 -37t-131 -11h-130q-42 0 -111.5 26t-127 70.5t-83.5 99t15 107.5q54 65 101 74.5 t29 1.5zM2220 659q-117 11 -189 57q4 50 4 42q0 99 -46 163q-47 65 -109 63q-43 0 -65 -22q-30 -22 -30 -65q0 -57 48 -116q50 -65 134 -106q-37 -170 -134 -303q-90 -130 -220 -202q-129 -76 -272 -76q-174 0 -285 115q-112 105 -112 279q0 213 155 417q76 101 141 175 q79 80 170 160q61 53 261 214q231 185 353 304q137 129 185 216q54 91 54 178q0 57 -28 90q-22 34 -69 35q-33 0 -51 -18q-23 -26 -25 -57q0 -4 6 -50q11 -62 11 -95q0 -72 -42 -148q-43 -72 -152 -170q-106 -94 -276 -224l-307 -227q-98 -69 -220 -178q-130 -122 -192 -200 q-102 -122 -145 -235q-50 -116 -50 -244q0 -202 148 -333q152 -129 376 -128q174 0 340 91q167 91 289 253q113 156 148 334q68 -34 166 -49l-3 -13q-80 -151 -115 -225q-30 -69 -44 -122q-12 -50 -12 -95q0 -83 49 -129q53 -46 144 -45q102 0 253 76q152 76 267 189l-43 33 l-18 -15q-217 -155 -343 -155q-101 0 -101 91q0 116 155 414q239 37 398 200t159 364q0 130 -68 232l7 7l118 170q148 217 280 376q129 159 251 268q156 141 298 141q33 0 115 -26q65 -15 87 -17q42 0 68 20q22 19 22 52q0 46 -40 69q-43 26 -111 26q-109 0 -250 -63 q-141 -69 -296 -198q-76 -65 -159 -146.5t-152 -157.5q-148 -162 -329 -409l-8 -11q-125 95 -275 95q-61 0 -100 -19q-33 -18 -33 -57q0 -50 53 -48q11 0 15 3l52 8q37 7 72 7q102 0 176 -46l-9 -11q-345 -496 -482 -738l-11 -28l-7 -7v0zM1232 1565q-116 -113 -242 -115 q-87 0 -145 65q-61 61 -61 144q0 185 156 365q152 174 398 279q242 109 495 111q250 0 502 -107l83 -33q33 -15 63 -15q26 0 46 22q22 19 22 54q0 79 -148 127q-148 47 -405 47q-510 0 -912 -278q-213 -141 -329 -318q-122 -178 -122 -337q0 -109 72 -185t170 -76 q202 0 394 204l-37 46v0zM2425 683q34 68 87 155l31.5 53l37.5 60l68 113l174 266l7 8q34 -65 34 -156q0 -170 -120 -314q-126 -145 -311 -193l-11 -5l3 13v0z" />
<glyph unicode="&#x41a;" horiz-adv-x="3568" d="M3088 1291q7 26 7 39q0 58 -26 98q-26 43 -65 43q-42 0 -40 -50q0 -46 37 -80q33 -39 87 -50zM1952 466l-8 -7q43 -8 98 -8q122 0 261 41q141 43 250 118l31 -46q-94 -72 -246 -120q-155 -50 -288 -50q-65 0 -156 15q-238 -224 -571 -355q-333 -134 -657 -134 q-185 0 -337 43q-151 37 -242 109q-87 72 -87 156q0 37 26 68q30 26 68 26q54 0 87 -54l80 -109q46 -57 115 -91q75 -42 173 -61q106 -18 213 -18q182 0 352 54q177 49 336 149q163 106 300 248l8 8q-15 3 -12 3l-11 8q-192 76 -314 268q-117 189 -117 437q0 268 139 521 q141 254 387 455q246 202 556 315q304 113 633 115q156 0 289 -24q126 -19 196 -61q72 -37 72 -87q0 -23 -22 -41q-22 -22 -46 -22q-34 0 -91 26q-278 133 -507 133q-261 0 -527 -111q-91 -43 -170.5 -87.5t-153.5 -101.5t-139 -122q-216 -216 -336 -488 q-126 -269 -126 -546q0 -409 342 -546l11 15q69 83 137 179q76 102 124 185q50 76 152 254l177 311q43 72 108 170l140 201l132 174q129 152 270 243q137 83 261 83q125 0 125 -69q0 -49 -53 -48q-15 0 -50 8q-69 15 -98 15q-246 0 -535 -557l-159 -315q-109 -220 -204 -375 q-101 -170 -190 -280q-91 -118 -196 -220zM3073 1236q-87 22 -148 79q-57 58 -57 132q0 57 35 90q29 37 83 39q42 0 87 -29q37 -30 65 -89q22 -50 22 -109q0 -26 -4 -65q133 15 231 65q98 53 193 151q98 102 216 282l185 283q326 507 751 508q98 0 159 -31q54 -26 54 -76 q0 -33 -28 -61q-22 -26 -59 -26q-22 0 -61 7q-122 26 -174 28q-288 0 -577 -410l-189 -269q-174 -246 -357 -379q-177 -129 -344 -128h-7h-11q-76 -159 -239 -198q68 -50 91 -98q26 -53 26 -125q0 -73 -65 -246q-69 -174 -67 -265q0 -72 45 -118q49 -37 133 -37 q166 0 318 173l48 -22q-105 -144 -250 -227q-144 -87 -268 -87q-98 0 -148 44q-54 46 -54 126q0 37 17 87q15 46 80 202q68 166 66 257q0 98 -52 177q-53 80 -137 109q-75 23 -192 36l30 64l18 -3q122 -8 178 -8q140 0 224 41q90 43 133 126z" />
<glyph unicode="&#x41b;" horiz-adv-x="3272" d="M2788 640l-174 -387q-33 -87 -33 -105q0 -68 101 -68q84 0 160 42q75 37 116 109q46 65 46 141q0 79 -57 152q-57 74 -159 116zM3084 1523l110 168t99 146l91 126q155 216 246 307q33 33 57 33q22 0 22 -18q0 -15 -42 -76q-113 -152 -222 -341q-137 -227 -270 -480 l-69 -130q-87 -155 -290 -561q122 -61 185 -144q64 -87 64 -189q0 -109 -68 -198q-76 -86 -189 -133q-126 -50 -277 -48q-213 0 -213 109q0 58 57 167l239 459l340 592zM2122 918q-15 -23 -22 -39q-4 -8 -13 -19q-8 -7 -11 -15q-91 -151 -196 -277q-106 -122 -224 -228 q-76 -68 -161 -128t-169 -107q-79 -46 -170 -83q-264 -109 -542 -109q-163 0 -307 41q-144 46 -224 114q-83 69 -83 145q0 37 26 68q26 26 68 26q61 0 111 -79q76 -102 106 -134q29 -29 76 -57q109 -57 272 -55q196 0 390 79q196 80 353 224q80 72 163 174q94 116 181 238 q95 134 198 296q391 611 568 855q95 126 200 239q106 113 220 209q330 288 731 288q137 0 242 -27q106 -23 169 -67q61 -50 59 -104q0 -36 -26 -64q-26 -26 -61 -26q-30 0 -80 35l-109 74q-29 22 -90 46q-54 19 -123 34q-61 14 -123 16q-178 0 -343 -100q-162 -98 -336 -318 q-171 -216 -383 -586q-76 -130 -98 -174l-239 -405v0z" />
<glyph unicode="&#x41c;" horiz-adv-x="4256" d="M4096 348l11 16l46 -31q-101 -155 -266 -261q-163 -105 -304 -105q-109 0 -173 63q-62 61 -62 179q0 102 43 257q37 156 113 341q79 185 163 346q94 166 235 373q144 217 281 380q91 112 174 191t177 141q174 113 324 115q65 0 109 -18q37 -23 37 -58q0 -18 -15 -39 q-14 -14 -37 -14q-14 0 -38 7l-45 20q-53 23 -90 23q-269 0 -676 -661q-83 -129 -164.5 -280l-142.5 -274t-105 -234q-152 -357 -152 -529q0 -181 170 -183q98 0 189 53q89 52 198 182zM1678 401l-7 -7q-221 -235 -474 -351q-253 -123 -514 -123q-185 0 -339 47 q-159 42 -250 116q-94 72 -94 159q0 43 26 69q30 26 65 26q57 0 94 -59l72 -115q57 -83 170 -133q117 -47 259 -45q496 0 898 442l7 10q-170 83 -279 264q-106 181 -108 394q0 281 145 542q57 98 113.5 172t125 142.5t158.5 144.5q122 94 277.5 177.5t311.5 131.5 q325 113 688 115q231 0 387 -43q148 -42 148 -113q0 -14 -12 -33q-14 -19 -38 -20q-26 0 -60 20q-136 61 -277 91q-152 29 -287 29q-122 0 -266 -29q-141 -30 -280 -87q-133 -54 -255 -126q-122 -76 -231 -170q-213 -193 -341 -467q-133 -281 -133 -530q0 -182 72 -326 q69 -137 198 -213l8 8q137 177 344 527q192 318 281 451q94 152 174 254q87 122 155 198q72 75 159 149q243 210 481 210q73 0 119 -23q42 -26 41 -68q0 -50 -45 -50q-15 0 -50 13q-61 22 -87 22q-90 0 -177 -111q-91 -109 -152 -294q-61 -181 -80 -398l-38 -486 q-15 -141 -30 -265l-35 -203l-4 -24l13 14l139 221q11 14 21 31.5t29 43.5q7 11 44 76l365 564q155 235 264 372q141 185 235 285q117 113 235 207q420 322 849 322q159 0 254 -37q94 -42 96 -111q0 -64 -58 -63q-29 0 -64 15q-113 54 -178 72q-61 19 -159 19 q-196 0 -429 -113q-228 -117 -435 -327q-79 -80 -166 -178t-174 -213l-169 -222l-96 -148.5l-119 -182.5l-96.5 -149l-100.5 -160q-102 -170 -170.5 -272.5t-129.5 -182.5q-105 -133 -235 -224q-102 -76 -163 -98q-68 -26 -155 -28q-126 0 -124 76q0 34 22 54q19 15 58 15 q22 0 51 -8l58 -11q50 -7 64 -7q62 0 113 37q58 42 89 103q26 47 41 132q15 72 39 273q33 361 76.5 624t108.5 451q116 357 347 524q-101 -4 -231 -102q-102 -79 -211 -239q-113 -155 -270 -432l-203 -359l-145 -228l-136 -190q-84 -106 -156 -182l-15 -15q84 -22 159 -22 q185 0 352 113l31 -42q-166 -137 -416 -135q-96 0 -183 25z" />
<glyph unicode="&#x41d;" horiz-adv-x="3385" d="M2947 579l-11 -11q-141 -174 -261 -268q-122 -98 -289 -174h19q37 0 72 -9l72 -12q65 -11 152 -11q152 0 250 84q94 79 96 212q-2 113 -100 189zM2126 969l3 11l65 100q37 61 41 69l3 11h-18q-174 0 -174 -100q0 -54 80 -91zM3077 1088l14 29h-11q-57 0 -318 8 q-261 15 -318 18h-8q-68 -137 -140 -246l102 -29l100 -30q223 -68 260 -80q65 -22 110 -49l7 7q11 26 111 205q11 19 29.5 55t42.5 77zM3084 1182h42q15 22 41 72q26 54 39 76q102 189 208.5 358t222.5 316q83 105 157 183.5t144.5 135t149.5 113.5q224 145 428 145 q105 0 177 -39q69 -33 69 -94q0 -26 -22 -54q-22 -26 -58 -26q-22 0 -76 30q-125 61 -234 61q-106 0 -208 -54q-105 -61 -209 -167q-144 -148 -242 -310q-105 -174 -281 -529q-98 -193 -102 -206l11 4q155 18 239 87l76 61q26 22 57 22q26 0 46 -18q19 -15 19 -41 q0 -68 -134 -122q-129 -54 -329 -61q-15 0 -18 -4l-8 -7q-140 -261 -288 -463l-8 -15q47 -37 76 -79q26 -43 37 -83q11 -37 13 -91q0 -109 -54 -198q-57 -91 -155 -135q-105 -50 -231 -50q-58 0 -159 11q-65 7 -134 7q-68 0 -173 -14q-23 -4 -50 -4q-34 0 -56 22t-24 54 q0 61 93 72q112 11 162 22q50 15 113 58q220 140 379 416l8 11q-80 42 -365 129l-105 30l-105 35l-4 -11l-141 -183q-79 -98 -166 -181l-8 -8q47 -7 106 -7q122 0 296 44l22 -52q-155 -53 -314 -53q-73 0 -163 15l-8 -8q-140 -122 -288 -212.5t-296 -149.5 q-300 -117 -651 -119q-174 0 -326 43q-144 42 -235 113q-87 72 -87 151q0 43 26 72q26 26 65 26q42 0 64 -18q23 -22 73 -98q140 -220 523 -220q265 0 529 112q261 113 433 300l33 43l8 7q-141 61 -246 163q-98 98 -152 239q-54 133 -52 299q0 268 139 522q141 257 383 459 q239 205 553 318q311 117 637 118q162 0 292 -24q129 -22 192 -59q72 -42 72 -89q0 -29 -18 -48q-19 -18 -50 -18q-30 0 -83 26l-102 50q-65 37 -185 62q-113 23 -235 25q-261 0 -516 -108q-254 -109 -455 -303q-137 -130 -243 -305q-109 -178 -166 -369q-61 -196 -61 -375 q0 -193 92 -337q87 -144 243 -201l7 7q133 163 283 403l7 8q-75 26 -116 66q-46 43 -46 96q0 145 277 145h33h32h11q113 188 117 196l159 253q46 76 122 174q351 463 644 463q57 0 87 -19q29 -18 31 -50q0 -50 -57 -48q-15 0 -80 15q-46 7 -79 7q-126 0 -261 -159 q-76 -87 -155.5 -213.5t-179.5 -317.5l-83 -159l-80 -163l126 -7q177 -11 272 -11q187 -4 220 -4z" />
<glyph unicode="&#x41e;" horiz-adv-x="3150" d="M1474 1186l-11 -15q69 -4 121 -4q307 0 542 113q224 113 347 330q-83 64 -83 175q0 43 28 72q22 30 55 30q43 0 69 -39q26 -42 28 -109q0 -54 -21 -102q117 -94 319 -94q101 0 212 33q117 37 193 91q-23 159 -102 246q-80 83 -204 83q-98 0 -220 -76l-42 11 q37 95 133 156q94 65 200 65q94 0 172 -45q76 -50 120 -126q50 -83 65 -192q105 94 105 246q0 109 -52 192q-57 84 -155 130q-102 42 -231 41q-178 0 -383 -76q-209 -80 -387 -211q-253 -193 -462 -426q-106 -122 -193 -242t-163 -257zM3273 1595q-189 -117 -402 -117 q-196 0 -348 94q-133 -223 -375 -344q-246 -125 -568 -125q-83 0 -148 7l-8 -7q-136 -293 -136 -520q0 -152 61 -265q68 -113 185 -170q122 -61 285 -61q253 0 516 133q253 130 470 348q209 220 336 492q128 270 132 535zM1215 1140l10 13q-213 68 -343 210 q-125 141 -124 322q0 122 73 246q68 123 181 198q94 73 235 106q141 37 283 39q126 0 235 -32l-26 -48q-87 15 -167 15q-288 0 -462 -148q-94 -80 -148 -189q-54 -113 -52 -227q0 -156 91 -270q91 -113 257 -167l4 7q155 269 447 550q285 272 591 444q473 272 856 272 q144 0 250 -41q109 -50 166 -133q58 -80 58 -196q0 -235 -209 -418l-15 -11q-4 -174 -58 -344q-53 -182 -155 -354q-105 -181 -239 -336q-86 -99 -186 -193t-206.5 -170t-219.5 -141q-337 -177 -679 -177q-181 0 -322 70q-144 72 -220 205q-76 134 -76 311q0 148 47 292 q40 143 123 295z" />
<glyph unicode="&#x41f;" horiz-adv-x="3204" d="M2823 524l-174 -387q-33 -87 -35 -107q0 -69 102 -67q83 0 159 41q76 37 118 109q47 65 45 140q0 80 -56 152q-57 76 -159 119zM3119 1406l109.5 168.5t97.5 145.5l91 124q155 217 246 308q33 33 57 35q23 0 23 -21q0 -14 -41 -76q-113 -151 -224 -340 q-137 -227 -268 -481l-69 -129q-87 -156 -292 -561q122 -61 185 -142q65 -87 65 -191q0 -109 -69 -196q-76 -87 -188 -133q-126 -50 -278 -50q-213 0 -211 111q0 57 58 166q64 130 238 459l341 590zM1978 1778q-34 -76 -121 -187q-105 -122 -212 -185q-106 -65 -213 -65 q-109 0 -185 72q-72 69 -72 174q0 137 101 300q106 159 282 289q216 162 470 238q246 72 571 71q206 0 557 -45q205 -22 315 -22q116 0 223 18q102 19 246 69q65 22 99 22q33 0 53 -18q19 -19 19 -54q0 -76 -106 -120q-109 -50 -277 -50q-106 0 -280 22q-162 22 -175 28 q-43 3 -67 11q-30 4 -54 4q-18 3 -61 11q-14 3 -33 3q-15 4 -31 4q-19 4 -37 4q-19 3 -32 3q-296 47 -453 47q-550 0 -933 -319q-253 -209 -253 -421q0 -84 56 -135q49 -58 136 -58q99 0 217 87q116 83 203 224zM3500 2144q0 -29 -22 -54q-26 -22 -54 -22q-29 0 -90 19 q-87 29 -163 31q-133 0 -224 -68q-94 -72 -170 -174q-126 -174 -217 -353l-210 -417q-160 -318 -311 -510q-156 -202 -372 -361q-217 -159 -466 -250q-246 -90 -481 -90q-202 0 -359 59q-156 57 -244 168q-91 109 -91 239q0 140 104 235q94 94 238 94q80 0 139 -39 q54 -33 54 -94q0 -37 -26 -69q-34 -29 -73 -29q-22 0 -72 15q-90 29 -125 29q-69 0 -113 -44q-50 -50 -50 -119q0 -162 170 -268q166 -105 418 -105q192 0 366 44q174 50 328 155q155 106 290 265q137 159 274 390l242 415q152 257 295 446q148 188 288 310q285 243 572 243 q72 0 115 -22q40 -26 40 -69z" />
<glyph unicode="&#x420;" horiz-adv-x="2780" d="M2459 1861q109 4 177 30q61 22 61 61q0 22 -29 22q-80 0 -209 -113zM1811 1117q4 8 6 11.5t2 7.5l11 17q98 166 166 268q69 105 133 185l152 179l7 8h-11q-201 -26 -322 -122q-94 -73 -148 -171q-61 -101 -61 -205q0 -91 65 -178zM1959 993q156 -68 333 -68q178 0 326 59 q148 61 266 172q109 106 174 257q65 145 65 315q0 209 -107 372q-106 159 -300 250q-193 86 -442 86q-235 0 -452 -83q-212 -83 -386 -242q-130 -126 -211 -270q-87 -152 -133 -311q-50 -167 -50 -322q0 -242 101 -412q98 -171 293 -254l7 -7q91 109 266 412l63 106 q-140 151 -138 318q0 105 64 209q69 102 167 155q98 54 231 84q141 33 242 33h8h4q94 83 203 144q105 58 179 58q87 0 87 -65q0 -83 -125 -137q-122 -54 -304 -56q-83 -87 -139 -174q-64 -90 -96 -164q-22 -46 -170 -402l-7.5 -20t-3.5 -13t-3.5 -11t-11.5 -19zM1931 936 l-3 -11q-126 -257 -326 -437q109 -18 246 -18q83 0 156 11l16 -54q-109 -18 -205 -18q-137 0 -261 28h-11q-152 -126 -331 -213q-174 -87 -318 -111q148 -33 357 -52q220 -22 386 -24q209 0 370 54q174 53 343 170l29 -45q-329 -253 -792 -253q-246 0 -625 37 q-333 33 -477 33q-163 0 -235 -26l-106 -37q-53 -14 -76 -16q-68 0 -68 64q0 84 113 112q61 7 220 7h191q564 0 875 340q-171 72 -289 185q-113 113 -178 274q-64 159 -64 333q0 254 112 481q113 224 319 390q201 167 466 265q268 91 570 93q288 0 507 -97 q231 -101 351 -272q126 -170 126 -394q0 -174 -80 -336q-79 -159 -216 -285q-133 -126 -315 -193q-181 -72 -373 -72q-226 0 -404 87z" />
<glyph unicode="&#x421;" horiz-adv-x="2795" d="M1656 1399q50 -4 126 -4q192 0 384 44q193 50 339 141q152 91 261 220q-61 80 -61 163q0 57 27 94q30 37 76 39q43 0 63 -35q26 -33 28 -91q0 -90 -54 -159q76 -72 217 -72q83 0 166 33q76 30 137 85q61 54 98 121q33 72 33 144q0 126 -101 209q-102 80 -272 80 q-133 0 -289 -50q-152 -47 -314 -145q-163 -94 -330 -231q-174 -144 -303 -287q-137 -148 -231 -299zM1356 1295l57 76q-148 26 -270 103q-122 76 -192 182q-69 102 -69 224q0 125 76 249q76 122 217 209q140 87 299 117l12 -44q-197 -87 -304 -232q-109 -148 -109 -318 q0 -322 385 -433q192 228 422 429q220 193 455 341q227 140 449 216q224 76 418 76q202 0 326 -89q122 -90 120 -235q0 -129 -79 -242q-80 -109 -211 -181q-133 -69 -278 -69q-166 0 -268 84q-105 -130 -266 -224q-156 -95 -367 -146q-209 -54 -421 -54q-87 0 -148 4 q-130 -185 -211 -409q-80 -220 -80 -383q0 -130 59 -228q61 -98 172 -152q113 -53 257 -53q189 0 383 100q193 98 319 249q122 152 120 304q0 94 -52 152q-57 57 -148 55q-94 0 -174 -52q-76 -50 -165 -179l-44 24q43 102 117 189q75 83 172 133q101 46 192 44 q106 0 174 -68q68 -69 68 -185q0 -137 -94 -296q-91 -156 -257 -298q-178 -152 -368 -231q-185 -80 -376 -80q-177 0 -318 69q-141 68 -216 192q-76 126 -76 285q0 181 76 385q79 209 216 390z" />
<glyph unicode="&#x422;" horiz-adv-x="3731" d="M3410 542q-47 -98 -174 -387q-34 -87 -34 -105q0 -68 102 -68q83 0 159 40q76 37 117 111q46 65 46 139q0 80 -57 152q-58 76 -159 118zM3706 1424l109.5 169l99.5 146l90 126q156 216 246 307q34 33 58 33q22 0 22 -18q0 -15 -43 -76q-113 -152 -222 -342 q-137 -228 -270 -481l-68 -128q-87 -155 -291 -561q122 -61 185 -144q65 -87 65 -190q0 -110 -68 -197q-76 -86 -191 -133q-126 -50 -276 -48q-212 0 -212 109q0 58 57 167l239 459l340 590zM2830 579l-201 -442q-33 -87 -131 -239q-163 -11 -163 80q0 57 55 166l239 459 l342 590l128 213l110 168.5t99 145.5q53 76 90 124q156 217 246 308q34 33 58 35q22 0 22 -21q0 -14 -41 -76q-113 -151 -223 -340q-137 -227 -271 -481l-66 -129q-87 -156 -293 -561zM1959 1778q-33 -76 -122 -187q-105 -122 -211 -185q-105 -65 -213 -65q-109 0 -185 72 q-72 69 -72 174q0 137 102 300q105 159 279 289q217 162 470 238q246 72 574 71q205 0 557 -45q205 -22 314 -22q117 0 207 -4q193 0 415 37q94 8 207 47q91 7 205 51q122 -42 19 -155q-34 -26 -109 -37q-520 -72 -687 -72q-105 0 -281 22q-163 22 -174 28q-42 3 -68 11 q-30 4 -52 4q-19 3 -61 11q-15 3 -35 3q-15 4 -30 4q-18 4 -37 4q-18 3 -31 3q-296 47 -455 47q-550 0 -931 -319q-253 -209 -255 -421q0 -84 57 -135q50 -58 137 -58q98 0 216 87q117 83 204 224zM3482 2144q0 -29 -22 -54q-26 -22 -54 -22q-30 0 -91 19q-87 29 -163 31 q-133 0 -223 -68q-95 -72 -171 -174q-125 -174 -216 -353l-211 -417q-159 -318 -311 -510q-155 -202 -372 -361q-216 -159 -466 -250q-246 -90 -481 -90q-201 0 -361 59q-155 57 -242 168q-91 109 -91 239q0 140 102 235q95 94 239 94q79 0 140 -39q54 -33 54 -94 q0 -37 -26 -69q-33 -29 -72 -29q-22 0 -72 15q-91 29 -126 29q-68 0 -113 -44q-50 -50 -50 -119q0 -162 170 -268q167 -105 417 -105q192 0 368 44q174 50 325 155q156 106 293 265t272 390l244 415q152 257 294 446q148 188 289 310q285 243 571 243q72 0 115 -22 q41 -26 41 -69z" />
<glyph unicode="&#x423;" horiz-adv-x="3163" d="M1467 1689l37 -37q-72 -126 -189 -202q-122 -75 -235 -75q-122 0 -198 75q-75 76 -75 195q0 151 114 322q106 170 294 310q126 87 285 156q156 65 344 98q182 33 358 33q238 0 408 -52q171 -57 171 -137q0 -64 -65 -64q-34 0 -63 20l-89 37q-189 98 -488 98 q-182 0 -367 -41q-181 -42 -334 -125q-117 -62 -211 -160q-98 -98 -152 -209q-57 -112 -57 -214q0 -98 61 -163t148 -65q162 -2 303 200zM2781 1171l11 4l87 140q249 413 486 681q69 80 154 167.5t152.5 146t150.5 115.5q220 148 407 148q72 0 113 -31q37 -26 37 -72 q0 -37 -26 -59q-22 -23 -61 -25q-30 0 -91 12q-75 18 -140 20q-102 0 -200 -54q-102 -50 -213 -166q-87 -95 -152 -178q-75 -90 -138 -190q-69 -106 -145 -239q-101 -167 -162 -287l-54 -103q72 11 129 11q110 0 178 -41q65 -46 65 -126q0 -33 -24 -55q-22 -22 -48 -24 q-54 0 -69 53l-7 30q-30 91 -148 91q-54 0 -115 -8l-48 -94l-50 -91q-224 -423 -390 -686q-159 -254 -318 -442q-95 -109 -185.5 -201t-208.5 -182q-84 -69 -203 -146.5t-243 -146.5q-235 -122 -474 -181q-239 -65 -477 -65q-466 0 -664 272q-76 109 -76 235q0 91 46 172 q43 80 120 121q72 46 167 46q83 0 129 -35q50 -30 50 -91q0 -33 -28 -61q-22 -22 -55 -22q-26 0 -54 11q-76 26 -105 28q-80 0 -130 -58q-57 -61 -57 -137q0 -122 87 -216q79 -94 231 -146q152 -54 346 -54q289 0 564 94q282 99 531 282q122 90 226 192q102 106 213 239 q113 144 235 329q140 213 246 390l307 524l11 15l19 29l31 50h-11l-11 -3q-54 -8 -148 -8q-87 0 -141 11v-50q0 -360 -209 -636q-272 -348 -651 -348q-242 0 -394 130q-148 133 -148 347q0 148 61 282q57 137 159 242q83 87 209 185q102 80 344 242q278 182 368 261 q217 174 215 342q0 58 -19 106q-11 42 -11 57q0 22 22 41q19 15 47 15q22 0 48 -19q18 -15 35 -48q11 -33 11 -79q0 -73 -33 -148q-37 -80 -108 -156q-116 -126 -214 -198q-8 -3 -194 -137q-15 -11 -58 -37q-3 0 -25.5 -16.5t-46.5 -36.5q-599 -420 -597 -851 q0 -117 57 -213q57 -102 150 -159q94 -61 198 -61q192 0 355 126q166 122 266 329q98 209 98 435v57q-162 54 -162 174q0 30 22 54q22 22 50 22q53 0 90 -48q47 -50 65 -145q46 -11 120 -11q104 0 221 15z" />
<glyph unicode="&#x424;" horiz-adv-x="2943" d="M2307 1970l7 8q-144 87 -322 140q-170 50 -325 48q-281 0 -470 -155q-185 -159 -185 -394q0 -231 196 -377q196 -145 524 -152q0 7 3 11l8 11l181 326q80 144 187 292q102 148 196 242zM2455 1963l7 -8q91 -64 167 -140l-41 -43q-42 47 -155 130l-11 7l-8 -7 q-109 -178 -318 -564q-72 -141 -122 -228l-4 -7h8q675 173 928 318l145 94q129 98 249 122q113 0 221 52q98 54 159 148q53 94 51 209q0 170 -116 272q-117 102 -315 104q-148 0 -299 -54q-156 -54 -285 -141q-126 -87 -215 -203l-39 -54h-3q-4 -3 -4 -7zM2936 1356 l-283 -131q-292 -141 -722 -191l-7 -7q-91 -163 -215.5 -311t-291.5 -272q-159 -126 -316 -200t-313 -100q76 -14 307 -53q43 -8 65 -8q37 -7 65 -7q18 -4 33 -6t33 -5q182 -26 235 -32q95 -11 187 -11q246 0 459 69q216 68 344 187q126 116 124 246q0 29 -7 51l-15 65 q-4 11 -4 35q0 43 22 67q22 26 65 28q50 0 76 -39q26 -37 28 -106q0 -140 -93 -264q-91 -130 -257 -224q-322 -185 -864 -187q-178 0 -366 24l-361 44q-152 19 -292 19q-122 0 -211 -15q-98 -11 -169 -40l-70 -32q-22 -15 -54 -15q-68 0 -68 72q0 73 91 106q68 26 140 35 l141 7l44 4h46q406 26 641 167q166 105 299 264q106 126 287 429l9 8h-13q-383 18 -605 181q-223 163 -223 414q0 126 57 239t166 196q102 87 250 137q141 46 307 44q361 0 716 -207l8 -7q37 37 329 474q-37 46 -670 -76q-126 83 19 159q105 -61 814 15q-47 -113 -152 -278 q122 46 148 57q257 126 516 126q243 0 381 -111q141 -109 141 -303q0 -133 -80 -254q-83 -122 -211 -188q-136 -69 -288 -69z" />
<glyph unicode="&#x425;" horiz-adv-x="3159" d="M2401 633q43 -206 104 -402q22 -72 52 -94q33 -30 103 -32q91 0 148 50q58 50 56 126q0 204 -463 352zM1989 860l3 8q4 7 62 83l61 91l61 90v24l-4 2q-6 2 -9 2h-15q-170 22 -220 22q-65 0 -106 -29q-37 -30 -37 -73q8 -111 204 -220zM2194 766l8 -4v11q-4 50 -6 78 t-5.5 67.5t-7.5 100.5v8l-43 -58l-37 -55q-3 -8 -9.5 -16t-12 -15.5t-9.5 -14.5q-7 -11 -12.5 -18.5t-5.5 -11.5l-8 -7l8 -6q7 -2 140 -59zM1678 1682h54v-23q0 -64 -30 -140t-85 -148q-50 -69 -120 -106q-76 -33 -156 -33q-129 0 -213 91q-86 87 -86 227q0 185 111 363 q109 177 294 314t433 221q242 75 503 75q181 0 296 -38q105 -37 105 -102q0 -26 -22 -45q-22 -22 -57 -24q-43 0 -109 28q-134 46 -198 56q-87 14 -189 16q-144 0 -268 -31q-134 -30 -270 -91q-156 -68 -269 -170q-116 -106 -183 -228q-65 -125 -63 -242q0 -126 72 -205 q73 -80 178 -80q72 0 128 43q61 42 100 109q37 72 44 163zM2311 1219l3 -11h11q106 -7 176 -7q141 0 196 27q61 30 98 117q37 72 93 72q26 0 41 -18q18 -15 18 -47q0 -68 -52 -116q-53 -54 -144 -76q-98 -30 -228 -32q-46 0 -188 12h-13l3 -12l28 -181l33 -231l4 -15l28 -11 q272 -87 394 -190q117 -106 117 -250q0 -130 -91 -200q-91 -76 -257 -76q-209 0 -259 113q-26 57 -56 202q-37 192 -57 394v11l-11 3q-98 37 -152 61q-22 12 -42 19l-4 -7q-106 -141 -214 -264t-214 -214q-220 -181 -451 -270q-235 -90 -499 -90q-337 0 -500 133 q-57 50 -89 101q-33 54 -33 95q0 46 22 72q26 30 58 31q37 0 57 -20q15 -15 72 -109q137 -231 470 -231q413 0 795 303q113 87 215 193q94 98 252 296l7 7l-11 7q-311 159 -311 322q0 61 45 96q49 34 136 34q50 0 189 -15l156 -19l20 -3v40v43q-8 102 -9 192q0 380 83 583 q79 205 235 205q50 0 83 -18q30 -22 32 -57q0 -23 -15 -37q-15 -15 -43 -17q-15 0 -37 13l-35 15q-18 11 -41 11q-148 0 -148 -474q0 -177 23 -390v-15q14 22 28 39l29 37q11 15 20 31.5t21 31.5l100 140q318 467 593 694q278 228 535 228q113 0 174 -30q68 -30 68 -85 q0 -76 -83 -74q-29 0 -76 11l-65 19q-57 18 -136 18q-126 0 -235 -54q-117 -53 -226 -159q-126 -112 -256.5 -271.5t-259.5 -347.5l-213 -315z" />
<glyph unicode="&#x426;" horiz-adv-x="2965" d="M2425 683q34 68 87 155l31.5 53l37.5 60l68 113l174 266l7 8q34 -65 34 -156q0 -170 -120 -314q-126 -145 -311 -193l-11 -5zM1232 1565l37 -46q-192 -205 -394 -204q-98 0 -170 76t-72 185q0 159 122 337q116 177 329 318q402 278 912 278q257 0 405 -47 q148 -50 148 -127q0 -34 -22 -54q-18 -22 -46 -22q-30 0 -63 15l-83 33q-250 105 -502 107q-253 0 -495 -111q-246 -105 -398 -279q-156 -178 -156 -365q0 -83 61 -144q58 -65 145 -65q126 2 242 115zM2079 0q-112 0 -266 -25t-305.5 -61t-280 -71t-197.5 -59 q-125 -69 -176 -167t-45.5 -188.5t63 -155.5t147.5 -69q84 -18 220 -20t276.5 2t261.5 13l178 13q110 7 234.5 50.5t235.5 130.5q26 8 60.5 38.5t65 66.5t50.5 70t28 53l42 111l23 116l-4 102l-37 118l-69 69q-133 72 -288 -32q-69 -7 -72 84q0 116 155 414q239 37 398 200 t159 364q0 130 -68 232l7 7l118 170q148 217 280 376q129 159 251 268q156 141 298 141q33 0 115 -26q65 -15 87 -17q42 0 68 20q22 19 22 52q0 46 -40 69q-43 26 -111 26q-109 0 -250 -63q-141 -69 -296 -198q-76 -65 -159 -146.5t-152 -157.5q-148 -162 -329 -409l-8 -11 q-125 95 -275 95q-61 0 -100 -19q-33 -18 -33 -57q0 -50 53 -48q11 0 15 3l52 8q37 7 72 7q102 0 176 -46l-9 -11q-345 -496 -482 -738l-11 -28l-7 -7q-117 11 -189 57q4 50 4 42q0 99 -46 163q-47 65 -109 63q-43 0 -65 -22q-30 -22 -30 -65q0 -57 48 -116q50 -65 134 -106 q-37 -170 -134 -303q-90 -130 -220 -202q-129 -76 -272 -76q-174 0 -285 115q-112 105 -112 279q0 213 155 417q76 101 141 175q79 80 170 160q61 53 261 214q231 185 353 304q137 129 185 216q54 91 54 178q0 57 -28 90q-22 34 -69 35q-33 0 -51 -18q-23 -26 -25 -57 q0 -4 6 -50q11 -62 11 -95q0 -72 -42 -148q-43 -72 -152 -170q-106 -94 -276 -224l-307 -227q-98 -69 -220 -178q-130 -122 -192 -200q-102 -122 -145 -235q-50 -116 -50 -244q0 -202 148 -333q152 -129 376 -128q174 0 340 91q167 91 289 253q113 156 148 334 q68 -34 166 -49l-3 -13q-80 -151 -115 -225q-30 -69 -44 -122q-12 -50 -12 -95q-1 -83 63 -144zM2238 -46q137 18 221 -34q151 -162 -45 -347q-33 -34 -92 -74.5t-131.5 -73t-148 -56.5t-148.5 -28q-50 -18 -155 -30t-221 -14t-222 2t-160 22q-65 46 -70.5 100.5t17.5 106.5 t55.5 92l43.5 54q30 43 155.5 78t278.5 67.5t299 59.5t222 49z" />
<glyph unicode="&#x427;" horiz-adv-x="2965" d="M2425 683l-3 -13l11 5q185 50 311 193q122 144 120 314q-43 37 -69 50h-51q-30 -68 -95 -168l-68 -113q-15 -26 -36.5 -60t-32.5 -53q-53 -87 -87 -155zM1500 1898l43 -33q-170 -141 -372 -137q-94 -4 -174 41q-79 50 -92 125q-19 102 88 228q99 122 291 220 q368 185 879 192q257 4 401 -29q156 -26 165 -83q0 -19 -17 -28q-15 -22 -41 -26q-29 4 -64 15l-91 22q-257 65 -512 65q-243 -8 -478 -80q-231 -72 -362 -188q-137 -123 -119 -247q15 -53 76 -103q61 -30 148 -30q126 4 231 76zM2633 1308q22 33 87 124l9 11l40 57l8 11 q181 247 329 409q69 76 152 157.5t159 146.5q155 129 296 198q141 64 250 63q68 0 111 -26q42 -23 40 -69q0 -33 -22 -52q-26 -18 -68 -20q-22 0 -87 17q-80 26 -115 26q-144 0 -298 -141q-122 -109 -251 -268q-134 -159 -280 -376l-220 -277h4q159 -4 159 -132 q0 -201 -159 -364t-398 -200q-185 -272 -261 -422q-3 -90 207 -83q126 0 343 155l18 15l43 -33q-113 -113 -267 -189q-151 -76 -253 -76q-91 0 -235 30q-80 65 -80 117q-18 72 0 122q43 72 98 140l210 280l36 38q110 193 335 546q-113 -26 -190 22q-19 -94 -113 -192 q-102 -113 -259 -176q-155 -65 -326 -72q-227 -4 -390 89q-159 83 -181 218q-11 83 22 159q33 84 118 163q61 54 174 141q106 68 202 118l276 159q155 83 253 152q98 65 129 109q34 50 26 105q0 23 -18 58q-8 29 -8 35q-7 19 15 41q15 11 50 7q46 0 72 -15q30 -29 34 -64 q14 -58 -34 -121q-37 -57 -162 -144q-106 -76 -319 -209l-231 -144l-155 -106q-58 -53 -122 -118q-134 -141 -110 -287q19 -117 145 -181q122 -72 294 -72q141 0 263 51q116 54 196 134q79 90 98 205q-102 15 -146 44q-54 65 -58 106q-3 22 26 46q15 11 58 15q64 0 116 -45 q54 -42 61 -114q0 7 4 -22q90 -49 250 -30z" />
<glyph unicode="&#x428;" horiz-adv-x="3947" d="M3428 679l13 4q185 50 311 192q122 144 120 315q0 90 -33 155l-8 -7l-175 -265l-69 -115q-15 -26 -37 -61l-29 -52q-54 -87 -89 -155zM1251 1519q-193 -205 -394 -204q-99 0 -171 76t-72 185q0 159 120 337q117 177 330 318q401 278 914 278q257 0 405 -47 q148 -50 148 -127q0 -34 -22 -54q-19 -22 -47 -22q-29 0 -64 15l-84 33q-249 105 -499 107q-254 0 -496 -111q-246 -105 -398 -279q-155 -178 -155 -365q0 -83 59 -144q57 -65 144 -65q126 0 243 115zM1743 268q-11 84 -11 172q0 126 50 243q42 113 142 235q65 79 194 199 q122 110 220 178l308 228q170 129 275 223q109 98 152 171q42 75 41 148q0 33 -12 94q-3 46 -3 50q0 29 24 57q18 19 52 19q46 0 68 -34q26 -33 26 -92q0 -87 -52 -178q-50 -87 -187 -216q-122 -117 -351 -302q-202 -162 -261 -216q-91 -80 -172 -159q-65 -72 -139 -174 q-155 -205 -155 -418q0 -174 113 -280q109 -112 285 -114q144 0 271 76q130 72 221 201q94 133 133 304q-83 42 -133 105q-50 61 -50 117q0 42 31 64q22 23 65 24q65 0 109 -64q46 -65 46 -163q0 7 -5 -43q72 -46 190 -57l8 9l11 26q137 243 481 738l7 11q-72 47 -174 47 q-33 0 -72 -8l-52 -7q-3 -4 -16 -4q-54 0 -52 48q0 37 33 58q37 18 98 18q152 0 278 -94l7 11q181 246 329 409q69 76 152 155q83 83 159 148q156 130 296 198q141 65 250 65q68 0 109 -28q43 -22 43 -68q0 -34 -23 -52q-25 -19 -68 -21q-22 0 -87 17q-79 26 -115 26 q-144 0 -299 -141q-122 -109 -250 -268q-133 -159 -279 -375l-119 -171l-7 -7q68 -102 68 -231q0 -202 -159 -365q-159 -162 -398 -200q-155 -296 -155 -414q0 -91 102 -91q126 0 342 156l18 17l41 -36q-113 -112 -264 -188q-152 -76 -254 -76q-91 0 -144 44q-50 46 -50 130 q0 46 11 94q15 54 46 122q34 76 113 228l6 11q-98 15 -169 48q-33 -178 -146 -333q-122 -163 -288 -254q-167 -90 -341 -90q-224 0 -375 127q-84 76 -87 108q-122 -106 -224 -152q-167 -91 -341 -91q-223 0 -375 128q-148 133 -148 333q0 126 50 244q42 113 142 235 q65 80 195 200q122 109 220 178l305 227q170 130 277 224q110 98 152 170q43 76 41 148q0 33 -11 95q-4 46 -4 50q0 29 24 57q19 18 52 18q46 0 68 -35q26 -33 26 -90q0 -87 -52 -178q-50 -87 -186 -216q-123 -117 -352 -304q-202 -163 -261 -214l-172 -160 q-65 -72 -139 -175q-155 -206 -155 -417q0 -174 113 -279q109 -113 285 -115q144 0 272 76q113 65 122 76l26 22v0z" />
<glyph unicode="&#x429;" horiz-adv-x="3947" d="M3221 0q-507 -113 -689 -168.5t-255 -134.5q-205 -217 -14 -348q129 -37 231 -47.5t215.5 -4.5t170 15t182.5 37q181 57 306 134t182 169q102 189 72 268q-26 145 -148 123q-159 -47 -253 -43zM3058 50q-37 37 -39 120q0 46 11 95q15 53 47 122q33 75 112 227l4 11 q-98 15 -166 50q-34 -177 -148 -335q-123 -162 -287 -253q-167 -91 -341 -91q-223 0 -375 130q-83 76 -87 105q-122 -105 -224 -151q-166 -91 -340 -91q-224 0 -376 128q-148 133 -148 334q0 126 50 243q43 113 143 235q64 79 194 199q122 110 220 180l305 226 q170 129 278 224q109 98 151 170q43 76 41 148q0 33 -11 96q-4 46 -4 48q0 30 22 57q19 19 54 19q46 0 69 -33q25 -34 25 -91q0 -87 -51 -180q-50 -86 -187 -214q-122 -117 -352 -304q-201 -162 -260 -216l-173 -159q-64 -72 -138 -174q-156 -205 -156 -418q0 -174 113 -279 q109 -113 285 -115q144 0 272 76q113 64 122 76l26 24q-11 83 -11 170q0 126 50 242q42 113 142 235q65 80 195 200q122 109 220 179l305 228q170 129 277 222q110 98 152 172q43 76 41 146q0 33 -11 96q-4 47 -4 48q0 30 24 58q19 18 52 18q46 0 68 -33q26 -33 26 -91 q0 -87 -52 -179q-49 -87 -186 -215q-123 -116 -352 -303q-202 -163 -261 -217q-90 -79 -172 -159q-65 -72 -139 -174q-155 -205 -155 -416q0 -174 113 -281q109 -113 285 -113q144 0 272 74q129 72 220 202q94 133 133 303q-83 43 -133 106q-50 61 -50 118q0 43 31 65 q23 22 65 22q65 0 109 -65q47 -65 45 -163q0 8 -4 -42q72 -46 191 -56l7 8l11 26q137 242 481 738l7 13q-72 46 -173 44q-34 0 -73 -7l-53 -8q-4 -3 -15 -3q-54 0 -52 50q0 37 33 55q37 19 98 20q152 0 278 -96l7 11q182 246 330 411q68 76 151 155q84 84 160 148 q155 130 296 197q140 64 249 64q69 0 109 -27q43 -23 43 -67q0 -33 -22 -54q-26 -18 -69 -18q-22 0 -87 15q-79 25 -114 25q-145 0 -300 -140q-122 -109 -250 -268q-133 -159 -279 -376l-119 -170l-7 -8q68 -101 68 -231q0 -201 -159 -362q-159 -163 -397 -202 q-156 -296 -156 -413q0 -90 102 -90q72 0 228 52q116 0 194 -91l33 -124l-15 -115l-14 -90l-50 -106l-13 -26q-13 -27 -34.5 -57.5l-43.5 -59.5t-46 -36q-109 -87 -239.5 -141.5t-234.5 -89.5l-147 -30t-157 -15t-239 -13t-273 4t-203.5 29.5t27.5 -5.5q-170 30 -208 128.5 t-10 189.5t91 168.5t203 142.5q84 42 178 72t278 74t423 63zM3424 697l13 4q185 50 309 193q122 144 122 314q0 91 -33 155l-9 -7l-174 -264l-69 -115q-14 -26 -37 -59l-29 -54q-54 -87 -89 -155zM1247 1537q-193 -205 -394 -203q-98 0 -170 76q-73 76 -73 185 q0 159 121 336q116 178 329 320q402 278 914 276q257 0 405 -46q148 -50 148 -128q0 -33 -22 -53q-19 -23 -46 -23q-30 0 -65 15l-83 33q-250 106 -500 108q-253 0 -496 -111q-246 -106 -397 -280q-156 -177 -156 -364q0 -83 59 -144q58 -65 145 -63q126 0 242 113z" />
<glyph unicode="&#x42a;" horiz-adv-x="2719" d="M2096 1182l-228 -368q-220 -296 -490 -453q-220 -133 -409 -198q84 -8 243 -33q50 -12 288 -50q250 -37 406 -37q166 0 296 48q125 50 199 155q72 83 176 372q94 401 0 542q-126 98 -429 22h-52zM2694 2372l72 -22q79 -12 3 -73q-90 -68 -192 -205q-141 -166 -326 -557 l-61 -116l-61 -137h23q11 -4 77.5 9t184.5 33q148 22 239 -50q72 -72 79.5 -247.5t-35.5 -340.5q-26 -231 -238 -477q-102 -106 -261 -163q-163 -61 -365 -59q-125 0 -279 15q-189 14 -383 36q-292 43 -353 47q-80 3 -167 3q-257 0 -459 -75q-42 -15 -62 -15q-23 0 -39 15 q-15 14 -15 37q0 46 57 83q58 37 156 61q98 37 218 39h172q155 0 294 37q137 33 255 111q122 76 222 192q106 130 217 300l7 7l243 405l34 57t19 30q8 26 9.5 29t1.5 10q365 607 701 890l12 11l-113 19l-115 20q-546 98 -818 98q-318 0 -512 -155q-94 -76 -152 -206l-26 91 q145 192 380 303q231 130 488 130q116 0 268 -30.5t304 -91.5l220 -76z" />
<glyph unicode="&#x42b;" horiz-adv-x="2719" d="M2096 1182l-228 -368q-220 -296 -490 -453q-220 -133 -409 -198q84 -8 243 -33q50 -12 288 -50q250 -37 406 -37q166 0 296 48q125 50 199 155q72 83 176 372q94 401 0 542q-126 98 -429 22h-52zM2892 2596q220 0 72 -98q-357 -156 -441 -395l-272 -588l-61 -116 l-61 -137h23q11 -4 77.5 9t184.5 33q148 22 239 -50q72 -72 79.5 -247.5t-35.5 -340.5q-26 -231 -238 -477q-102 -106 -261 -163q-163 -61 -365 -59q-125 0 -279 15q-189 14 -383 36q-292 43 -353 47q-80 3 -167 3q-257 0 -459 -75q-42 -15 -62 -15q-23 0 -39 15 q-15 14 -15 37q0 46 57 83q58 37 156 61q98 37 218 39h172q155 0 294 37q137 33 255 111q122 76 222 192q106 130 217 300l7 7l243 405l34 57t19 30q8 26 9.5 29t1.5 10q330 618 524 883l185 196zM4534 2636q220 8 72 -94q-347 -167 -423 -409q-80 -202 -250 -599l-57 -117 q-213 -507 -466 -838q-193 -205 -280 -322q-57 -166 341 -33q318 79 53 -115q-423 -126 -618 -109q-170 -37 -211.5 14t49.5 160q90 91 203 174q122 76 217 201q105 130 209 308l7 7l228 412q18 30 31 57t17 30q7 26 9 29t2 10q307 629 490 898l181 205z" />
<glyph unicode="&#x42c;" horiz-adv-x="2719" d="M2096 1182l-228 -368q-220 -296 -490 -453q-220 -133 -409 -198q84 -8 243 -33q50 -12 288 -50q250 -37 406 -37q166 0 296 48q125 50 199 155q72 83 176 372q94 401 0 542q-126 98 -429 22h-52zM2892 2596q220 0 72 -98q-357 -156 -441 -395l-272 -588l-61 -116 l-61 -137h23q11 -4 77.5 9t184.5 33q148 22 239 -50q72 -72 79.5 -247.5t-35.5 -340.5q-26 -231 -238 -477q-102 -106 -261 -163q-163 -61 -365 -59q-125 0 -279 15q-189 14 -383 36q-292 43 -353 47q-80 3 -167 3q-257 0 -459 -75q-42 -15 -62 -15q-23 0 -39 15 q-15 14 -15 37q0 46 57 83q58 37 156 61q98 37 218 39h172q155 0 294 37q137 33 255 111q122 76 222 192q106 130 217 300l7 7l243 405l34 57t19 30q8 26 9.5 29t1.5 10q330 618 524 883l185 196z" />
<glyph unicode="&#x42d;" horiz-adv-x="2795" d="M1735 1276q23 167 141 195q242 46 375 -65q148 -174 211 -187q76 -37 307 0q160 22 261 80q47 50 76 107l32 52q101 177 135 346q37 129 31 264q-30 130 -79 224q-87 137 -254 174q-137 26 -300 -15q-98 -29 -170 -79q-61 -61 -96 -134q-37 -75 -37 -138q-18 -58 18 -130 q80 -94 198 -129q65 72 193 122q76 22 129 18q58 4 69 -40q18 -30 -8 -61q-33 -47 -107 -76q-105 -11 -189 -19q-272 -37 -397 178q-47 98 -39 220q33 133 133 235q105 91 268 139q196 57 383 20q170 -50 254 -194q109 -133 122 -311q11 -205 -54 -409q-79 -224 -222 -485 q-126 -234 -324 -447l-55 -61l-76 -74q-166 -178 -387 -331q-205 -137 -451 -222q-216 -65 -402 -43q-212 4 -360 61q-178 69 -257 163q-50 72 -73 177q-37 148 24 315q91 166 222 246q228 148 502 174q126 0 191.5 -7.5t130.5 -68.5q72 -72 61 -159q7 -80 -28 -155 q-54 -102 -139 -167l-76 80q117 98 121 212q-4 73 -29 101.5t-101 35.5q-98 37 -301 -18q-202 -58 -343 -194q-83 -80 -105 -200q-19 -130 33 -217q72 -90 224 -144q126 -46 296 -39q133 -11 300 35q227 65 462 231q437 296 775 674q-185 -72 -301 -76q-189 -33 -255 50 q-102 105 -291 198q-155 33 -372 -32z" />
<glyph unicode="&#x42e;" horiz-adv-x="4678" d="M3134 1193q76 4 128 4q307 0 542 115q223 112 349 329q-83 65 -83 174q0 42 26 72q22 30 57 30q43 0 67 -37q26 -43 28 -111q0 -54 -19 -102q117 -95 318 -95q102 0 211 34q117 37 194 92q-22 159 -103 246q-80 84 -204 84q-98 0 -220 -76l-41 11q38 94 132 155 q94 65 202 65q94 0 170 -46q76 -50 120 -126q50 -83 65 -192q105 94 107 246q0 109 -54 194q-57 83 -155 127q-102 43 -231 43q-178 0 -383 -76q-209 -79 -387 -213q-253 -192 -462 -423q-106 -122 -193 -243.5t-163 -258.5zM4952 1626q-188 -116 -401 -118q-196 0 -350 94 q-133 -224 -375 -344q-246 -126 -579 -144q-69 0 -145 7l-29 -57q-106 -224 -106 -450q0 -152 60 -266q68 -113 186 -170q123 -61 283 -61q254 0 517 133q253 129 470 349q209 221 336 493q130 270 133 534zM2129 980l65 100q37 61 41 69l3 11h-18q-174 0 -174 -100 q0 -54 80 -91zM2864 1186l53 7l19 47l4 7q155 268 447 549q285 272 591 442q473 272 856 274q144 0 250 -42q109 -50 168 -132q58 -79 56 -198q0 -234 -208 -416l-16 -11q-4 -174 -56 -346q-53 -181 -155 -351q-106 -182 -239 -337q-87 -98 -187.5 -193.5t-206.5 -171.5 q-105 -75 -220 -140q-337 -178 -679 -178q-181 0 -322 72q-144 73 -220 204q-76 133 -74 311q0 148 44 292q43 144 95 220h-128q-148 -3 -296 15l-94 -148l-83 -113l-4 -11l-141 -183q-79 -98 -166 -181l-8 -8q47 -7 106 -7q122 0 296 44l22 -52q-155 -53 -314 -53 q-73 0 -163 15l-8 -8q-140 -122 -288 -213q-148 -90 -296 -149q-300 -117 -651 -119q-174 0 -326 43q-144 42 -235 113q-87 72 -87 151q0 43 26 72q26 26 65 26q42 0 64 -18q23 -22 73 -98q140 -220 523 -220q265 0 529 112q261 113 433 300l33 43l8 7q-141 61 -246 163 q-98 98 -152 239q-54 133 -52 299q0 268 139 522q141 257 383 459q239 205 553 318q311 117 637 118q162 0 292 -24q129 -22 192 -59q72 -42 72 -89q0 -29 -18 -48q-19 -18 -50 -18q-30 0 -83 26l-102 50q-65 37 -185 62q-113 23 -235 25q-261 0 -516 -108 q-254 -109 -455 -303q-137 -130 -243 -305q-109 -178 -166 -369q-61 -196 -61 -375q0 -193 92 -337q87 -144 243 -201l7 7q133 163 283 403l7 8q-75 26 -116 66q-46 43 -46 96q0 145 277 145h76q113 188 117 196l159 253q46 76 122 174q351 463 644 463q57 0 87 -19 q29 -18 31 -50q0 -50 -57 -48q-15 0 -80 15q-46 7 -79 7q-126 0 -261 -159q-76 -87 -156 -216q-79 -126 -179 -315l-83 -159l-80 -163l126 -7q177 -11 272 -11z" />
<glyph unicode="&#x42f;" horiz-adv-x="3385" d="M2614 364q72 -530 622 -530q112 -62 -61 -62q-206 0 -348 54q-117 54 -228 163q-83 109 -137 283l-7 9l-22 56l-8 7q-42 196 19 463l-4 11q-202 -72 -398 -72q4 0 -101 5l-13 4l-146 -270q-26 -26 -119 -207l-140 -228q-102 -117 -228 -183q-87 -65 -192 -63 q-91 0 -300 59q-174 98 -296 228l65 83q159 -174 349 -220q239 -46 319 42q101 54 203 182q33 75 129 170l148 238q58 98 124 169v11q-173 30 -297 131q-91 148 -111 322q0 239 72 470q166 376 398 549q264 202 632 296q368 117 705 62q220 0 361 -202q90 -174 67 -337 t-208 -423q-137 -84 -155 55q277 318 234.5 517t-253.5 253q-311 53 -671 -45q-322 -140 -518 -285q-243 -201 -361 -458q-133 -239 -133 -424q0 -202 76 -303q105 -73 235 -110q122 134 216 200q133 72 235 72q54 0 50 -22q33 -22 0 -65q-68 -64 -130 -64q-14 0 -3 7l-39 7 q-22 8 -48 8q-50 0 -115 -33q-61 -34 -94 -102q-34 -15 -34 -24q76 -11 145 -11q174 0 381 64l-4 11q-7 12 5 25.5t12 17.5l-13 26l129 325q30 84 26 195q37 105 13 166h-13q-159 8 -200 26q-90 26 -111 72q-18 43 50 91q34 72 126 72q80 0 148 -54q69 -53 102 -146h41 q129 -11 198 -27q83 -15 133 -45q90 -50 63 -155q7 -102 -95 -228q-170 -201 -390 -325q-15 -87 -52 -145q-29 -133 -39 -224q-3 -72 -7 -122l11 -63v0zM2758 1622q8 -79 4 -164q0 -95 -7 -233q-11 -137 -54 -248q148 98 250 209q137 170 103 300q-37 129 -238 140l-54 4 q-4 0 -7 4l3 -12v0zM2653 1698q-43 134 -137 132q-37 0 -72 -30q-33 -33 7 -65q72 -26 202 -37z" />
<glyph unicode="&#x430;" horiz-adv-x="1208" d="M940 803h148l-243 -405q-53 -91 -87 -163q-33 -61 -35 -87q0 -43 35 -43q58 0 222 152l28 -44q-94 -98 -212 -167q-113 -68 -182 -68q-42 0 -65 22q-25 15 -25 54q0 64 55 174q-250 -246 -420 -246q-83 0 -137 51q-50 54 -48 145q0 151 117 329q122 185 314 331 q289 213 561 211q113 0 187 -26q72 -30 72 -83q0 -26 -24 -46q-19 -19 -48 -19q-19 0 -61 19q-50 18 -76 31q-80 30 -167 30q-155 0 -325 -124q-98 -76 -180 -176q-83 -106 -128 -211q-50 -113 -50 -191q0 -57 30 -90q33 -37 82 -37q83 0 181 70q94 69 200 198 q168 207 281 409z" />
<glyph unicode="&#x431;" horiz-adv-x="1494" d="M727 141l43 22q75 33 116 94q170 202 307 553l141 368q61 171 140 326q69 152 139 265q80 116 159 198q65 79 169 155q235 174 510 178q109 3 185 -34q69 -33 80 -94q0 -30 -19 -50q-26 -22 -51 -22q-30 0 -82 18l-83 45q-98 37 -178 39q-116 -4 -235 -69 q-113 -68 -203 -189q-98 -122 -209 -368q-22 -68 -95 -238q-14 -50 -48.5 -141t-41.5 -105q-122 -308 -231 -506q-110 -188 -250 -325q-98 -102 -176 -139q76 -30 148 -31q109 3 224 75l22 -25q-170 -123 -412 -137q-102 -15 -319 -19q-159 -7 -285 8q-87 7 -149 61 q-43 53 -47 142q-11 152 84 331q105 189 296 337q272 216 545 220q113 4 185 -24q72 -30 76 -83q0 -26 -22 -45q-19 -18 -50 -18q-18 0 -61 18q-50 19 -76 30q-83 26 -170 28q-155 -4 -311 -133q-98 -76 -174 -178q-72 -105 -113 -213q-37 -113 -35 -188q11 -58 43 -93 q33 -37 83 -44q65 -11 166 -24q113 -6 265 24z" />
<glyph unicode="&#x432;" horiz-adv-x="1291" d="M1917 2096l-34 33l-26 23q-109 72 -223 68q-174 -7 -354 -189q-98 -113 -174 -292l-98 -213l-57 -116l-46 -106q-80 -140 -185 -360q-98 -206 -124 -289q-109 -209 -222 -334t-215 -180q155 -61 315 -61q268 14 473 253q106 122 145 235q33 129 25 231q0 69 -40 111 q-37 43 -97 34q-49 0 -166 -69l-56 30q210 166 341 175q87 0 148 -53q61 -61 68 -159q11 -87 -16 -202q-50 -122 -135 -239q-65 -94 -174 -185q-156 -116 -328 -181q-170 -68 -348 -68q-177 -8 -277 25q-94 43 -98 112q0 25 4 48q18 18 50 18q14 0 75 -22h15q69 0 185 148 q91 137 213 390q68 156 194 500q80 220 150 368q72 140 144 242q69 95 171 202q140 137 299 211q163 79 315 83q116 4 205 -30q76 -29 144 -112q4 0 13.5 -25t9.5 -48q3 -46 -27.5 -120t-52.5 -111q-18 -26 -52.5 -64.5t-73.5 -75.5q-42 -43 -90 -87l-174 -152 q-11 -11 -51 -40l-83.5 -61l-81.5 -58t-49 -26q-11 -4 -49 -23.5t-80 -37.5l-53 -23t-56 -27l-86.5 -39.5t-39.5 -17.5l-47 16l256 148q-8 -7 52.5 40l149 120l185.5 159l166 149q50 50 79.5 82.5t44.5 54.5t23 43.5l16 43.5l-8 50z" />
<glyph unicode="&#x433;" horiz-adv-x="654" d="M462 268l23 -44q-130 -117 -228 -178q-109 -64 -174 -61q-87 0 -83 83q4 65 91 210l325 510q61 98 61 109q0 22 -22 24q-29 0 -98 -39q-87 -46 -152 -101l-24 44q117 94 235 165q102 57 159 55q34 -3 61 -22q23 -22 19 -61q0 -54 -80 -174l-307 -477q-83 -133 -83 -170 q0 -26 31 -28q58 0 228 140z" />
<glyph unicode="&#x434;" horiz-adv-x="1176" d="M516 117q-148 -95 -205 -117q-65 -26 -133 -26q-87 0 -148 59q-58 58 -56 156q0 133 113 307q117 177 300 314q299 232 593 232q126 0 221 -34q90 -42 90 -90q0 -30 -18 -50q-15 -23 -45 -23q-33 0 -53 12l-87 48q-98 53 -228 53q-235 0 -444 -220q-105 -113 -181 -253 q-72 -141 -72 -228q0 -68 42 -109q34 -46 98 -46q117 0 250 133q76 72 213 268q129 189 189 255q61 58 125 56q61 0 60 -52q0 -53 -60 -57l-50 -4q-46 -4 -83 -50q-46 -50 -98 -163q-53 -98 -170 -383q-83 -201 -159 -357.5t-141 -271.5q-133 -227 -288 -373 q-171 -163 -402 -263q-238 -98 -455 -98q-152 0 -272 57q-116 50 -187 152q-68 94 -66 218q0 109 55 213q58 94 159 156q98 57 220 57q134 0 221 -57q87 -62 87 -145q0 -37 -23 -63q-26 -26 -61 -27q-42 0 -76 49q-53 73 -98 102q-46 30 -122 30q-116 0 -203 -94 q-91 -95 -93 -215q0 -159 133 -267q130 -101 319 -101q174 0 349 68q171 65 298 181q95 87 194 232q98 148 182 318l111 220q83 174 155 291z" />
<glyph unicode="&#x435;" horiz-adv-x="904" d="M231 516q167 54 315 139q109 68 155 118q50 54 50 106q0 26 -20 46q-19 15 -48 15q-50 0 -108 -30q-50 -26 -116 -92q-65 -61 -122 -132q-56 -76 -106 -170zM712 326l11 -58q-137 -137 -272 -211q-140 -79 -242 -79q-98 0 -159 68q-61 65 -61 167q0 137 91 294 q98 163 260 307q113 102 235 159q126 61 217 61q61 0 98 -26q37 -33 39 -79q0 -159 -343 -333q-188 -98 -384 -156q-26 -76 -28 -137q0 -75 42 -125q43 -50 106 -48q72 0 163 40q87 50 227 156z" />
<glyph unicode="&#x436;" horiz-adv-x="2053" d="M1193 694q26 46 130 279l151 322q84 170 160 292q75 133 135 206q64 83 137 155q314 315 686 315q113 0 185 -36q72 -33 72 -90q0 -34 -22 -54q-22 -22 -58 -22q-29 0 -72 26q-144 79 -264 79q-224 0 -417 -246q-109 -140 -338 -571q-4 -8 -11.5 -21t-14.5 -29 q-4 -11 -11 -24t-15 -24q-11 -26 -15.5 -32.5t-12.5 -21.5q-29 -54 -55 -98l-93 -167l-105 -186q117 136 272 231q155 94 266 96q76 0 124 -46q47 -43 47 -113q0 -87 -76 -187q-80 -94 -196 -163q-117 -68 -252 -87q15 -37 17 -83q0 -54 -4 -98l-13 -115q0 -76 61 -76 t178 104l42 33q11 11 22 19l19 -37q-87 -102 -196 -167q-113 -72 -182 -72q-50 0 -75 26q-30 22 -32 69q0 42 39 116l33 69q43 87 43 155q0 18 -4 50q-140 11 -140 83q0 46 61 46q72 0 109 -68q90 11 177 48q80 43 141 111q54 65 54 124q0 117 -126 118q-109 0 -239 -101 q-133 -102 -307 -331q-166 -213 -257 -304q-72 -68 -133 -98q37 -11 79 -11q133 0 243 87l24 -30l-21 -14q-188 -145 -377 -145q-209 0 -209 106q37 68 68 68q23 0 37 -7l47 -15q18 -7 37 -7q64 0 175 127q109 133 215 315q22 360 -139 360q-126 0 -274 -118 q-72 -61 -105 -124q-15 -68 18 -111q30 -37 122 -48q110 68 182 68q61 0 4 -46q-87 -72 -243 -83q-33 -30 -65 -50q-75 -68 -148 -155l-40 -69q-50 -76 -96 -116q-58 -47 -117 -69q-72 -26 -122 -26q-69 0 -91 72q-22 65 24 167l48 37q11 -8 8 -19l11 -33q-15 -102 46 -104 q61 0 148 76l120 115q58 46 115 98q61 46 120 83q-105 19 -146 87q-46 69 8 163q42 98 146 187q87 72 175 113q110 46 185 46q110 0 148 -96q19 -87 22.5 -134t-7.5 -149z" />
<glyph unicode="&#x437;" horiz-adv-x="934" d="M683 152q26 -152 -70.5 -358.5t-196.5 -342.5q-133 -202 -286 -348q-171 -163 -402 -263q-239 -98 -455 -98q-152 0 -274 57q-116 50 -185 152q-68 94 -68 218q0 109 57 213q57 94 159 156q98 57 220 57q134 0 219 -57q87 -62 88 -145q0 -37 -24 -63q-26 -26 -61 -27 q-42 0 -74 49q-53 73 -100 102q-46 30 -120 30q-116 0 -205 -94q-91 -95 -91 -215q0 -159 133 -267q130 -101 319 -101q173 0 347 68q171 65 300 181q94 87 192 232q99 148 184 318l109 220q37 83 61 156l7 29l4 22q0 61 -46 108q-69 61 -185 61q-19 0 -69 -10l35 58 q250 53 398 177q148 126 148 289q0 122 -81 194q-80 76 -204 74q-79 0 -163 -37q-83 -42 -129 -98q-46 -65 -44 -129q0 -34 18 -54q18 -18 76 -30q90 -11 90 -75q0 -37 -29 -65q-33 -30 -80 -30q-68 0 -118 58q-50 53 -50 127q0 113 72 209q65 91 191 156q122 53 257 53 q166 0 274 -85q101 -87 101 -222q0 -140 -122 -274q-126 -133 -325 -207q105 -11 166 -79q17 -17 32 -50z" />
<glyph unicode="&#x438;" horiz-adv-x="1117" d="M940 278l26 -47q-109 -109 -220 -177q-110 -69 -182 -69q-79 0 -79 72q0 65 72 193l11 22l-19 -19q-281 -264 -444 -264q-57 0 -94 33q-37 37 -37 100q0 43 22 94q15 47 72 132l269 455q42 68 42 87q0 26 -27 28q-65 0 -219 -126l-20 46q94 87 198 142q94 58 159 58 q37 0 65 -19q22 -18 22 -53q0 -54 -76 -170l-292 -489q-58 -98 -56 -144q0 -19 19 -41q18 -18 44 -20q61 0 168 72q110 76 211 187q174 185 319 457q29 50 31 72q0 29 -24 31q-37 0 -192 -114l-15 -11l-28 42q98 94 198 146q98 54 159 54q30 0 57 -19q26 -18 26 -53 q0 -50 -87 -189l-281 -474l-37 -64q-33 -58 -35 -84q0 -37 35 -38q61 1 239 161z" />
<glyph unicode="&#x439;" horiz-adv-x="1117" d="M690 1463q19 8 37.5 -2.5t32 -27t15.5 -37.5t-9 -36q15 -84 96.5 -85.5t172 32.5t166 81.5t83.5 65.5q7 8 -7.5 -12.5l-38 -53t-49 -58.5t-36.5 -31q-110 -69 -192 -78t-162 -9q-26 0 -69.5 19.5t-79.5 48t-53.5 62t10.5 68.5q29 46 59.5 51.5t23.5 1.5zM940 278 q-178 -160 -239 -161q-33 0 -35 38q0 26 35 84l37 64l281 474q87 141 87 189q0 33 -26 53q-26 19 -57 19q-61 0 -159 -54q-98 -53 -198 -146l28 -42l15 11q155 112 192 114q22 0 24 -31q0 -22 -31 -72q-145 -272 -319 -457q-101 -109 -211 -187q-105 -72 -168 -72 q-26 0 -44 20q-19 22 -19 41q0 46 56 144l292 489q76 116 76 170q0 33 -22 53q-26 19 -65 19q-65 0 -159 -58q-102 -57 -198 -142l20 -46q156 126 219 126q25 0 27 -28q0 -19 -42 -87l-269 -455q-57 -87 -72 -132q-22 -53 -22 -94q0 -61 37 -100q37 -33 94 -33 q163 0 444 264l19 19l-11 -22q-72 -130 -72 -193q0 -72 79 -72q72 0 182 69q109 68 220 177l-26 47v0z" />
<glyph unicode="&#x43a;" horiz-adv-x="1306" d="M1088 261l18 -37q-87 -102 -196 -167q-113 -72 -183 -72q-50 0 -76 26q-29 22 -29 69q0 42 37 116l35 69q42 87 40 155q0 18 -3 50q-141 11 -141 83q0 46 61 46q72 0 111 -68q91 11 178 48q79 43 140 111q54 65 52 124q0 117 -124 118q-109 0 -238 -101 q-134 -102 -308 -331q-166 -213 -257 -304q-72 -68 -133 -98q37 -11 80 -11q133 0 242 87l22 -30l-18 -14q-189 -145 -380 -145q-209 0 -207 106q0 26 23 50q14 18 44 18q22 0 39 -7l46 -15q19 -7 37 -7q65 0 174 127q109 133 190 274q69 122 211 442l152 322 q83 170 159 292q76 133 137 206q65 83 137 155q314 315 684 315q113 0 187 -36q72 -33 72 -90q0 -34 -24 -54q-22 -22 -55 -22q-30 0 -72 26q-145 79 -267 79q-223 0 -416 -246q-109 -140 -337 -571q-3 -8 -10.5 -21l-16.5 -29q-4 -11 -11.5 -24t-14.5 -24 q-11 -26 -15 -32.5t-11 -21.5q-30 -54 -57 -98l-91 -167l-106 -186q117 136 272 231q156 94 265 96q76 0 126 -46q46 -43 46 -113q0 -87 -76 -187q-79 -94 -198 -163q-116 -68 -250 -87q15 -37 15 -83q0 -54 -3 -98q-12 -98 -12 -115q0 -76 61 -76t178 104l41 33 q13 11 24 19z" />
<glyph unicode="&#x43b;" horiz-adv-x="1139" d="M549 50q141 22 224 80l48 36q23 15 43 15q54 0 54 -51q0 -58 -100 -87q-137 -43 -287 -47q-65 0 -50 34q0 26 43 64q90 95 166 246q80 152 80 289q18 43 3 102q-7 57 -7 83q0 33 15 54q33 26 64 26q54 0 65 -45q34 -50 30 -129q-11 -167 -122 -341q-109 -177 -269 -329z M1149 984q0 -29 -21 -44q-18 -19 -48 -19q-14 0 -64 8q-69 11 -137 11q-126 0 -220 -46q-106 -37 -200 -139q-141 -126 -206 -270q-75 -141 -90 -283q0 -8 3 -72q4 -50 4 -73q-15 -75 -90 -75q-87 0 -84 148q11 151 141 351q133 202 311 350q148 109 294 166q148 57 296 56 q111 0 111 -69z" />
<glyph unicode="&#x43c;" horiz-adv-x="1570" d="M825 683q-116 -130 -189 -256q-61 -116 -61 -185q-7 -57 32 -57q68 4 139 152q72 148 72 296q7 35 7 50zM1027 68q151 23 246 98q33 34 61 36q26 0 37 -21q15 -15 17 -33q0 -54 -76 -87q-110 -50 -282 -50q-75 0 -75 43q0 22 46 68q105 106 159 242q68 137 68 269 q8 61 -3 109q-11 54 -13 76q0 37 31 64q22 23 61 23q95 0 87 -174q-7 -163 -111 -344q-102 -182 -253 -319zM882 821l12 13q272 239 573 239q130 0 128 -76q0 -61 -72 -61q-8 0 -37 4l-54 7q-57 11 -106 11q-242 0 -436 -203v-50q-8 -167 -65 -326q-54 -159 -135 -266 q-80 -102 -152 -102q-37 0 -61 32q-22 29 -22 83q7 116 98 287q98 162 257 333q-46 155 -174 155q-112 0 -223 -80q-99 -75 -171 -211q-61 -129 -68 -281q0 -61 4 -144q7 -54 7 -80q0 -49 -26 -79q-29 -30 -65 -30q-90 0 -83 156q7 151 91 325q83 178 201 333 q95 109 197 180q98 64 186 63q80 0 132 -60q57 -59 64 -172z" />
<glyph unicode="&#x43d;" horiz-adv-x="1074" d="M94 22l-14 -22h-189l231 352q192 303 272 462q26 54 26 65q0 26 -22 26q-58 0 -235 -147l-26 41q102 95 211 163q109 65 172 65q79 0 79 -72q0 -73 -242 -481q113 -69 340 42q167 372 235 500l171 3l-213 -386q-61 -95 -132 -254q-61 -113 -92 -253q0 -54 65 -21 q26 0 47 -18.5t-55 -68.5q-64 -36 -151 -25q-26 -4 -30 -4q-26 0 -46 15q-15 14 -15 46q0 61 61 135q54 72 102 194l-76 -39q-189 -105 -296 -3l-91 -156z" />
<glyph unicode="&#x43e;" horiz-adv-x="1006" d="M901 666q0 -122 -83 -272q-87 -152 -222 -264q-182 -160 -357 -160q-117 0 -185 73q-65 75 -65 203q0 109 57 231q58 117 163 232q105 109 239 196q113 72 218 107q113 37 209 37q65 0 105 -22q43 -26 43 -65q0 -26 -22 -44q-26 -19 -57 -21q-26 0 -106 24 q-80 23 -126 23q-113 0 -246 -102q-129 -106 -216 -267q-84 -155 -84 -303q0 -192 156 -192q105 0 213 79q101 76 174 198q68 117 68 233q0 50 -26 126q-11 33 -13 54q0 26 24 44q19 22 45 24q46 0 68 -50q26 -46 26 -122z" />
<glyph unicode="&#x43f;" horiz-adv-x="1265" d="M94 22l-14 -22h-189l231 352q192 303 272 462q26 54 26 65q0 26 -22 26q-58 0 -235 -147l-26 41q102 95 211 163q109 65 172 65q79 0 79 -72q0 -73 -96 -224q322 311 570 311q80 0 135 -49q54 -49 54 -125q0 -84 -61 -159q-61 -76 -250 -235q-285 -228 -285 -348 q0 -54 50 -54q26 0 98 19q94 26 130 26t57 -15q18 -19 18 -45q0 -33 -22 -53q-22 -19 -57 -19q-22 0 -54 4q-79 11 -148 11q-105 0 -166 -7q-26 -4 -30 -4q-26 0 -46 15q-15 14 -15 46q0 61 61 135q54 72 209 205q174 152 246 243q72 94 72 174q0 50 -39 79q-37 33 -86 35 q-87 0 -217 -83q-129 -83 -246 -209q-91 -102 -209 -292l-91 -156z" />
<glyph unicode="&#x440;" horiz-adv-x="1180" d="M-289 -1049l28 -39q-91 -68 -239 -113q-144 -46 -284 -46q-278 0 -276 115q0 33 26 55q22 23 61 24q29 0 59 -16q50 -19 65 -19q68 0 152 91q94 105 257 383q109 185 310 568q182 348 304 562q277 470 492 681q220 216 426 216q64 0 94 -25q33 -23 33 -65q0 -34 -22 -58 q-22 -22 -61 -22q-30 0 -59 8q-106 25 -130 25q-140 0 -296 -188q-126 -156 -214 -342q272 288 495 288q98 0 152 -57q50 -58 48 -156q0 -140 -94 -314q-98 -178 -250 -318q-231 -213 -459 -211q-68 0 -109 37q-46 37 -46 87q0 33 22 57q22 22 57 22q43 0 50 -37l4 -27 q7 -73 83 -71q65 0 152 52q87 57 163 137q102 117 174 272t72 263q0 61 -33 98q-34 37 -87 37q-95 0 -209 -71q-117 -76 -221 -205q-83 -98 -173 -268q-73 -126 -185 -387q-141 -318 -252 -501q-113 -185 -272 -355q-178 -189 -285 -239q65 -22 137 -22q174 0 340 94z" />
<glyph unicode="&#x441;" horiz-adv-x="900" d="M694 326l29 -41q-101 -130 -249 -217q-145 -86 -265 -86q-102 0 -159 64q-61 65 -61 170q0 137 105 308q106 166 293 314q242 185 431 185q76 0 118 -26q43 -29 41 -76q0 -33 -22 -53q-23 -26 -58 -26q-33 0 -55 18q-15 11 -24 15q0 4 -9.5 9.5l-16.5 9.5q-34 29 -91 31 q-105 0 -235 -118q-76 -69 -148 -163q-65 -95 -102 -189q-42 -98 -42 -170t50 -115q42 -42 105 -40q72 0 178 55q103 54 187 141z" />
<glyph unicode="&#x442;" horiz-adv-x="1844" d="M83 0h-192q72 91 131 189l43 68q61 91 87 137q83 130 94 155l111 185q72 123 70 137q0 26 -29 26q-26 0 -91 -37q-57 -37 -137 -102l-26 41q72 69 174 141q126 87 202 87q33 0 59 -19q22 -18 24 -53q0 -54 -61 -167l-15 -22q91 76 224 152q185 112 298 112 q122 0 122 -109q0 -57 -31 -129l24 18q288 228 481 228q90 0 144 -45q54 -49 52 -125q0 -72 -56 -148q-65 -84 -209 -200q-196 -163 -257 -235q-76 -87 -76 -152t52 -65q26 0 100 26q79 26 113 28q42 0 64 -20q19 -19 19 -45q0 -61 -68 -61l-49 4q-112 7 -155 7 q-72 0 -144 -11l-47 -3q-57 0 -55 61q0 116 163 253l127 113q156 133 224 220q65 80 65 159q0 58 -39 87q-37 33 -94 35q-98 0 -254 -107q-148 -105 -260 -257q-106 -144 -198 -289q-102 -170 -152 -268h-189l79.5 119.5t96.5 150l128 200.5q79 126 166 281q50 83 48 117 q0 18 -18 33q-19 11 -41 13q-91 0 -239 -104q-144 -101 -262 -257q-72 -94 -121 -170q-53 -76 -118 -194z" />
<glyph unicode="&#x443;" horiz-adv-x="1291" d="M133 751l-24 33q130 122 231 178q106 65 167 65q79 0 79 -72q0 -69 -83 -209l-63 -106l-205 -340q-80 -134 -80 -167q0 -50 65 -50q133 0 322 163q185 159 372 433l102 155q151 217 288 215q34 0 56 -15q22 -18 24 -50q0 -29 -13 -44q-11 -15 -37 -30q-30 -15 -91 -28 q-79 -18 -133 -57q-54 -37 -109 -120q-72 -102 -183 -307q-95 -182 -219 -455q-129 -282 -216 -435q-83 -152 -178 -274q-87 -109 -205 -214q-303 -258 -607 -260q-113 0 -185 39q-72 34 -72 98q0 30 22 54q26 22 54 22q37 0 83 -22l80 -50q76 -37 177 -37q148 0 282 102 q86 61 166 174q76 98 174 296l144 268l137 254.5t152 254.5l11 18q-15 -11 -19 -15l-3 -3q-87 -69 -116 -90t-49 -40q-30 -18 -102 -53q-105 -54 -185 -52q-144 0 -144 127q0 47 15 84q18 46 68 125l257 420q69 113 69 137q0 23 -22 23q-34 0 -109 -41q-80 -48 -145 -102z " />
<glyph unicode="&#x444;" horiz-adv-x="1753" d="M683 307q33 72 174 322q53 159 22 209q-34 72 -124 72q-54 0 -111 -39q-80 -37 -144 -98q-126 -105 -222 -262q-110 -156 -134 -272q-26 -80 -7 -137q29 -54 94 -52q76 0 170 55l54 32q61 33 178 128l50 42v0zM633 209q-171 -155 -254 -191q-98 -36 -166 -36 q-228 0 -209 210q7 141 113 319q98 173 270 314q101 98 223 155q91 58 189 58q202 0 133 -304q141 250 356 463q220 216 425 216q65 0 94 -25q34 -23 34 -65q0 -34 -22 -58q-23 -22 -61 -22q-30 0 -60 8q-105 25 -129 25q-141 0 -296 -188q-126 -156 -217 -342 q272 288 498 288q98 0 152 -57q50 -58 48 -156q0 -140 -95 -314q-98 -178 -249 -318q-232 -213 -459 -211q-69 0 -109 37q-46 37 -46 87q0 33 22 57q22 22 57 22q43 0 50 -37l4 -27q7 -73 83 -71q65 0 152 52q87 57 162 137q102 117 174 272t72 263q0 61 -35 98 q-33 37 -87 37q-94 0 -207 -71q-116 -76 -220 -205q-83 -98 -174 -268q-72 -126 -187 -387q-140 -318 -249 -501q-113 -185 -272 -355q-178 -189 -285 -239q64 -22 137 -22q173 0 340 94l28 -39q-91 -68 -239 -113q-144 -46 -285 -46q-277 0 -277 115q0 33 27 55 q23 23 61 24q30 0 60 -16q50 -19 64 -19q69 0 152 91q94 105 257 383q111 187 452 823z" />
<glyph unicode="&#x445;" horiz-adv-x="1309" d="M701 579l-4 -11l-27 -68q-37 -106 -37 -193q0 -61 33 -102q33 -37 92 -39q38 0 84 19q22 11 40 11q15 0 23 -11q11 -11 13 -22q0 -30 -36 -65q-29 -30 -83 -52q-50 -18 -90 -20q-80 0 -123 50q-46 54 -44 137q0 53 11 105q-68 -90 -144 -159q-80 -68 -163 -105t-148 -39 q-42 0 -65 18q-26 19 -26 50q0 72 134 80q148 11 249 90q102 80 185 239l8 8l31 68q72 152 72 266q0 80 -46 128q-46 46 -124 46q-57 0 -103 -31q-43 -33 -41 -76q0 -61 52 -59q26 0 35 3h26q57 0 57 -57q0 -42 -35 -72q-37 -30 -91 -30q-64 0 -105 45q-37 42 -39 111 q0 98 72 166q76 72 183 72q106 0 167 -68q64 -68 64 -191v-11q95 134 215 206q122 72 235 72q43 0 72 -28q30 -22 32 -59q0 -72 -69 -130l-24 -7q-50 7 -29 54q7 22 -6 31t-48 2q-126 -15 -239 -109q-113 -93 -196 -263z" />
<glyph unicode="&#x446;" horiz-adv-x="1117" d="M527 18q-53 4 -50 36q8 64 80 192l11 22l-19 -18q-268 -261 -444 -265q-57 0 -94 33q-37 38 -37 99q0 42 22 96q15 46 72 131l269 455q42 69 42 87q0 26 -27 28q-65 0 -219 -126l-20 46q94 87 198 143q94 57 159 57q37 0 65 -18q22 -19 22 -54q0 -54 -76 -170l-292 -489 q-58 -98 -56 -144q0 -18 19 -42q18 -19 44 -19q61 0 168 72q110 76 211 187q174 185 319 457q29 50 31 72q0 30 -24 32q-37 0 -192 -115l-15 -11l-28 42q98 95 198 146q98 54 159 54q30 0 57 -18q26 -19 26 -54q0 -50 -87 -189l-281 -473l-37 -65q-33 -57 -35 -83 q0 -37 35 -39q61 0 239 159l26 -44q-109 -110 -152 -137q-94 -69 -37 -26l-35 -22q15 3 40 -23.5t46 -57t32 -59.5t4 -33q7 -18 1.5 -48.5t-18.5 -60t-34 -56.5t-47 -34q-57 -19 -133 -33t-150 -15.5t-136 4t-90 25.5q-22 15 -41.5 35.5t-26.5 44.5q-4 50 19 92.5t55.5 75 t68.5 55.5t66 34q11 7 55.5 14.5t73.5 14.5zM640 -26q-11 0 -49 -10t-81.5 -23t-81.5 -28t-49 -22q-37 -26 -56.5 -43.5t-37.5 -49.5q-11 -11 -7.5 -31t13 -41.5t22.5 -36.5t27 -15q34 -7 87.5 -14.5t112.5 -3.5t115.5 26t90.5 72q42 46 8 116.5t-114 103.5z" />
<glyph unicode="&#x447;" horiz-adv-x="752" d="M520 130q-148 -110 -331 -112q-91 0 -143 47q-53 50 -53 124q0 72 57 148q65 83 207 201q196 163 259 235q76 87 74 152q0 65 -52 65q-26 0 -98 -28q-79 -26 -114 -26q-43 0 -65 19q-19 18 -19 46q0 61 69 59l50 -4q113 -7 155 -7q72 0 143 11l46 4q57 0 57 -59 q0 -117 -163 -254l-129 -115q-156 -133 -224 -220q-65 -79 -65 -159q0 -57 39 -87q37 -33 94 -33q99 0 254 105q42 30 46 30l-7 -76l3 6l-90 -72v0z" />
<glyph unicode="&#x448;" horiz-adv-x="1844" d="M1750 1056h194q-72 -90 -133 -188l-42 -69q-61 -90 -87 -137q-84 -129 -95 -155l-109 -185q-72 -122 -72 -137q0 -26 30 -26q26 0 90 37q58 37 137 104l26 -43q-72 -68 -174 -140q-126 -87 -200 -87q-33 0 -61 20q-22 18 -22 52q0 53 59 166l17 24q-91 -76 -224 -151 q-185 -113 -300 -115q-122 0 -122 111q0 57 32 128l-24 -19q-289 -228 -481 -228q-91 0 -143 47q-53 50 -53 124q0 72 57 148q65 83 207 201q196 163 259 235q76 87 74 152q0 65 -52 65q-26 0 -98 -28q-79 -26 -114 -26q-43 0 -65 19q-19 18 -19 46q0 61 69 59l50 -4 q113 -7 155 -7q72 0 143 11l46 4q57 0 57 -59q0 -117 -163 -254l-129 -115q-156 -133 -224 -220q-65 -79 -65 -159q0 -57 39 -87q37 -33 94 -33q99 0 254 105q148 106 263 258q105 144 196 288q101 170 151 268h189l-79.5 -119t-96 -148.5l-127.5 -202.5q-80 -125 -167 -279 q-50 -83 -48 -118q0 -19 19 -34q18 -11 42 -11q91 0 239 102q144 102 261 257q72 95 120 172q54 76 118 193z" />
<glyph unicode="&#x449;" horiz-adv-x="1844" d="M1371 -22q-11 0 -49 -10.5l-81.5 -23t-81.5 -27.5t-49 -22q-37 -26 -56.5 -43.5t-37.5 -47.5q-11 -11 -7.5 -32.5t12.5 -42.5t22 -36t30 -15q33 -7 86 -14.5t112 -4t115.5 26t91.5 72.5q43 46 7.5 116t-114.5 104zM1399 159q7 -42 33 -42q61 0 239 161l27 -47 q-109 -109 -151 -137q-30 -22 -43 -29l4 3l-34 -22q15 4 39 -23t45.5 -57.5t32.5 -59t4 -32.5q7 -18 1.5 -48.5t-18.5 -60.5t-34 -56.5t-47 -34.5q-58 -18 -133.5 -32t-149.5 -16t-136 4t-88 26q-22 15 -41.5 35t-27.5 44q-3 50 19 92.5t54.5 75t68.5 56t65 34.5 q12 7 56 14.5t74 14.5q-54 4 -50 35l4 23l16 37q23 72 63 151l17 24q-91 -76 -224 -151q-185 -113 -300 -115q-122 0 -122 111q0 57 32 128l-24 -19q-289 -228 -481 -228q-91 0 -143 47q-53 50 -53 124q0 72 57 148q65 83 207 201q196 163 259 235q76 87 74 152q0 65 -52 65 q-26 0 -98 -28q-79 -26 -114 -26q-43 0 -65 19q-19 18 -19 46q0 61 69 59l50 -4q113 -7 155 -7q72 0 143 11l46 4q57 0 57 -59q0 -117 -163 -254l-129 -115q-156 -133 -224 -220q-65 -79 -65 -159q0 -57 39 -87q37 -33 94 -33q99 0 254 105q148 106 263 258q105 144 196 288 q101 170 151 268h189l-79.5 -119l-97.5 -149l-126 -202q-80 -125 -167 -279q-50 -83 -48 -118q0 -19 19 -34q18 -11 42 -11q91 0 239 102q144 102 261 257q72 95 120 172q54 76 118 193l102 188h194q-72 -90 -133 -188l-42 -69q-61 -90 -87 -137q-84 -129 -95 -155 l-109 -185l-65 -113l-14 -50v0z" />
<glyph unicode="&#x44a;" horiz-adv-x="912" d="M431 561q98 75 187 72q202 -8 102 -293q-47 -94 -145 -185q-196 -155 -383 -140q-94 3 -146 50q-53 50 -53 124q0 72 57 148q65 83 207 201q196 163 259 235q76 87 74 152q0 65 -52 65q-26 0 -98 -28q-79 -26 -114 -26q-43 0 -65 19q-19 18 -19 46q0 61 69 59l50 -4 q113 -7 155 -7q72 0 143 11l46 4q57 0 57 -59q0 -117 -163 -254l-129 -115q-156 -133 -224 -220q-65 -79 -65 -159q0 -57 39 -87q37 -33 98 -40q98 -4 228 79q102 83 133 159q61 126 -31 181q-87 43 -221 -14l4 26v0z" />
<glyph unicode="&#x44b;" horiz-adv-x="1461" d="M1212 122q-202 -133 -315 -126q-57 11 -94 47q-30 49 -26 109q4 37 30 83q18 46 83 133l311 428q46 64 46 83q4 26 -22 26q-65 3 -228 -106l-20 50q102 76 213 128q94 61 162 68q47 19 91 -26q15 -50 7 -83q-22 -54 -105 -163l-340 -459q-61 -94 -69 -144q4 -18 19 -33 q18 -19 46 -28q57 -7 170 57l41 -44v0zM405 561q98 75 185 72q202 -8 111 -293q-46 -94 -137 -185q-185 -155 -383 -140q-94 3 -148 50q-37 50 -37 124q-7 72 34 148q64 83 201 201q189 163 250 235q76 87 68 152q0 65 -29 72q15 69 98 63l44 4q58 0 58 -59 q0 -117 -156 -254l-120 -115q-155 -133 -216 -220q-65 -79 -65 -159q7 -57 46 -87q37 -33 98 -40q98 -4 228 79q94 83 124 159q53 126 -37 181q-87 43 -221 -14l4 26v0z" />
<glyph unicode="&#x44c;" horiz-adv-x="912" d="M431 561q98 75 187 72q202 -8 102 -293q-47 -94 -145 -185q-196 -155 -383 -140q-94 3 -146 50q-53 50 -53 124q0 72 57 148q65 83 207 201q196 163 259 235q76 87 74 152q0 65 -29 72q14 69 98 63l46 4q57 0 57 -59q0 -117 -163 -254l-129 -115q-156 -133 -224 -220 q-65 -79 -65 -159q0 -57 39 -87q37 -33 98 -40q98 -4 228 79q102 83 133 159q61 126 -31 181q-87 43 -221 -14l4 26v0z" />
<glyph unicode="&#x44d;" horiz-adv-x="1117" d="M431 538q7 72 57 80q95 26 156 -22q65 -76 83 -80q30 -18 133 0q58 8 102 33q22 19 35 47l11 40q19 65 30 122q7 65 -4 117q-15 54 -37 87q-29 46 -83 65q-30 11 -100 0q-43 -15 -72 -34q-19 -22 -33 -53q18 -43 0 -72q-65 -47 -73 42q12 61 54 102q43 33 109 52 q83 26 159 9q76 -19 111 -72q37 -57 37 -133q8 -80 -11 -174q-22 -98 -76 -217q-50 -109 -129 -188l-22 -28l-37 -33q-73 -73 -169 -126q-90 -46 -196 -76q-90 -33 -166 -26q-87 15 -145 37q-75 26 -109 65q-26 26 -31 68q-19 65 3 137q47 72 104 102q87 65 131 11 q-79 -26 -144 -80q-29 -33 -41 -79q-7 -57 15 -95q26 -42 91 -64q50 -11 126 -8q50 -3 116 8q102 26 202 94q174 122 314 281q-72 -22 -125 -22q-80 -15 -98 19q-50 42 -134 75q-57 15 -144 -11z" />
<glyph unicode="&#x44e;" horiz-adv-x="1635" d="M625 368l-87 -39q-159 -76 -266 8l-91 -156l-87 -159l-14 -22h-189l231 352q192 303 272 462q26 54 26 65q0 26 -22 26q-58 0 -235 -147l-26 41q102 95 207 170q106 73 187 95q105 0 79 -106q-11 -76 -253 -484q113 -58 287 22l26 11q53 102 161 216q105 109 238 198 q113 72 219 106q112 37 209 37q64 0 105 -22q43 -26 43 -65q0 -26 -23 -45q-25 -18 -57 -18q-26 0 -107 22q-80 22 -124 22q-113 0 -246 -101q-130 -106 -217 -267q-83 -155 -83 -301q0 -193 156 -195q105 0 212 80q102 76 174 198q69 116 69 235q0 50 -28 124 q-11 33 -11 53q0 26 24 47q18 22 44 22q46 0 69 -50q26 -46 26 -120q0 -122 -84 -274q-87 -152 -224 -265q-181 -159 -355 -159q-116 0 -185 72q-65 76 -65 204q-3 100 15 107z" />
<glyph unicode="&#x44f;" horiz-adv-x="1306" d="M72 285q11 -7 22 -20v-34q-29 -101 32 -101t166 75q43 15 139 102l115 109q57 46 98 84q-106 18 -144 86q-23 69 11 172q37 91 148 178q105 72 201 113q106 46 178 46q109 0 118 -94q46 -95 0 -231q19 57 80 192l52 130q129 75 53 -160l-224 -379q-105 -140 -159 -272 q-57 -129 -3 -129q14 0 61 7l44 15q43 7 65 7q29 0 18 -18q-3 -22 -29 -50q-122 -106 -283 -106q-189 0 -232 145l8 14l48 30q4 -87 137 -87q42 0 79 13q-26 30 -14 102q14 98 116 300q117 227 122 329q-18 102 -126 102q-112 0 -246 -117q-79 -61 -105 -126q-22 -68 4 -109 q33 -37 120 -39q113 58 179 58q58 0 4 -47q-68 -72 -228 -83l-46 -48q-68 -80 -131 -163l-61 -61q-83 -76 -137 -118q-54 -46 -109 -69q-43 -26 -91 -26q-68 0 -115 73q-14 64 19 166l46 39v0z" />
<glyph unicode="&#x451;" horiz-adv-x="904" d="M1121 1443q0 -65 -41 -117q-42 -57 -90 -57q-65 0 -65 76q0 65 41 122q46 57 94 56q61 0 61 -80zM777 1436q0 -65 -43 -113q-42 -54 -90 -54q-65 0 -65 76q0 65 46 122q37 57 91 56q61 0 61 -87zM231 516q167 54 315 139q109 68 155 118q50 54 50 106q0 26 -20 46 q-19 15 -48 15q-50 0 -108 -30q-50 -26 -116 -92q-65 -61 -122 -132q-56 -76 -106 -170zM723 268q-137 -137 -272 -211q-140 -79 -242 -79q-98 0 -159 68q-61 65 -61 167q0 137 91 294q98 163 260 307q113 102 235 159q126 61 217 61q61 0 98 -26q37 -33 39 -79 q0 -159 -343 -333q-188 -98 -384 -156q-26 -76 -28 -137q0 -75 42 -125q43 -50 106 -48q72 0 163 40q87 50 227 156z" />
<glyph unicode="&#x2000;" horiz-adv-x="1445" />
<glyph unicode="&#x2001;" horiz-adv-x="2891" />
<glyph unicode="&#x2002;" horiz-adv-x="1445" />
<glyph unicode="&#x2003;" horiz-adv-x="2891" />
<glyph unicode="&#x2004;" horiz-adv-x="963" />
<glyph unicode="&#x2005;" horiz-adv-x="722" />
<glyph unicode="&#x2006;" horiz-adv-x="481" />
<glyph unicode="&#x2007;" horiz-adv-x="481" />
<glyph unicode="&#x2008;" horiz-adv-x="361" />
<glyph unicode="&#x2009;" horiz-adv-x="578" />
<glyph unicode="&#x200a;" horiz-adv-x="160" />
<glyph unicode="&#x2010;" horiz-adv-x="965" d="M126 474v122h612v-122h-612z" />
<glyph unicode="&#x2011;" horiz-adv-x="965" d="M126 474v122h612v-122h-612z" />
<glyph unicode="&#x2012;" horiz-adv-x="965" d="M126 474v122h612v-122h-612z" />
<glyph unicode="&#x2013;" horiz-adv-x="1230" d="M126 474v122h879v-122h-879z" />
<glyph unicode="&#x2014;" horiz-adv-x="4140" d="M126 474v122h3789v-122h-3789z" />
<glyph unicode="&#x2018;" d="M1019 2292l23 -29l-15 -12q-76 -57 -126 -111q-33 -33 -44 -75h11q68 0 68 -69q0 -54 -39 -90q-33 -43 -76 -41q-33 0 -51 26q-26 22 -28 61q0 76 72 166q68 87 205 174z" />
<glyph unicode="&#x2019;" d="M629 1830l-22 35l15 11q159 113 170 181q-4 -3 -11 -3q-69 0 -69 75q0 54 39 87q33 43 74 43q33 0 57 -24q19 -26 19 -63q0 -76 -70 -172q-76 -94 -202 -170z" />
<glyph unicode="&#x201a;" d="M-68 -242l-8 -4l-26 33q185 141 207 217h-14q-73 0 -73 79q0 58 39 102q34 43 87 43q37 0 65 -26q22 -26 22 -69q0 -83 -79 -183q-80 -102 -220 -192z" />
<glyph unicode="&#x201c;" horiz-adv-x="878" d="M1019 2292l23 -29l-15 -12q-76 -57 -126 -111q-33 -33 -44 -75h11q68 0 68 -69q0 -54 -39 -90q-33 -43 -76 -41q-33 0 -51 26q-26 22 -28 61q0 76 72 166q68 87 205 174zM1258 2292l18 -29l-14 -12q-152 -116 -167 -186h11q65 0 65 -73q0 -50 -35 -86q-33 -38 -80 -38 q-29 0 -51 23q-23 26 -25 61q0 79 80 174q81 98 198 166z" />
<glyph unicode="&#x201d;" horiz-adv-x="878" d="M875 1830l-22 35l15 11q87 65 129 102q33 46 41 79q-4 -3 -11 -3q-65 0 -65 75q0 54 35 87q33 43 76 43q33 0 55 -24q23 -26 25 -63q0 -72 -80 -172q-81 -102 -198 -170zM636 1830l-18 35l15 11q151 113 170 181q-7 -3 -15 -3q-65 0 -65 75q0 54 35 87q34 43 80 43 q33 0 56 -24q18 -26 20 -63q0 -76 -76 -172q-76 -98 -202 -170z" />
<glyph unicode="&#x201e;" horiz-adv-x="878" d="M235 -202l-22 36q166 122 185 192h-11q-69 0 -69 72q0 54 39 91q33 37 74 39q33 0 57 -23q19 -26 19 -61q0 -76 -76 -174q-79 -100 -196 -172zM0 -202l-26 36q167 116 185 192h-11q-65 0 -65 72q0 54 34 91q33 37 75 39q37 0 58 -23q22 -26 22 -61q0 -79 -80 -174 q-75 -96 -192 -172z" />
<glyph unicode="&#x2022;" horiz-adv-x="889" d="M712 1508q106 0 174 -72q69 -76 69 -174t-69 -170q-68 -73 -174 -73q-98 0 -170 73q-72 72 -72 170q0 101 72 174q72 72 170 72z" />
<glyph unicode="&#x2026;" horiz-adv-x="3788" d="M2853 65q0 61 46 109q43 54 98 54q37 0 57 -23q19 -26 19 -61q0 -61 -43 -114q-46 -50 -98 -48q-29 0 -57 22q-22 27 -22 61zM1591 65q0 61 46 109q43 54 98 54q37 0 58 -23q18 -26 18 -61q0 -61 -42 -111q-47 -53 -98 -51q-34 0 -58 22q-22 24 -22 61zM326 65 q0 61 46 109q46 54 98 54q37 0 57 -23q22 -26 22 -61q0 -61 -46 -114q-42 -50 -98 -48q-29 0 -53 22q-26 27 -26 61z" />
<glyph unicode="&#x202f;" horiz-adv-x="578" />
<glyph unicode="&#x205f;" horiz-adv-x="722" />
<glyph unicode="&#x2122;" horiz-adv-x="6798" d="M6638 348l11 16l46 -31q-101 -155 -266 -261q-163 -105 -304 -105q-109 0 -173 63q-62 61 -62 179q0 102 43 257q37 156 113 341q79 185 163 346q94 166 235 373q144 217 281 380q91 112 174 191t177 141q174 113 324 115q65 0 109 -18q37 -23 37 -58q0 -18 -15 -39 q-14 -14 -37 -14q-14 0 -38 7l-45 20q-53 23 -90 23q-269 0 -676 -661q-83 -129 -164.5 -280l-142.5 -274t-105 -234q-152 -357 -152 -529q0 -181 170 -183q98 0 189 53q89 52 198 182zM4220 401l-7 -7q-221 -235 -474 -351q-253 -123 -514 -123q-185 0 -339 47 q-159 42 -250 116q-94 72 -94 159q0 43 26 69q30 26 65 26q57 0 94 -59l72 -115q57 -83 170 -133q117 -47 259 -45q496 0 898 442l7 10q-170 83 -279 264q-106 181 -108 394q0 281 145 542q57 98 113.5 172t125 142.5t158.5 144.5q122 94 277.5 177.5t311.5 131.5 q325 113 688 115q231 0 387 -43q148 -42 148 -113q0 -14 -12 -33q-14 -19 -38 -20q-26 0 -60 20q-136 61 -277 91q-152 29 -287 29q-122 0 -266 -29q-141 -30 -280 -87q-133 -54 -255 -126q-122 -76 -231 -170q-213 -193 -341 -467q-133 -281 -133 -530q0 -182 72 -326 q69 -137 198 -213l8 8q137 177 344 527q192 318 281 451q94 152 174 254q87 122 155 198q72 75 159 149q243 210 481 210q73 0 119 -23q42 -26 41 -68q0 -50 -45 -50q-15 0 -50 13q-61 22 -87 22q-90 0 -177 -111q-91 -109 -152 -294q-61 -181 -80 -398l-38 -486 q-15 -141 -30 -265l-35 -203l-4 -24l13 14l139 221q11 14 21 31.5t29 43.5q7 11 44 76l365 564q155 235 264 372q141 185 235 285q117 113 235 207q420 322 849 322q159 0 254 -37q94 -42 96 -111q0 -64 -58 -63q-29 0 -64 15q-113 54 -178 72q-61 19 -159 19 q-196 0 -429 -113q-228 -117 -435 -327q-79 -80 -166 -178t-174 -213l-169 -222l-96 -148.5l-119 -182.5l-96.5 -149l-100.5 -160q-102 -170 -170.5 -272.5t-129.5 -182.5q-105 -133 -235 -224q-102 -76 -163 -98q-68 -26 -155 -28q-126 0 -124 76q0 34 22 54q19 15 58 15 q22 0 51 -8l58 -11q50 -7 64 -7q62 0 113 37q58 42 89 103q26 47 41 132q15 72 39 273q33 361 76.5 624t108.5 451q116 357 347 524q-101 -4 -231 -102q-102 -79 -211 -239q-113 -155 -270 -432l-203 -359l-145 -228l-136 -190q-84 -106 -156 -182l-15 -15q84 -22 159 -22 q185 0 352 113l31 -42q-166 -137 -416 -135q-96 0 -183 25zM3600 2144q0 -29 -24 -54q-26 -22 -52 -22q-29 0 -92 19q-87 29 -163 31q-133 0 -222 -68q-94 -72 -172 -174q-126 -174 -215 -353l-212 -417q-160 -318 -311 -510q-156 -202 -372 -361q-217 -159 -466 -250 q-246 -90 -481 -90q-202 0 -359 59q-156 57 -243 168q-90 109 -90 239q0 140 102 235q94 94 238 94q80 0 141 -39q53 -33 52 -94q0 -37 -26 -69q-34 -29 -72 -29q-23 0 -73 15q-90 29 -124 29q-68 0 -114 -44q-50 -50 -48 -119q0 -162 170 -268q166 -105 416 -105 q192 0 368 44q174 50 326 155q155 106 290 265q137 159 274 390l242 415q152 257 298 446.5t285 309.5q285 243 574 243q72 0 113 -22q42 -26 42 -69zM2031 1800l45 -22q-34 -76 -121 -187q-105 -122 -212 -185q-106 -65 -213 -65q-109 0 -185 72q-72 69 -72 174 q0 137 102 300q105 159 281 289q216 162 470 238q246 72 571 71q206 0 557 -45q206 -22 315 -22q116 0 223 18q102 19 247 69q64 22 98 22q33 0 53 -18q19 -19 19 -54q0 -76 -106 -120q-109 -50 -277 -50q-106 0 -280 22q-162 22 -173 28q-43 3 -69 11q-30 4 -54 4 q-18 3 -61 11q-14 3 -31 5t-32 2q-18 4 -37.5 5.5t-30.5 1.5q-296 47 -455 47q-549 0 -932 -319q-254 -209 -254 -421q0 -84 57 -135q50 -58 136 -58q98 0 216 87q118 83 205 224z" />
<glyph unicode="&#xe000;" horiz-adv-x="1045" d="M0 1045h1045v-1045h-1045v1045z" />
<glyph unicode="&#xfb01;" horiz-adv-x="1476" d="M1602 1543q0 54 39 94q33 43 79 41q30 0 52 -22q18 -19 20 -54q0 -50 -39 -94q-37 -43 -79 -41q-72 0 -72 76zM1291 268l24 -44q-122 -113 -220 -174q-106 -65 -170 -65q-91 0 -91 83q0 65 87 200l307 513q57 98 56 109q0 22 -23 24q-29 0 -98 -43q-83 -46 -148 -101 l-22 44q113 94 226 159q102 57 159 57q33 0 61 -18q22 -22 22 -61q0 -46 -74 -170l-288 -474q-80 -126 -80 -163q0 -26 30 -27q57 0 223 136zM265 -54v21l-12 -24l-162 -287q-137 -231 -311 -440t-329 -322q46 -4 75 -4q160 0 293 80q137 79 235 220q98 140 159 340 q52 200 52 416zM285 431l7 -37l72 159l73 156q22 42 40 83l61 126l8 11h-11q-19 0 -28 3h-22q-109 0 -171 -64q-61 -72 -61 -193q2 -100 32 -244zM213 231l29 65q-3 22 -5 31.5t-2 12.5l-7 50l-23 121q-42 220 -42 288q0 95 57 148q58 50 163 50q79 0 155 -7h15l19 -6l3 13 l119 222q549 1038 1117 1040q202 0 200 -107q0 -23 -22 -45q-22 -18 -58 -20q-29 0 -63 16l-53 30q-61 33 -133 33q-145 0 -333 -170q-130 -109 -257 -325q-110 -182 -261 -504l-43 -98l-50 -96l13 -4q109 -3 91 -3q137 0 148 79l7 47q11 61 67 61q64 0 64 -73 q0 -75 -64 -125q-61 -47 -170 -45q-106 0 -182 8l-61 -134l-65 -136l-246 -531l-18 -37q11 -76 11 -137q0 -254 -65 -470q-64 -213 -192 -374q-126 -155 -300 -239q-170 -87 -383 -88q-116 0 -196 42q-83 33 -83 87q0 26 18 46q19 19 50 19q30 0 80 -35q46 -30 79 -30 q34 0 98 57q61 58 163 182q106 144 220 329q12 15 76 130q43 72 91 162q18 37 48.5 94.5t45.5 94.5q19 43 98 209z" />
<glyph unicode="&#xfb02;" horiz-adv-x="1642" d="M1319 148l22 -31q-174 -141 -424 -139q-105 0 -172 29q-65 30 -63 84q0 29 23 50q14 18 44 18q22 0 65 -18q42 -11 53 -11q54 0 163 112q185 196 341 546l166 368q76 170 159 322t168 261q84 117 163 198q76 76 182 150q246 170 527 172q109 0 181 -39q69 -37 69 -98 q0 -30 -19 -50q-26 -18 -54 -18q-29 0 -79 18l-83 46q-98 43 -178 41q-117 0 -235 -63q-117 -65 -220 -187q-102 -116 -228 -362l-109 -235q-26 -50 -68.5 -141t-49.5 -107q-137 -304 -261 -500q-126 -185 -270 -322q-109 -98 -185 -137q72 -29 144 -29q111 0 228 72z M265 -54v21l-12 -24l-162 -287q-137 -231 -311 -440t-329 -322q46 -4 75 -4q160 0 293 80q137 79 235 220q98 140 159 340q52 200 52 416zM285 431l7 -37l72 159l73 156q22 42 40 83l61 126l8 11h-11q-19 0 -28 3h-22q-109 0 -171 -64q-61 -72 -61 -193q2 -100 32 -244z M213 231l29 65q-3 22 -5 31.5t-2 12.5l-7 50l-23 121q-42 220 -42 288q0 95 57 148q58 50 163 50q79 0 155 -7h15l19 -6l3 13l119 222q549 1038 1117 1040q202 0 200 -107q0 -23 -22 -45q-22 -18 -58 -20q-29 0 -63 16l-53 30q-61 33 -133 33q-145 0 -333 -170 q-130 -109 -257 -325q-110 -182 -261 -504l-43 -98l-50 -96l13 -4q109 -3 91 -3q137 0 148 79l7 47q11 61 67 61q64 0 64 -73q0 -75 -64 -125q-61 -47 -170 -45q-106 0 -182 8l-61 -134l-65 -136l-246 -531l-18 -37q11 -76 11 -137q0 -254 -65 -470q-64 -213 -192 -374 q-126 -155 -300 -239q-170 -87 -383 -88q-116 0 -196 42q-83 33 -83 87q0 26 18 46q19 19 50 19q30 0 80 -35q46 -30 79 -30q34 0 98 57q61 58 163 182q106 144 220 329q12 15 76 130q43 72 91 162q18 37 48.5 94.5t45.5 94.5q19 43 98 209z" />
</font>
</defs>
</svg>
