<?xml version="1.0" standalone="no"?>
<!DOCTYPE svg PUBLIC "-//W3C//DTD SVG 1.1//EN" "http://www.w3.org/Graphics/SVG/1.1/DTD/svg11.dtd" >
<svg xmlns="http://www.w3.org/2000/svg">
<metadata>
This is a custom SVG webfont generated by Font Squirrel.
Copyright   : Copyright c Ivan Zeifert works 2005 All rights reserved
Designer    : Ivan D Zeifert
Foundry     : Ivan Zeifert works
Foundry URL : httpwwwgliphmakercom
</metadata>
<defs>
<font id="CeremoniousThreeRegular" horiz-adv-x="512" >
<font-face units-per-em="2048" ascent="1638" descent="-410" />
<missing-glyph horiz-adv-x="1024" />
<glyph unicode=" "  horiz-adv-x="1024" />
<glyph unicode="&#x09;" horiz-adv-x="1024" />
<glyph unicode="&#xa0;" horiz-adv-x="1024" />
<glyph unicode="!" horiz-adv-x="540" d="M-37 47q0 23 18.5 41t41.5 18t40 -18t17 -41q0 -55 -57 -55q-59 0 -60 55zM123 205q0 12 37 53l588 666l75 84q51 49 84 49q41 0 41 -37t-39 -76q-246 -254 -716 -702q-55 -53 -64 -47q-6 4 -6 10z" />
<glyph unicode="&#x22;" horiz-adv-x="784" d="M354 516q-6 2 0 16l430 443q96 98 138 98q32 1 32 -26q0 -29 -80 -99l-499 -426q-12 -10 -21 -6zM602 516q-8 4 2 16l430 443q96 98 137 98q31 1 31 -24q0 -29 -80 -101l-499 -426q-12 -10 -21 -6z" />
<glyph unicode="#" horiz-adv-x="892" d="M-57 -33l272 301h-188l53 49h180l141 160h-200l57 51h188l228 254l80 17l-242 -271h201l245 271l82 16l-260 -287h156l-53 -51h-150l-139 -160h190l-51 -49h-186l-234 -266l-82 -18l250 284h-202l-252 -284zM324 317h204l142 160h-203z" />
<glyph unicode="$" horiz-adv-x="528" d="M-152 -92q-4 4 7 24l106 125q-39 49 -29 113q18 66 74.5 107.5t112.5 41.5q37 0 51 -16l109 123q-6 55 6 102q23 84 96.5 145.5t157.5 69.5l98 113q16 16 25 10q8 -6 -3 -20l-90 -103q45 -6 78 -20l109 129q16 16 26 12q12 -8 -2 -22l-114 -135q27 -35 10 -86 q-16 -53 -61.5 -90t-90.5 -37q-23 0 -37 4l-110 -131q4 -53 -12 -105q-25 -80 -102 -148.5t-169 -82.5l-94 -109q-14 -16 -25 -10q-8 6 7 20l81 99q-45 0 -81 14q-35 -43 -111 -129q-14 -16 -23 -8zM-41 174q-18 -57 18 -96l154 180q-23 27 -70 18q-25 -4 -55 -30 q-35 -33 -47 -72zM-4 63q29 -12 65 -12q8 0 23 2l205 246q-4 70 -6 98l-99 -112q6 -20 4 -33q-6 -23 -20 -23q-12 4 -18 13zM117 57q51 10 100 58.5t66 115.5q6 17 6 31zM367 504q0 4 6 -107l96 115q-4 4 -8 20q-2 12 2 20.5t18 6.5q6 0 19 -8l131 151q-29 14 -58 15 q-18 0 -24 -2zM369 539l147 174q-102 -25 -141 -133q0 -2 -3 -17.5t-3 -23.5zM526 543q12 -8 52 -2q59 18 75 84q10 37 -4 61z" />
<glyph unicode="%" horiz-adv-x="925" d="M-131 -86q0 12 31 37q12 8 936 684q-72 -33 -144 -33q-74 0 -98 57q-31 -76 -111 -157q-86 -88 -169 -136.5t-121 -37.5q-45 12 -46 63q0 86 107 195q70 70 155 114.5t140 44.5q57 0 53 -49q27 -70 92 -69q70 0 160 45q57 35 117 67q29 17 35 11q14 -14 -7 -27 l-1073 -809q-27 -16 -49 -10q-8 4 -8 10zM186 367q0 -23 25 -23q72 0 258 193q113 115 113 174q-1 16 -19 16q-72 0 -258 -192q-119 -123 -119 -168zM410 49q0 86 106 195q70 70 154 114.5t141 44.5q53 0 53 -43q0 -78 -121 -200q-86 -90 -167.5 -137.5t-120.5 -36.5 q-45 12 -45 63zM449 27q0 -23 22 -23q74 0 260 191q111 113 111 174q-1 18 -19 18q-70 0 -256 -194q-119 -125 -118 -166z" />
<glyph unicode="&#x26;" horiz-adv-x="1341" d="M49 160q4 133 187 274q-31 66 -31 148q0 106 53 211q94 184 313 313q227 133 463 133q221 0 340 -109q111 -98 111 -266q0 -182 -131 -375q-188 -279 -510 -432q45 -86 137 -86q94 0 190 76q14 14 23 10q4 -2 4 -6q0 -8 -24 -31q-113 -102 -232 -108q-139 -6 -205 100 q-186 -72 -389 -71q-125 0 -207 49q-96 57 -92 170zM164 160q0 -84 61.5 -130t163.5 -46q164 0 332 59q-39 86 -39 209q0 68 12 137q27 158 78 262q-115 -47 -336 -153q-74 -41 -133 -92q57 -84 156 -87q39 0 65 7q12 4 15 -2q2 -4 -21 -17q-45 -12 -72 -12q-104 2 -174 82 q-109 -113 -108 -217zM256 573q0 -59 18 -110q57 39 138 78q31 14 372 149q123 219 275 340q102 82 172 82q55 0 55 -55q0 -76 -86 -160q-109 -106 -340 -215q-43 -92 -63 -260q-8 -59 -9 -117q0 -131 37 -217q292 138 482 410q141 201 141 374q0 150 -107 236 q-113 92 -317 92q-231 0 -426 -116.5t-295 -317.5q-47 -94 -47 -193zM877 723q199 98 294 188q88 80 89 138q0 36 -41 36q-59 0 -129 -71q-129 -133 -213 -291z" />
<glyph unicode="'" horiz-adv-x="534" d="M354 516q-6 2 0 16l430 443q96 98 138 98q32 1 32 -26q0 -29 -80 -99l-499 -426q-12 -10 -21 -6z" />
<glyph unicode="(" horiz-adv-x="663" d="M137 27q0 281 256 596q211 258 574 491q279 178 415 225q25 8 27 -4q0 -4 -14 -18q-80 -37 -336 -199q-293 -205 -522 -481q-274 -330 -326 -619q-10 -53 -10 -102q0 -8 28 -119q27 -102 21 -106q-14 -6 -29 14q-84 109 -84 322z" />
<glyph unicode=")" horiz-adv-x="663" d="M-362 -303q-4 8 18 18q162 76 338 199q285 201 518 479q276 334 326 619q8 43 8 88q0 115 -43 207q-14 29 -4 34q12 6 26 -14q35 -49 60 -139q27 -98 26 -195q0 -251 -221 -544q-209 -276 -610 -533q-276 -176 -412 -223q-23 -8 -30 4z" />
<glyph unicode="*" horiz-adv-x="710" d="M463 766q0 31 76 45q51 10 163 29l-137 92q-53 37 -53 59q0 14 13.5 27.5t25.5 13.5q23 0 60.5 -46t109.5 -126l12 164q4 88 53 78q31 -6 31 -35q0 -16 -14 -57l-55 -154l147 70q43 23 61 22q25 1 35 -28q4 -10 4 -19q0 -31 -77 -45l-162 -29l137 -92q53 -39 53 -61 q0 -14 -13 -26.5t-28 -12.5q-25 0 -63 47l-105 123l-14 -162q-8 -88 -51 -80q-31 6 -31 35q0 20 14 59l56 156q-45 -20 -148 -72q-41 -20 -61 -20q-39 0 -39 45z" />
<glyph unicode="+" horiz-adv-x="716" d="M111 379l39 47h249l224 272h59l-219 -272h266l-35 -47h-268l-223 -275h-64l226 275h-254z" />
<glyph unicode="," horiz-adv-x="225" d="M-256 -150q0 10 10 15q121 47 150 123q-16 6 -23 26q-6 20 0 39q20 55 72 43q35 -8 35 -51q0 -49 -86 -121q-59 -49 -140 -78q-14 -4 -18 4z" />
<glyph unicode="-" horiz-adv-x="448" d="M66 217q-8 12 14 35q29 37 117 65q100 33 153 31q8 0 8 -8q0 -10 -10 -12q-78 -20 -149 -56q-45 -23 -99 -61q-25 -18 -34 6zM113 322q-8 8 2 14q29 37 107.5 76t125.5 39q14 0 25 -5q18 -4 12 -22q0 -16 -20 -21q-35 -6 -121 -26q-74 -23 -117 -55q-10 -8 -14 0z" />
<glyph unicode="." horiz-adv-x="225" d="M-125 41q0 57 55 57q54 0 54 -57q0 -53 -54 -53q-55 0 -55 53z" />
<glyph unicode="/" horiz-adv-x="606" d="M-197 -211q-12 12 7 33l1216 1321q27 28 43 18q10 -6 -8 -37l-1219 -1321q-23 -25 -39 -14z" />
<glyph unicode="0" horiz-adv-x="598" d="M-78 68q4 74 66 178q66 113 174 215q141 133 309 223q154 80 240 80q63 0 63 -57q0 -70 -92 -196t-236 -259q-119 -111 -245 -189q-135 -84 -203 -83q-37 0 -57.5 25.5t-18.5 62.5zM-29 68q-14 -47 15 -56q88 -25 422.5 283.5t334.5 415.5q1 28 -32 28q-55 0 -189 -110 q-55 -45 -272 -244q-250 -227 -279 -317z" />
<glyph unicode="1" horiz-adv-x="450" d="M-51 -12q-4 31 6 59q35 92 205 258q135 133 329 295q-80 -12 -323 -164q-16 -10 -23 2q-4 10 17 25q166 117 502 272q20 12 71 25q17 0 31 -2q-256 -225 -420 -393q-170 -174 -317 -345q-55 -61 -60 -61q-12 -2 -18 29z" />
<glyph unicode="2" horiz-adv-x="524" d="M-315 -23q0 10 22 33q123 121 371 252q152 80 207 115q100 61 198 147q127 111 127 168q0 41 -55 41q-90 0 -211 -108q-49 -45 -82 -101q-59 -104 -88 -98q-14 4 -14 20q0 20 20 52q45 68 142 151q135 117 256 117q96 0 96 -92q0 -106 -99 -197q-86 -80 -223 -137 l-252 -104q-70 -33 -225 -123q76 31 135 26q37 -2 110 -25.5t95 -25.5q51 -4 197 125q18 16 24 10q12 -8 -4 -24q-211 -217 -282 -213q-35 2 -114 30.5t-153 32.5q-82 4 -170 -72q-16 -10 -24 -6q-4 2 -4 6z" />
<glyph unicode="3" horiz-adv-x="522" d="M-909 -352q0 27 23.5 75t39.5 31q6 -4 -4 -22q-27 -41 -27 -80q0 -37 43 -64q37 -23 91 -24q281 -14 665 303q236 195 254 354v45q-39 -14 -94 -20q-41 -4 -41 14q0 2 3 17.5t52 15.5q41 6 88 -2q133 39 332 227q92 88 100 162q6 53 -63 53q-47 0 -125 -51 q-39 -25 -90 -88q-78 -94 -105 -94q-4 0 -8 2q-23 14 15.5 64t111.5 106q127 94 217 92q105 -3 107 -107q2 -115 -94 -200q-168 -152 -381 -185q31 -25 30 -88q2 -190 -204 -364q-152 -127 -338 -205q-201 -84 -381 -84q-217 0 -217 117z" />
<glyph unicode="4" horiz-adv-x="618" d="M-150 137q-4 8 3 17l583 417q283 197 420 193q58 -3 76 -62l-4 -10q-31 31 -68 31q-121 0 -401 -186q-205 -137 -516 -363q68 16 260 16q174 164 321 275q190 143 291 184q14 6 19 -4q2 -8 -7 -14q-143 -98 -493 -438q129 8 190 59q23 -4 15 -16q-82 -82 -256 -93 q-223 -223 -330 -387q-16 -29 -33.5 -53.5t-34.5 -19.5q-18 4 -18 41q0 45 24 88q92 164 269 335q-211 12 -299 -14q-6 -2 -11 4z" />
<glyph unicode="5" horiz-adv-x="413" d="M-856 -352q-8 68 41 104q16 12 24 4q4 -4 -12 -26q-25 -37 -18 -78q12 -82 137 -88q158 -8 367 108q182 100 317 244q174 184 174 315q0 92 -80 125q-35 -25 -59 -24q-14 0 -19 12q-2 14 22.5 26.5t49.5 14.5q39 25 180.5 163t225.5 195h122q91 1 132 9q29 6 28 -7 q0 -14 -43 -51q-49 -43 -84 -41q-61 4 -100 4q-74 0 -109 -8q-82 -53 -278 -243q-2 -2 -15.5 -13.5t-19.5 -15.5q23 -8 39 -20.5t51 -53.5q27 -47 27 -119q0 -176 -156 -331.5t-376 -244.5t-402 -75q-154 12 -166 115z" />
<glyph unicode="6" horiz-adv-x="667" d="M-47 80q0 131 203 360q158 182 313 299q215 162 424 267q258 131 432 131q188 0 248 -99q26 -45 14 -94q-8 -20 -24 -18q-12 2 -13 22q0 51 -30 90q-55 70 -197 70q-168 0 -416 -152q-197 -121 -497 -376q-88 -76 -246 -242q133 117 260 189.5t188 72.5q45 0 64 -39 q12 -29 4 -67q-29 -135 -197 -291q-94 -86 -211 -150q-131 -68 -217 -67q-102 0 -102 94zM0 72q-6 -43 29 -54q76 -23 383 267q217 205 217 258q0 24 -27 24q-53 0 -190.5 -85t-231.5 -175q-84 -80 -106 -106q-63 -74 -74 -129z" />
<glyph unicode="7" horiz-adv-x="532" d="M-258 -279q0 39 16 95q57 195 223 374t404 308q188 102 373 164q-55 -16 -123 -15q-53 2 -172 25q-23 4 -37 4q-76 0 -238 -150q-10 -8 -18 -4q-4 4 0 15q119 137 190 186q57 41 115 41q70 0 293 -66q45 -12 70 -6q14 10 38.5 21.5t30.5 1.5q8 -14 -22 -29 q-14 -6 -49 -18q-150 -55 -385 -215q-297 -201 -502 -443q-115 -137 -156 -252q-2 -6 -14 -61q-4 -18 -21 -14q-16 4 -16 38z" />
<glyph unicode="8" horiz-adv-x="475" d="M-139 86q16 180 469 412q72 233 209 346q92 76 215 74q82 -2 116 -44q18 -20 2 -32q-18 -14 -30 4q-47 47 -90 47q-98 0 -178 -92t-123 -252q59 23 198 104q170 96 279 181q268 209 268 405q0 66 -27 109q-33 47 -88 47q-41 0 -73 -25q-20 -10 -26.5 -7t7.5 21 q35 45 103 46q70 0 106 -58q35 -49 35 -129q0 -233 -264 -440q-115 -90 -529 -297q-76 -293 -227 -420q-123 -102 -258 -102q-102 0 -94 102zM-100 90q-8 -70 59 -70q102 0 213 146q98 131 145 287q-139 -66 -264 -164q-143 -117 -153 -199z" />
<glyph unicode="9" horiz-adv-x="667" d="M-856 -352q-8 68 41 104q16 12 24 4q4 -4 -12 -26q-25 -37 -18 -78q12 -88 143 -88q156 0 406 141q190 109 372.5 260.5t448.5 442.5q-131 -115 -259 -188t-192 -73q-43 0 -61 37q-12 25 -4 68q29 135 196 291q86 78 226.5 146.5t220.5 68.5q88 0 88 -96q0 -21 -6 -41 q-59 -242 -469 -615q-520 -473 -959 -473q-172 0 -186 115zM82 203q0 -25 27 -25q55 0 192 85t231 175q175 166 185 238q10 45 -29 53q-82 18 -387 -268q-219 -207 -219 -258z" />
<glyph unicode=":" horiz-adv-x="276" d="M-117 41q0 57 56 57q23 0 39 -17t16 -40q0 -53 -55 -53t-56 53zM127 395q0 55 53 56q56 -1 56 -56q0 -53 -56 -53q-53 0 -53 53z" />
<glyph unicode=";" horiz-adv-x="276" d="M-256 -150q0 10 10 15q121 47 150 123q-16 6 -23 26q-6 20 0 39q20 55 72 43q35 -8 35 -51q0 -49 -86 -121q-59 -49 -140 -78q-14 -4 -18 4zM127 395q0 55 53 56q56 -1 56 -56q0 -53 -56 -53q-53 0 -53 53z" />
<glyph unicode="&#x3c;" horiz-adv-x="835" d="M106 342l21 31l766 241l8 -49l-702 -219l352 -201l-33 -45z" />
<glyph unicode="=" horiz-adv-x="786" d="M47 266l41 49h580l-37 -49h-584zM182 434l41 49h580l-37 -49h-584z" />
<glyph unicode="&#x3e;" horiz-adv-x="835" d="M-59 145l702 220l-352 200l33 45l411 -241l-20 -31l-766 -242z" />
<glyph unicode="?" horiz-adv-x="698" d="M66 47q2 23 21 41t42 18q55 0 51 -59q-4 -55 -61 -55q-59 0 -53 55zM201 211q55 125 258 289q27 23 192 133q123 82 174 143q94 109 95 182q0 49 -52 58q-80 14 -174 -68q-37 -33 -76 -102q-51 -74 -81 -68q-29 10 10 68q45 68 127 129q111 84 209 72q115 -14 114 -132 q1 -90 -69 -172q-76 -92 -226 -168q-190 -96 -276 -163q-129 -102 -201 -209q-10 -14 -20 -10q-10 2 -4 18z" />
<glyph unicode="@" horiz-adv-x="1515" d="M113 63q-4 137 99 311.5t273 313.5q369 301 760 301q164 0 254 -69.5t90 -190.5q0 -113 -78 -246q-106 -184 -376 -346q-125 -76 -246 -76q-113 0 -113 76q0 41 39 103q-203 -174 -293 -174q-70 0 -69 67q0 123 157 285q104 106 247.5 186t229.5 80q68 0 68 -47 q0 -43 -63 -102q129 106 172 120q35 12 79 9q-268 -238 -415 -416q-82 -98 -82 -131t49 -33q100 0 233 82q219 133 342 346q76 131 76 233q0 217 -311 218q-176 0 -366.5 -84t-356.5 -232q-137 -121 -223 -268q-98 -164 -92 -299q4 -131 94 -200.5t239 -69.5q246 0 521 143 q16 8 20 0q6 -12 -14 -25q-274 -160 -545 -159q-391 0 -399 294zM518 117q0 -14 10 -21q31 -14 148 70t244 215l131 133q76 86 75 119q1 22 -24 22q-96 0 -397 -286q-186 -178 -187 -252z" />
<glyph unicode="A" horiz-adv-x="1820" d="M-14 84q0 166 139 340q117 147 283 248q229 141 553 176q-55 39 -55 110q0 10 1 21q20 188 264 301q217 100 502 100q264 0 510 -45q127 -23 381 -90q49 -12 199 -61q24 -9 24 -17q-6 -12 -22 -6q-40 13 -78 13h-14q-137 -14 -418 -256q-221 -186 -408 -400 q-180 -205 -305 -412l-64 -106q-30 -48 -51 -48q-2 0 -4 1q-23 6 -22 37q0 35 29 94q43 90 163 258q39 80 39 150q0 66 -35 120l-96 -92q-692 -690 -1202 -690q-313 0 -313 254zM20 80q0 -225 269 -225q215 0 487 174q238 152 613 499q83 79 163 142q-154 148 -450 148 q-24 0 -49 -1q-125 -4 -299 -63.5t-301 -139.5q-432 -272 -433 -534zM934 969q-1 -9 -1 -17q0 -67 60 -100q37 4 58 4h23q336 0 499 -168q367 299 715 428q213 78 358 86q-25 6 -78 17q-250 47 -362 61q-231 29 -535 29q-274 0 -489 -90q-231 -98 -248 -250zM1618 631 q43 -68 43 -142q0 -37 -10 -73q76 98 170 194q471 482 776 566q-106 -8 -273 -76q-342 -137 -706 -469z" />
<glyph unicode="B" horiz-adv-x="1726" d="M88 47q13 1 28 1q44 0 99 -9q-9 57 -9 116q0 20 1 40q8 207 96 413q94 221 254 379q174 173 420 269q232 91 464 90h29q240 -6 369 -121q109 78 205 102q31 8 55 8q29 0 27 -10q0 -6 -19 -6q-29 -4 -49 -10q-111 -37 -196 -109q80 -98 80 -213q0 -88 -54 -162 q-61 -86 -194 -147q-115 -53 -226 -68q152 -90 152 -256q0 -84 -47 -161q-82 -135 -283 -216q-182 -74 -393 -75h-31q-234 0 -491 57q-39 10 -113 25q49 -170 184 -258q118 -77 284 -76h32q135 6 233 76q31 23 35 18q14 -12 -17.5 -40t-107.5 -54q-82 -27 -149 -29h-24 q-186 0 -318 89q-140 95 -185 267q-100 -23 -182 -24q-37 0 -61 8q-22 7 -21 22q0 54 123 64zM242 195q-1 -20 -1 -39q0 -67 11 -123q28 -7 59 -7t66 7q193 39 381 182q154 119 409 395q421 455 648 598q-129 104 -345 107h-15q-460 0 -834 -367q-178 -174 -279 -379 q-94 -195 -100 -374zM326 0l57 -12q255 -54 515 -54h9q170 2 325.5 81t237.5 206q59 90 60 189q0 150 -119 198q-23 -4 -48.5 7.5t-25.5 25.5q-16 -23 -30 -39q-492 -553 -981 -602zM1356 662q4 1 9 1q28 0 75 -32q225 20 366 221q72 100 72 199q0 76 -39 131 q-127 -100 -268 -262q-25 -27 -215 -258z" />
<glyph unicode="C" horiz-adv-x="1427" d="M57 408q0 188 115 372q109 176 279 291q317 213 763 213q199 0 435 -57q184 57 364 57q115 0 191.5 -42t76.5 -112q0 -55 -73 -55q-43 0 -295 58q-147 33 -252 49q-317 -125 -610 -377q-217 -186 -361 -391q-151 -214 -151 -346q0 -74 50 -118q48 -42 140 -42h8 q197 6 422 149q96 61 266 197q29 23 35 16q12 -12 -18 -39q-168 -137 -268 -200q-238 -150 -441 -156h-17q-93 0 -163 40q-76 44 -96 130q-20 -8 -56 -10h-19q-151 0 -235 93q-90 99 -90 280zM92 412v-8q0 -162 81 -252q83 -92 230 -91q14 0 52 9q-1 13 -1 26q0 160 134 363 q123 186 309 346q309 262 657 391q-154 18 -340 18q-430 0 -727 -188q-178 -113 -285.5 -278.5t-109.5 -335.5zM1733 1206l188 -51q211 -57 283 -57q55 0 55 35q0 59 -70.5 91.5t-175.5 32.5q-133 0 -280 -51z" />
<glyph unicode="D" horiz-adv-x="1955" d="M-47 10q0 51 113 64q21 2 42 2q42 0 82 -8q-32 101 -32 227v8q0 449 383 762q346 283 776 283q299 0 479 -131q121 94 229 114q35 6 58 6q26 0 24 -10q0 -6 -18 -8q-35 -4 -49 -8q-106 -25 -211 -121q190 -168 190 -434q0 -43 -8 -82q-61 -313 -333 -525 q-260 -202 -691 -202h-41q-160 4 -385 35q-160 20 -319 43q123 -309 530 -310q129 0 223 64q33 23 35 20q14 -10 -14 -35q-87 -75 -250 -75h-4q-416 0 -553 325q-94 -29 -174 -37q-33 -2 -58.5 7.5t-23.5 25.5zM197 287q0 -127 32 -224q250 8 455 134q195 117 469 413 q402 432 619 588q-150 115 -414 115q-410 0 -768 -297q-393 -326 -393 -729zM344 45q309 -63 604 -63q410 0 682 251q246 230 293 480q10 57 10 114q0 209 -129 344q-135 -115 -288 -299l-224 -270q-272 -307 -530 -440q-197 -102 -418 -117z" />
<glyph unicode="E" horiz-adv-x="1388" d="M70 418v8q0 304 299 569q330 291 839 291q184 0 410 -49q176 53 362 53q47 0 93 -4q90 -8 143 -45q47 -35 47 -80q0 -14 -4 -28q-12 -35 -80 -35q-49 0 -264 41q-82 16 -256 47q-233 -86 -395 -293q-76 -96 -76 -166q0 -16 6 -29q5 1 11 0q35 0 102 -20q58 -23 58 -41 q0 -2 -1 -4q-8 -15 -34 -15q-15 0 -36 5q-76 23 -112 55h-4q-90 0 -260 -86q-166 -84 -286 -207t-161 -246q-16 -47 -16 -88q0 -147 178 -153h13q127 0 300 75q168 72 324 189q51 39 141 114q63 53 68 54q10 0 10 -11q0 -10 -55 -59q-80 -72 -136 -115q-154 -119 -333 -198 q-193 -86 -334 -86q-127 0 -205 59q-79 58 -79 155q0 9 1 19q-135 10 -209 103q-68 86 -69 221zM104 416q2 -125 67 -206t181 -89q16 129 142 266q106 117 241 193q195 111 432 118q-16 25 -16 72q0 70 39 140.5t121 146.5q98 94 217 147q-170 18 -314 19q-498 0 -817 -258 q-137 -111 -216 -261q-77 -147 -77 -281v-7zM1737 1212l186 -47q180 -47 254 -47q49 0 61 25q4 8 5 18q0 35 -43 64.5t-121 36.5q-24 2 -48 2q-129 0 -294 -52z" />
<glyph unicode="F" horiz-adv-x="1654" d="M109 119q8 158 137 340q-86 55 -86 216v21q4 111 71 232q80 137 215 221q162 98 324 143q209 55 516 56q319 0 963 -123q94 74 188 104q10 4 21.5 6t17.5 0q10 -2 8 -8q0 -2 -35 -18q-74 -23 -151 -95q125 -31 412 -88q56 -9 91 -9q12 0 21 1l35 4q1 -3 1 -6 q0 -13 -32 -16q-26 -7 -60 -7q-29 0 -65 5q-180 23 -450 73q-215 -190 -508 -509q-80 -86 -109 -113q162 0 248 -10q47 -6 23 -31h-60q-87 10 -198 10h-37q-336 -350 -602 -508q-291 -170 -594 -170q-135 0 -217 62q-88 70 -88 200v17zM139 119q-1 -11 0 -22 q0 -222 277 -222q233 0 530 197q222 145 531 442q-72 -4 -205 -16q-106 -16 -172 -62q-29 -27 -92 -80q-40 -34 -61 -34h-1q-14 0 -14 10q0 29 58.5 75t119.5 70q213 221 213 359q0 41 -25 61q-33 29 -106 29q-229 -2 -610 -258q-180 -121 -301 -267q-135 -160 -142 -282z M190 694v-8q0 -147 70 -209q113 152 275 262q154 104 333 162q160 51 293 51q186 0 187 -118q0 -143 -189 -338q49 18 158 32q35 4 190 15l140 139q276 275 546 502q-571 92 -909 92q-514 0 -803 -168q-150 -86 -225 -207q-66 -102 -66 -207z" />
<glyph unicode="G" horiz-adv-x="1724" d="M43 -272q0 111 111 196q37 29 45 17q4 -4 -21 -27q-102 -92 -102 -184q0 -150 257 -150h27q147 4 361 107q193 94 354 223q246 199 488 450l-7 7q-227 -178 -434 -299q-253 -147 -468 -147q-17 0 -33 1q-98 6 -168 49q-82 55 -93 152q-2 17 -2 34.5t2 35.5 q-98 27 -167 108q-84 98 -84 244q0 51 10 106q59 291 342 455q264 151 644 151h5q209 0 463 -43q217 63 379 64q141 0 222 -41q77 -39 77 -96v-6q-4 -61 -88 -62q-51 0 -324 53q-150 29 -254 43q-340 -129 -661 -381q-205 -160 -340 -344q-141 -190 -141 -318q0 -9 1 -17 q10 -141 181 -154q19 -1 39 -1q199 0 448 144q264 154 588 420q51 63 78 103q51 77 66 77h1q12 -2 13 -32q0 -61 -35 -97q-43 -43 -109 -92q-297 -395 -561 -610q-406 -328 -799 -328q-311 0 -311 189zM139 547q0 -131 80 -225q59 -70 146 -101q43 289 430 598 q288 232 671 363q-154 12 -352 12q-371 0 -627 -131q-279 -145 -335 -410q-12 -55 -13 -106zM1665 1196l195 -43q266 -57 303 -57q65 0 65 39q0 51 -67 82q-72 34 -196 34h-7q-123 0 -293 -55z" />
<glyph unicode="H" horiz-adv-x="1972" d="M53 86q0 31 4 66q20 145 134 292.5t292 255.5q47 29 129 68q-74 61 -73 158q0 225 295 348q223 92 483 92q414 0 942 -139q100 -27 156 -51q47 -20 39 -33q-4 -2 -17 4q-18 6 -24 6q-8 2 -31 0q-197 -16 -619 -473q55 -84 56 -174q0 -49 -17 -100q129 147 236 245 q604 565 1026 566q168 0 221 -78q9 -14 9 -23t-9 -14l-29 20q-72 72 -186 72q-397 0 -1010 -641q-217 -227 -395 -473l-61 -86q-25 -31 -45 -33q-29 -2 -29 31q0 88 217 346q43 88 43 166q0 82 -47 153q-29 -31 -78 -88q-362 -422 -747 -608q-276 -135 -529 -135 q-336 0 -336 260zM86 84q0 -227 291 -227q207 0 508 180q309 186 637 514l53 53l117 113q-147 141 -445 149h-17q-150 0 -349 -67q-193 -68 -355 -168q-395 -248 -434 -486q-6 -33 -6 -61zM569 924q0 -86 72 -144q279 118 550 118q29 0 58 -1q319 -16 467 -158 q436 402 635 435q-23 8 -88 22q-475 100 -946 100q-231 0 -451 -77q-297 -104 -297 -295z" />
<glyph unicode="I" horiz-adv-x="1447" d="M12 109q0 172 119 342q102 150 264 258q111 74 248 131q-33 31 -33 98q0 203 267 330q215 100 440 100q342 0 754 -127q137 -43 192 -78q13 -8 13 -16q0 -2 -1 -4q-2 -4 -21.5 3t-35.5 7q-104 0 -336 -211q-156 -143 -319 -332q-375 -432 -672 -616q-276 -174 -557 -174 q-322 0 -322 289zM45 106q0 -251 277 -251h2q375 0 1112 737q544 545 751 582q-421 126 -861 126h-7q-264 0 -451 -88q-199 -92 -229 -251q-4 -20 -4 -38q0 -49 29 -77q173 67 351 67h5q106 0 178 -34q82 -41 82 -119q0 -20 -6 -45t-22.5 -43.5t-22.5 -12.5q4 -4 18 58 q6 20 6 39q0 133 -233 133q-109 0 -265.5 -62.5t-295.5 -158.5q-414 -283 -414 -562z" />
<glyph unicode="J" horiz-adv-x="1374" d="M-350 -203q0 164 214 354.5t517 290.5q102 35 248 58q-168 53 -168 254q0 51 14 102q57 195 254 324q193 123 459 147q100 8 213 8q334 0 661 -69q123 -27 193 -60q21 -6 21 -17q0 -2 -1 -5q-2 -4 -23.5 3t-43.5 11q-11 2 -23 2q-124 0 -356 -217q-117 -106 -338 -356 q-543 -612 -891 -824q-186 -113 -391 -168q-147 -37 -265 -37q-24 0 -46 1q-248 16 -248 198zM-319 -203q0 -160 215 -166h15q268 0 669 275q248 170 815 735l250 242q176 162 303 247q102 71 192 91q-219 55 -594 55q-174 0 -356 -16q-268 -25 -457 -140 q-178 -111 -225 -260q-16 -53 -16 -108q0 -96 53 -165t149 -79q157 22 293 22h12q102 0 168 -12q51 -10 50 -22q0 -4 -43 0q-59 6 -127 6q-297 0 -650 -113q-287 -92 -501.5 -268t-214.5 -324z" />
<glyph unicode="K" horiz-adv-x="1957" d="M6 111q0 168 123 342q106 147 266 256q115 78 252 133q-39 12 -39 94q0 205 250 330q203 102 426 102q373 0 787 -127q53 -16 155 -57q41 -23 35 -37q2 4 -31 10h-20q-109 -14 -334 -223q-156 -143 -313 -324q-373 -430 -672 -614q-276 -170 -559 -170q-326 0 -326 285z M37 106q0 -249 285 -249h2q377 0 1112 735q530 531 745 584q-47 16 -108 30q-385 94 -744 94h-43q-250 -4 -426 -92q-186 -94 -219 -250q-6 -27 -6 -47q0 -45 27 -65q177 69 353 69h5q109 0 178 -34q84 -41 84 -119q0 -20 -6 -44t-23.5 -43.5t-23.5 -15.5q-2 2 -2 5 q0 4 8 20t13 34.5t5 37.5q0 131 -233 131q-109 0 -265.5 -61.5t-295.5 -157.5q-422 -289 -422 -562zM1569 125q0 88 30.5 238.5t112.5 328.5q106 86 295 195q317 182 455 246q256 118 379 118h2q116 0 153 -94q1 -8 1 -14q0 -12 -5 -15q-2 0 -14 17q-39 49 -131 49 q-137 0 -336 -88q-186 -82 -483 -250q-164 -92 -216 -135q-78 -193 -110 -365q-24 -127 -24 -206q0 -51 10 -82q12 -41 57 -41q39 0 90 39q10 6 14 2q6 -6 -4 -17q-74 -84 -157 -84q-78 0 -105 60q-14 35 -14 98z" />
<glyph unicode="L" horiz-adv-x="964" d="M-350 -6q0 47 117 53q12 1 24 1q130 0 328 -58q162 57 358 246q86 82 402 423q346 377 555 529q233 170 438 170q90 0 161 -32t87 -91q4 -14 4 -25q0 -23 -19 -26q-4 0 -22 33q-60 116 -220 116h-3q-178 0 -392 -192q-104 -94 -491 -525q-463 -516 -817 -639 q561 -180 846 -180q203 0 280 105q14 8 17 6q12 -8 0 -21q-99 -161 -315 -161h-3q-295 0 -811 211q-23 8 -63 26q-100 -31 -191 -31q-117 0 -179.5 10.5t-84.5 34.5q-6 8 -6 17z" />
<glyph unicode="M" horiz-adv-x="2265" d="M10 94q0 133 94 281q86 129 207 215q186 131 394 160q-37 25 -37 104q0 109 92 213q111 125 318.5 200.5t453.5 80.5h44q399 0 781 -103q113 -31 158 -57q33 -18 22 -29q-2 -4 -34.5 13.5t-69.5 29.5q-61 -4 -129 -61q-80 -66 -197 -213l-211 -275q-209 -268 -321 -389 q379 324 526 438q403 317 819 521q80 39 197 73q141 42 241 42q16 0 31 -1q59 -4 60 -28q0 -4 -2 -4q-6 -4 -19 0q-18 6 -30 8q-16 2 -33 2q-49 0 -103 -17q-285 -88 -876 -710q-293 -307 -430 -510q-71 -105 -104 -105h-1q-27 0 -26 45q0 29 14 60q43 92 198.5 276.5 t315.5 335.5q467 442 805 586q-117 -29 -221 -82q-408 -205 -811 -520q-279 -217 -651 -537q-33 -55 -64 -92q-70 -84 -104 -84q-6 0 -11 2q-10 4 -10 17q0 31 39 69q25 25 123 109l330 508q281 399 573 526q-39 -10 -119 -35q-115 -43 -282 -156q-133 -90 -404 -350 l-487 -479q-362 -317 -727 -317q-29 0 -58 2q-264 18 -264 237zM43 100q0 -88 58.5 -145t162.5 -66q17 -1 34 -1q143 0 331 87q193 92 391 254q92 76 440 402l228 211q113 98 229 178q166 115 334 164q88 26 141 30q-339 81 -751 81q-54 0 -109 -1q-231 -6 -428 -82 q-205 -78 -320 -215q-75 -89 -75 -174q0 -59 30 -69q55 5 104 5q25 0 48 -1q94 -6 157.5 -62.5t63.5 -134.5q0 -29 -10 -57q-12 -35 -31 -35q-2 0 -4 2l6 33q6 25 6 49q0 72 -54 121t-140 57q-25 2 -50 2q-231 0 -495 -190q-113 -80 -195 -193q-102 -135 -102 -250z" />
<glyph unicode="N" horiz-adv-x="2023" d="M10 115q0 127 90 268q80 125 195 207q172 123 356 155q-33 31 -33 101q0 109 93 213q111 125 318.5 201.5t451.5 80.5h27q299 0 575 -86q109 -35 231 -110q18 -10 10 -21q-8 -4 -14 0q-39 23 -63 23q-111 -14 -213 -189q-92 -154 -154 -360q-82 -272 -182 -440 q193 258 532 594q499 493 840 493h4q88 0 139 -53q43 -43 43 -92q0 -18 -4 -21q-10 -2 -10 15q-37 88 -178 88q-348 0 -813 -459q-340 -336 -621 -696q-10 -23 -35 -68q-36 -62 -58 -62q-3 0 -7 1q-13 4 -13 17q0 19 27 58q20 39 80 103q27 49 64 205q51 227 69 290 q70 242 199 400q98 119 186 162q-18 -4 -47 -13q-76 -29 -174 -106q-184 -143 -424 -400q-176 -188 -194 -206q-125 -131 -220 -215q-182 -164 -397 -252q-203 -82 -389 -82q-143 0 -219 73q-68 68 -68 183zM43 115q0 -100 59 -160q68 -66 191 -66q307 0 747 373 q211 178 375 342q264 264 455 412q117 90 217 125q68 23 132 23q10 0 19 -1q-291 132 -689 132q-33 0 -68 -1q-227 -6 -428 -87t-320 -218q-74 -86 -74 -170q0 -47 23 -67q56 8 115 8q29 0 59 -2q92 -6 155.5 -60.5t63.5 -132.5q0 -31 -11 -63.5t-28 -32.5q-2 0 -4 2l8 33 q6 25 7 49q0 72 -54.5 122t-142.5 56q-15 1 -30 1q-113 0 -247 -52q-131 -51 -243.5 -134t-190.5 -190q-96 -129 -96 -241z" />
<glyph unicode="O" horiz-adv-x="1603" d="M94 152v14q0 167 135 383q150 236 394 420q451 342 921 342q174 0 283 -66q135 -80 145 -244q1 -11 1 -22q0 -117 -78 -221q-85 -114 -216 -135q-115 -188 -262 -324q-205 -188 -459 -313q-260 -127 -469 -136q-14 -1 -27 -1q-138 0 -231 57q-131 76 -137 246zM463 -119 q26 0 55 2q-160 31 -160 205q0 94 48 195q141 307 440 532q174 131 377 209q193 72 344 72q33 0 61 -4q70 -8 117 -55.5t47 -118.5q0 -100 -100 -275q106 35 174 148q56 95 56 189q0 12 -1 24q-23 274 -352 274q-397 0 -873 -375q-254 -201 -401 -391q-156 -204 -156 -354 q0 -277 324 -277zM387 80q0 -184 213 -184q375 74 778 454q135 127 238 262q147 195 147 312q0 145 -180 145q-285 0 -688 -309q-344 -262 -459 -494q-49 -98 -49 -186z" />
<glyph unicode="P" horiz-adv-x="1421" d="M-197 -19q0 38 72 56q49 12 105 12q104 0 208 -6q-16 67 -16 138v16q8 203 96 403q92 211 252 369q186 184 430 286q243 104 501 104q27 0 54 -1q242 -10 353 -131q96 66 192 90q18 4 39 6q18 2 31 0q14 -2 12 -8q0 -6 -18 -6q-29 -4 -50 -11q-102 -35 -182 -98 q74 -78 74 -209q0 -109 -60 -196q-68 -98 -183.5 -157.5t-231.5 -59.5q-45 0 -90 10q-37 8 -37 24q0 6 4 11q12 14 41 0q14 -8 45 -19q18 -2 36 -2q194 0 351 229q76 109 76 211q0 86 -47 140q-147 -113 -312 -301l-231 -279q-281 -317 -551 -450q-199 -98 -477 -125 q369 -73 531 -74q20 0 36 2q205 12 318 156q8 16 14 10q10 -6 -2 -41q-53 -152 -199.5 -260.5t-312.5 -114.5h-24q-159 0 -278 75q-128 81 -175 230q-16 -2 -132 -28.5t-190 -26.5q-38 0 -55 6t-17 20zM205 197v-16q0 -73 16 -138q467 31 965 567q213 231 313 328 q180 176 334 274q-111 102 -328 113q-24 1 -48 1q-226 0 -451 -103q-236 -106 -426 -305q-362 -375 -375 -721zM231 14q45 -139 175 -215q110 -64 246 -63h28q135 6 269 96t204 221q-133 -141 -309 -147q-19 -1 -38 -1q-113 0 -222 21q-113 20 -330 88q-10 4 -23 0z" />
<glyph unicode="Q" horiz-adv-x="1501" d="M98 176q-1 13 -1 26q0 172 122 380q129 217 336 383q227 182 498 276q225 77 414 77q18 0 36 -1q182 -8 285 -99q95 -85 95 -215q0 -10 -1 -20q-6 -129 -92 -232.5t-219 -132.5q-90 -156 -213 -270q-186 -176 -430 -293q-250 -121 -451 -127h-30q-44 0 -82 4 q27 -157 240 -157h3q193 0 340 139q8 8 17 6q10 -4 0 -18q-86 -100 -203 -160q-106 -55 -199 -55q-261 0 -261 231q0 13 1 27q-195 51 -205 231zM133 184q4 -162 172 -209q14 109 82 242q156 309 457 569q158 137 323 220q176 86 312 86q88 0 144 -43t56 -129 q0 -100 -94 -275q104 37 172 130t74 218v17q0 121 -82 192q-88 76 -240 84q-16 1 -33 1q-366 0 -845 -382q-201 -160 -340 -348q-158 -214 -158 -366v-7zM360 -37q37 -5 74 -5q13 0 25 1q199 8 430 129q223 117 422 307q119 113 211 244q123 174 123 287q0 125 -123 139 q-22 2 -44 2q-257 0 -612 -303q-119 -100 -241 -256q-131 -164 -199 -301q-66 -134 -66 -228v-16z" />
<glyph unicode="R" horiz-adv-x="1683" d="M-119 -23v6q0 66 176 66q57 0 185 -4q-27 80 -27 182q0 203 98.5 413t270.5 368q371 340 841 340q49 0 101 -5q217 -18 325 -120q98 66 199 94q29 8 55 8q29 -2 27 -12q0 -6 -18 -6q-29 -4 -50 -11q-104 -35 -184 -102q66 -78 66 -197q0 -92 -52 -166q-60 -86 -172 -139 q-107 -51 -219 -51h-8q-47 -150 -80 -307q-24 -114 -24 -191v-6q0 -68 18 -92.5t47 -24.5q39 0 86 48q10 14 17 6q6 -6 -7 -19q-76 -86 -159 -86q-117 0 -117 146q0 82 47 229q39 119 121 299q-39 6 -39 27q0 31 47 18q20 -6 39 -24q11 -1 22 -1q172 0 316 211q63 92 63 185 q0 76 -34 119q-133 -100 -283 -271l-209 -250q-510 -575 -999 -628q203 -31 317 -35q14 -1 27 0q176 0 245 100q8 12 13 10v-36q-20 -117 -136 -198q-111 -77 -238 -77h-13q-250 10 -330 213q-25 -4 -111 -24q-113 -29 -186 -29q-72 0 -74 24zM246 203q0 -82 26 -162 q223 0 484 182q207 145 485 447q367 395 592 538q-100 82 -307 101q-37 4 -76 4q-211 0 -428 -99q-203 -88 -367 -239q-178 -164 -293.5 -383t-115.5 -389zM283 12q76 -184 303 -194h12q110 0 213 68q108 72 137 169q-94 -102 -246 -102h-12q-76 2 -186 24l-172 37 q-12 2 -49 -2z" />
<glyph unicode="S" horiz-adv-x="1392" d="M86 172q0 313 340 641q162 156 346 240q164 75 299 75h4q94 0 150 -36q73 -50 73 -151q0 -73 -30 -150q-90 -221 -320 -433q-287 -262 -532 -262q-90 0 -115 62q-12 31 4 30q2 0 21 -30q23 -39 88 -39q119 0 262 96q78 53 237 199q250 225 322 387q35 76 35 145 q0 84 -60 125q-47 31 -114 31q-252 0 -619 -348q-358 -342 -358 -600q0 -106 58.5 -172t158.5 -80q33 -4 67 -4q209 0 445 190q197 158 481 512q324 403 546 572t435 169q172 0 219 -102q5 -12 5 -25q0 -7 -1 -14q-4 -27 -24 -26q-10 -2 -33 43q-49 100 -176 100 q-178 0 -393 -203q-154 -143 -477 -553q-547 -694 -1008 -694q-43 0 -84 6q-252 37 -252 299z" />
<glyph unicode="T" horiz-adv-x="1572" d="M240 463q-82 56 -82 202v7q2 270 268 461q301 217 839 216q48 0 97 -1q367 -12 887 -123q92 74 194 102q12 4 23.5 6t17.5 2q8 -2 6 -8q-4 -8 -34 -18q-84 -27 -156 -95q229 -59 410 -88q59 -9 92 -9q11 0 20 1l35 4q1 -3 1 -6q0 -13 -32 -16q-26 -7 -60 -7q-29 0 -65 5 q-182 23 -444 73q-190 -170 -658 -663q-629 -667 -1165 -667q-19 0 -37 1q-288 12 -288 269q0 170 131 352zM141 129q-1 -16 -1 -31q0 -215 266 -223h11q386 0 1084 668q362 348 371 354q193 181 326 285q-459 80 -828 94q-60 2 -117 2q-504 0 -794 -182 q-272 -172 -271 -422q2 -133 64 -195q115 145 272 254q143 100 324 160q171 57 315 56q24 0 47 -1q209 -13 209 -179v-15q-2 -31 -16 -31q-10 2 -8 41v9q1 62 -49 103q-54 44 -140 46h-12q-131 0 -315 -82q-156 -70 -304 -174q-414 -295 -434 -537z" />
<glyph unicode="U" horiz-adv-x="1640" d="M76 487q6 135 94 287q98 172 256 283q336 236 815 248h44q239 0 470 -60q23 10 45 10q31 0 12 -28q33 -10 78 -33q29 -20 19 -31q-4 -4 -33 10.5t-78 30.5l-127 -80q-356 -236 -659 -516q-248 -229 -385 -422q-109 -152 -109 -221q0 -47 57 -47q86 0 322 164 q86 59 537 422q137 111 669 516q59 63 181 182q96 88 135 88q26 1 26 -30q0 -35 -53 -86q-80 -78 -262 -183l-463 -465q-215 -227 -362 -460q-53 -84 -72 -129q-3 -1 -6 -1q-33 0 -33 60q0 57 41 131q113 207 326 405q39 49 157 148l-6 8l-188 -158q-430 -360 -613 -481 q-254 -170 -356 -170q-49 0 -80 33t-31 80q0 92 103 246q147 223 457 495q352 313 704 492q-177 40 -391 40q-36 0 -74 -1q-182 -6 -385 -74q-217 -74 -397 -199q-160 -111 -256 -256q-90 -137 -94 -256v-23q0 -221 149 -333q23 -14 23 -23q-4 -14 -23 -2q-185 95 -185 350 q0 19 1 39z" />
<glyph unicode="V" horiz-adv-x="1480" d="M72 475q6 119 94 270q102 174 256 277q354 235 811 235h4q244 0 430 -34q18 35 29 65q4 12 14 -2q23 -32 23 -73v-7h2q115 -27 151 -53q29 -20 19 -31q-4 -4 -33 13q-55 29 -146 45q-35 -106 -112 -209q-115 -152 -400 -432q-61 -61 -436 -398q-156 -139 -168 -182 q0 -16 15 -18q5 -2 11 -2q57 0 263 139q162 109 651 518q883 737 1257 737h17q207 -10 244 -170q0 -16 -2 -18q-2 0 -17 12q-70 96 -237 100h-8q-359 0 -1188 -667q-365 -295 -367 -295q-195 -154 -331 -248q-208 -141 -303 -141h-7q-47 2 -47 47q0 69 156 237 q63 68 467 457q209 201 358 383q78 94 113 162q-176 25 -416 25q-178 0 -385 -68q-215 -68 -397 -188q-160 -104 -254 -244q-90 -131 -94 -244q-1 -13 -1 -26q0 -202 148 -314q25 -14 23 -20q-4 -14 -23 -4q-185 98 -185 334q0 16 1 32z" />
<glyph unicode="W" horiz-adv-x="2193" d="M80 479q6 135 94 281q96 158 256 262q354 235 830 235h4q233 0 411 -34q2 2 33 80q2 6 6 6q8 0 18 -33q7 -23 6 -47q0 -10 -1 -21q98 -18 157 -55q31 -18 19 -31q-2 -2 -33 13q-61 31 -151 47q-23 -90 -99 -197q-104 -145 -393 -432q-80 -78 -221 -203 q-197 -170 -223 -194q-158 -141 -166 -183q-4 -16 12 -20q6 -1 13 -1q80 0 274 146l639 512l551 420q158 106 211 107q31 0 30 -31q0 -27 -61 -121q-86 -131 -350 -432q-98 -113 -373 -397q-127 -133 -133 -183q0 -18 16 -20q7 -1 14 -1q80 0 250 140q143 117 570 518 q782 738 1157 738h16q201 -8 246 -170q2 -4 2 -8q0 -5 -6 -7q-4 -4 -12 8q-59 96 -234 103h-12q-353 0 -1092 -670l-325 -297q-174 -156 -293 -246q-188 -141 -291 -141q-57 0 -57 53q-1 5 -1 10q0 76 113 220q113 143 420 471q162 172 277 330q25 33 20 40q-1 1 -2 1 q-12 0 -80 -46q-111 -76 -266 -202l-240 -193l-368 -295q-203 -162 -330 -248q-211 -141 -309 -141q-48 0 -48 44v9q10 86 156 230l479 467q213 213 344 377q80 98 107 147q-138 24 -335 24q-29 0 -60 -1q-422 -8 -799 -256q-160 -106 -256 -246q-90 -129 -94 -242v-22 q0 -207 147 -318q25 -14 23 -20q-2 -8 -23 -4q-185 101 -185 334q0 18 1 36z" />
<glyph unicode="X" horiz-adv-x="1728" d="M57 141q25 299 363 592q190 164 444 240q-2 6 -2 14q0 30 33 76q78 109 239.5 178.5t335.5 69.5q158 0 263 -66q127 -76 127 -225q-1 -219 -347 -586q-558 -594 -1126 -594h-22q-135 2 -218 68q-91 72 -91 202q0 15 1 31zM92 141q-1 -16 -1 -32q0 -110 75 -172 q76 -63 199 -66h19q489 0 1080 604q269 272 320 471q10 37 10 74q0 127 -100 192q-84 55 -215 56q-164 0 -329 -64.5t-232 -156.5q-31 -41 -33 -68q105 28 191 29q20 0 38 -2q197 -16 197 -191q0 -23 -4 -47q-27 -205 -244 -385q-268 -223 -524 -223q-43 0 -66 14 q-35 20 -16 35l22 -14q33 -14 60 -15q190 0 487 248q254 211 254 391q0 150 -174 162q-13 1 -27 1q-132 0 -303 -89q-158 -84 -311 -221q-354 -315 -373 -531zM1337 -59q0 86 35 172q51 125 187 303q166 219 391 418q276 244 553 370q246 113 442 113q201 0 256 -100 q6 -11 6 -17q0 -8 -10 -10q-6 -2 -23 22q-86 78 -264 78q-334 0 -901 -518q-322 -293 -510 -563q-109 -156 -125 -270q0 -31 -14 -64h-3q-20 0 -20 66z" />
<glyph unicode="Y" horiz-adv-x="1796" d="M-158 -242q0 33 6 68q29 154 148 235q35 25 43 7q4 -2 -21 -21q-106 -78 -133 -217q-6 -35 -6 -68q0 -256 397 -256q387 0 873 408q106 90 211 197l254 258l495 516q-117 -84 -477 -383q-213 -176 -497 -352q-195 -121 -351 -189q-63 -29 -112 -29q-47 0 -58 33 q-2 5 -2 12q0 50 113 156q147 127 469 430q223 225 428 479q63 78 104 152q-147 23 -387 23q-188 0 -405 -66q-236 -72 -390.5 -190.5t-239.5 -257t-85 -254.5q0 -213 137 -316q23 -14 23 -20q0 -10 -23 -4q-174 96 -174 348q0 131 80 282q92 172 246 283q329 235 825 235h4 q248 0 408 -32q20 51 27 84q29 -30 29 -80q0 -7 -1 -15q119 -20 187 -61q29 -18 18 -31q-2 -2 -33 13q-76 33 -174 49q-16 -70 -45 -113q-164 -256 -557 -629q-98 -94 -405 -354q-82 -71 -82 -92q0 -17 23 -17q24 0 69 21q152 70 319 176q156 100 420 305l324 264 q244 197 422 316q369 248 618 248q217 0 297 -162q2 -10 2 -15t-2 -6l-14 7q-59 70 -144 92q-51 12 -151 12q-174 0 -366.5 -90t-362.5 -254q-143 -139 -389 -430q-213 -254 -287 -334q-152 -170 -273 -268q-479 -389 -942 -389q-207 0 -318.5 75.5t-111.5 210.5z" />
<glyph unicode="Z" horiz-adv-x="1259" d="M-455 -219q23 174 224 289q185 106 411 106h21q186 -2 334.5 -66.5t185.5 -168.5l63 57q80 74 134.5 164t58.5 155v9q0 61 -53 84q-53 -16 -121 -27q-33 -4 -60.5 4t-23.5 29q12 44 98 44q14 0 29 -1q78 -6 106 -17q240 53 467 275q199 195 267 379q23 63 22 110 q0 104 -113 115q-12 1 -25 1q-115 0 -274 -81q-131 -68 -239 -160q-276 -233 -277 -389q0 -90 103 -90q119 0 291 170q66 66 126 184q27 53 25 54q2 -10 6 -19q-2 -20 -8 -43q-29 -94 -119 -188q-170 -178 -319 -178q-39 0 -72 14q-63 29 -63 113q0 86 68.5 198.5 t178.5 202.5q125 100 267 166q164 74 297 74q215 0 215 -193q-1 -45 -13 -96q-45 -176 -247 -356q-231 -207 -535 -279q68 -51 68 -133q0 -70 -47.5 -164t-118.5 -166q-193 -193 -462 -308.5t-532 -115.5q-178 -1 -268 63q-78 55 -78 149q0 15 2 30zM-428 -250 q0 -84 84 -130t231 -46q395 0 813 348q-37 100 -175 156q-133 54 -309 53h-13q-201 -2 -391 -90q-240 -111 -240 -291z" />
<glyph unicode="[" horiz-adv-x="663" d="M-231 -283q0 18 57 82l1292 1456q37 43 56.5 52.5t74.5 9.5h221q41 -1 35 -21t-45 -20h-223l-1370 -1532h229q35 0 33 -18q-8 -23 -47 -23h-270q-43 0 -43 14z" />
<glyph unicode="\" horiz-adv-x="606" d="M256 1128q-2 35 16 35t21 -41q26 -524 61 -1310q2 -27 -16 -27t-21 35z" />
<glyph unicode="]" horiz-adv-x="663" d="M-492 -272q6 20 46 20h223l1370 1532h-229q-35 0 -31 18q6 23 45 23h270q43 0 43 -14q0 -18 -57 -82l-1292 -1456q-37 -43 -56.5 -52.5t-75.5 -9.5h-221q-41 0 -35 21z" />
<glyph unicode="^" horiz-adv-x="1157" d="M154 354q0 10 16 21q352 207 604 397q39 29 72 29t41 -29q80 -260 139 -397q14 -33 -12 -33q-14 0 -37 33q-86 125 -168 325q-315 -215 -547 -325q-59 -29 -92 -29q-16 0 -16 8z" />
<glyph unicode="_" horiz-adv-x="1024" d="M-303 -420h1040v-63h-1040v63z" />
<glyph unicode="`" d="M508 834q-2 57 43 57t43 -66q-4 -94 53 -157q12 -17 6 -21q-6 -6 -22 4q-39 27 -76 76q-45 61 -47 107z" />
<glyph unicode="a" horiz-adv-x="643" d="M-104 53q0 123 159 287q104 106 246.5 186t230.5 80q66 0 66 -45q0 -43 -63 -104q129 106 172 121q25 9 57 9q11 0 22 -1q-272 -244 -415 -416q-86 -102 -86 -133q0 -12 10 -17q5 -2 11 -2q46 0 188 111q68 53 194 166q16 16 25 2q6 -12 -11 -27l-190 -161 q-152 -123 -219 -123q-74 0 -74 67q0 45 41 107q-207 -174 -295 -174q-70 0 -69 67zM-39 37q0 -14 12 -21q4 -1 9 -1q35 0 138 74q118 85 245 214q205 211 204 250q1 22 -24 22q-98 0 -395 -284q-188 -180 -189 -254z" />
<glyph unicode="b" horiz-adv-x="614" d="M-109 66q0 115 252 376q457 477 867 772q557 403 979 404q248 0 381 -105q114 -91 114 -229q0 -30 -6 -59q-23 -121 -113 -168q-18 -10 -22 0q-2 6 12 18q63 57 76 131q6 31 6 60q0 139 -110 223q-123 94 -351 94q-383 0 -932 -434q-408 -322 -829 -764q287 217 406 217 q59 0 59 -57q0 -104 -184 -285q-281 -274 -502 -274q-102 0 -103 80zM-41 37q8 -25 39 -25q59 0 156 72q66 51 227 201l145 135q100 96 101 131q0 18 -25 18q-100 0 -418 -241q-104 -80 -170 -166q-56 -73 -57 -112q0 -7 2 -13z" />
<glyph unicode="c" horiz-adv-x="458" d="M-98 82q2 133 174 293q102 94 223 160.5t190 66.5q59 0 60 -53q-1 -29 -19 -70q-29 -61 -81 -104q-35 -29 -60 -29q-27 0 -27 25q0 31 70 73q90 55 90 105q0 27 -22 26q-68 0 -328 -247q-195 -186 -195 -277q0 -39 46 -39q74 0 198 84q94 63 246 197q14 14 25 4 q12 -8 -5 -21q-86 -86 -215 -180q-139 -100 -245 -112q-11 -1 -20 -1q-45 1 -72 23q-33 28 -33 76z" />
<glyph unicode="d" horiz-adv-x="643" d="M-104 53q0 123 159 287q104 106 250 184t232 78q61 0 61 -43q0 -29 -25 -61q143 152 361 348q260 236 444 368q559 403 979 404q248 0 381 -105q115 -92 115 -231q0 -28 -6 -57q-23 -121 -113 -168q-18 -10 -22 0q-2 6 12 18q63 57 76 131q6 31 6 60q0 139 -111 223 q-123 94 -350 94q-383 0 -932 -434q-215 -170 -627 -555q-281 -262 -415 -424q-86 -102 -86 -133q0 -12 10 -17q4 -2 10 -2q47 0 189 111q59 47 192 164q16 14 27 4q10 -12 -11 -27q-88 -80 -190 -161q-154 -123 -219 -123q-74 0 -74 67q0 45 41 107q-207 -174 -295 -174 q-70 0 -69 67zM-39 39q0 -16 12 -23q4 -1 9 -1q35 0 138 74q118 85 245 214q205 209 204 252q1 20 -26 20q-96 0 -393 -284q-188 -180 -189 -252z" />
<glyph unicode="e" horiz-adv-x="425" d="M-98 94q12 125 159 266q102 98 232.5 172t202.5 74q61 0 61 -51q0 -61 -106 -137q-41 -29 -112 -53.5t-114 -24.5q-23 0 -32 6q-215 -203 -216 -297q0 -37 46 -37q68 0 178 70q121 76 260 207q20 18 28 8t-10 -29q-119 -109 -235 -190q-137 -95 -232 -95q-9 0 -18 1 q-93 9 -93 96q0 7 1 14zM205 358q6 -2 16 -2q84 0 207 97q94 76 94 114q0 9 -4 13q-3 2 -7 2q-27 0 -122 -68q-102 -76 -184 -156z" />
<glyph unicode="f" horiz-adv-x="350" d="M-2542 -629q0 92 41 185q31 69 59 69h1q4 0 6 -2q2 -6 -21 -53q-47 -96 -47 -191q0 -172 140.5 -290.5t373.5 -124.5h31q298 0 608 145q270 127 625 408q233 184 553 520l444 481q-37 0 -125 -8q-12 -2 -15 1t-1 9t19 12q47 8 147 13q461 485 717 686q219 172 487 276 q283 111 533 111q248 0 381 -105q114 -91 114 -229q0 -30 -6 -59q-23 -123 -113 -168q-18 -10 -22 0q-2 6 12 18q59 51 74 131q6 33 6 64q0 137 -110 221q-121 92 -349 92q-453 0 -966 -428q-248 -205 -637 -606h178q6 0 4 -12q-6 -12 -22 -13q-45 0 -187 -6l-432 -473 q-350 -365 -573 -543q-715 -571 -1332 -571h-32q-258 6 -416 135q-147 123 -148 305z" />
<glyph unicode="g" horiz-adv-x="622" d="M-2212 -629q0 92 41 185q31 69 59 69h1q4 0 6 -2q2 -6 -21 -53q-47 -96 -47 -191q0 -172 140.5 -290.5t373.5 -124.5h30q297 0 617 149q279 131 633 412q254 201 725 717l-4 4q-279 -260 -379 -260q-72 0 -72 69q0 125 156 285q104 106 251.5 185t236.5 79q61 0 61 -43 t-57 -108l6 -4q98 98 123 114q32 22 77 22q7 0 15 -1q-10 -10 -309 -355q-106 -121 -308 -329q-281 -291 -419 -398q-741 -571 -1346 -571h-27q-258 6 -415 135q-147 123 -148 305zM-49 39q0 -16 14 -23q4 -1 8 -1q36 0 141 75q119 86 251 215q199 197 198 250q1 20 -26 20 q-96 0 -396 -284q-190 -182 -190 -252z" />
<glyph unicode="h" horiz-adv-x="692" d="M-129 6q-4 16 -4 27.5t4 19.5q84 162 262 361q418 467 877 800q555 403 979 404q248 0 381 -105q114 -91 114 -229q0 -30 -6 -59q-23 -121 -113 -168q-18 -10 -22 0q-2 6 12 18q63 57 76 131q6 31 6 60q0 139 -110 223q-123 94 -351 94q-383 0 -932 -434 q-442 -350 -808 -754q84 66 208 131q147 76 218 76q70 0 69 -55q0 -74 -190 -248q-117 -106 -164 -160q-74 -84 -74 -108q0 -18 23 -19q51 0 174 88q74 53 205 166q18 16 26 6q8 -14 -8 -28q-129 -115 -217 -176q-123 -86 -198 -86q-12 0 -23 2q-49 10 -49 73q0 51 40 111 q49 70 177 186l127 111q82 74 82 96q0 6 -7 8q-5 2 -13 2q-44 -1 -180 -71q-158 -82 -255 -164q-156 -131 -309 -363q-16 0 -27 33z" />
<glyph unicode="i" horiz-adv-x="348" d="M-106 47q0 98 151 256q197 207 315 270q41 22 95 22q9 0 18 -1q-285 -256 -426 -424q-82 -98 -82 -135q0 -20 23 -21q55 0 184 97q113 84 215 176q20 14 29 6q10 -10 -8 -23q-82 -82 -218 -182q-141 -104 -219 -104t-77 63zM516 764q0 57 57 57q58 0 58 -57t-58 -57 q-57 0 -57 57z" />
<glyph unicode="j" horiz-adv-x="292" d="M-2583 -629q0 92 41 185q31 69 59 69h1q4 0 6 -2q2 -6 -21 -53q-47 -96 -47 -191q0 -172 140.5 -290.5t373.5 -124.5h31q300 0 619 147q283 135 630 414q303 244 797 770q168 180 279 262q50 38 125 38q11 0 22 -1q-135 -111 -446 -447q-387 -418 -682 -645 q-741 -571 -1338 -571h-26q-258 6 -416 135q-147 123 -148 305zM502 764q0 57 57 57q23 0 41 -17t18 -40t-18 -40t-41 -17q-57 0 -57 57z" />
<glyph unicode="k" horiz-adv-x="620" d="M-131 27q0 14 4 26q49 127 260 361q424 467 877 800q215 158 446 267q301 137 533 137q248 0 381 -105q114 -91 114 -229q0 -30 -6 -59q-23 -121 -113 -168q-18 -10 -22 0q-2 6 12 18q63 57 76 131q6 31 6 60q0 139 -110 223q-123 94 -351 94q-383 0 -932 -434 q-205 -164 -456 -399q-287 -272 -471 -492q66 55 248 188q234 161 345 161q8 0 15 -1q60 -7 60 -51q0 -9 -3 -20q-6 -29 -30 -37q-6 0 -39 28q-20 16 -51 19h-9q-102 0 -219 -88q-61 -72 -112 -224q-33 -100 -33 -147q0 -41 33 -41q31 0 149 86l195 166q12 12 22 2t-6 -27 q-106 -96 -201 -168q-159 -121 -226 -121q-6 0 -11 1q-49 8 -49 73q0 41 20 115q33 115 90 203q-33 -23 -100 -74q-115 -90 -168 -143q-96 -115 -139 -185q-29 0 -29 54z" />
<glyph unicode="l" horiz-adv-x="342" d="M-63 168q72 113 270 317q233 242 315 318q252 242 488 411q561 403 979 404q248 0 381 -105q114 -91 114 -229v-2q0 -28 -6 -57q-23 -121 -113 -168q-18 -10 -22 0q-2 6 12 18q63 57 76 131q6 31 6 60q0 139 -110 223q-123 94 -351 94q-383 0 -932 -434 q-293 -231 -784 -737q-293 -301 -293 -373q0 -20 27 -21q39 0 156 82q39 29 227 187q18 16 29 6q10 -10 -9 -23q-98 -98 -241 -198q-129 -90 -189 -90q-71 0 -71 69q0 51 41 117z" />
<glyph unicode="m" horiz-adv-x="1021" d="M-133 6q-1 10 -1 19q0 17 5 28q72 137 264 342q100 106 191 166q49 33 141 33q-133 -88 -291 -270q344 278 480 278q10 0 20 -2q41 -8 41 -51q0 -49 -43 -105q238 160 319 160q27 0 46.5 -18.5t19.5 -42.5q0 -74 -189 -244q-88 -80 -162.5 -159t-74.5 -107q0 -20 22 -21 q51 0 170 86t215 174q23 21 33 11q2 -2 2 -5q0 -9 -16 -26q-115 -106 -228 -184q-123 -86 -195 -86q-12 0 -22 2q-49 12 -49 73q0 51 41 111q49 70 176 186l127 111q80 72 80 94q0 12 -12 12q-43 0 -191 -88q-154 -90 -258 -182q-119 -104 -301 -328q-16 0 -20 33 q-4 29 4 47q57 113 233 301q12 14 125 113q84 74 84 94q0 6 -6 8q-4 2 -10 2q-45 0 -202 -96q-177 -108 -285 -211q-123 -117 -261 -291q-16 0 -22 33z" />
<glyph unicode="n" horiz-adv-x="684" d="M-133 6q-1 10 -1 19q0 17 5 28q76 145 264 342q109 113 189 166q49 33 141 33q-127 -88 -285 -266q111 90 242 172q168 102 235 102q66 0 66 -55q0 -78 -191 -248q-74 -66 -163 -160q-74 -78 -74 -106q0 -20 20 -21q55 0 172 84l224 183q16 14 24 4q3 -3 3 -7 q0 -9 -15 -24q-147 -127 -229 -184q-123 -86 -196 -86q-12 0 -22 2q-49 12 -49 73q0 51 41 111q49 70 176 186l127 111q82 74 82 96q0 6 -6 8q-4 2 -10 2q-46 0 -204 -97q-179 -109 -283 -210q-119 -113 -261 -291q-16 0 -22 33z" />
<glyph unicode="o" d="M-90 78q0 129 160 291q102 104 231 172q121 65 204 65h3q76 0 76 -59q0 -106 -185 -295q-266 -268 -401 -268q-88 0 -88 94zM-31 43q0 -33 33 -33q86 0 375 293q176 180 176 252q0 23 -27 23q-104 0 -381 -287q-176 -182 -176 -248z" />
<glyph unicode="p" horiz-adv-x="624" d="M-2621 -629q0 92 41 185q31 69 58 69h1q4 0 6 -2q2 -6 -20 -53q-47 -96 -48 -191q0 -172 140.5 -290.5t374.5 -124.5h35q639 0 1312 561q213 178 840 860q211 229 323 340q295 293 568 489q559 403 979 404q248 0 381 -105q114 -91 114 -229q0 -30 -6 -59 q-23 -121 -113 -168q-18 -10 -22 0q-2 6 12 18q63 57 76 131q6 31 6 60q0 139 -110 223q-123 94 -351 94q-383 0 -932 -434q-395 -313 -856 -807q84 78 205 160q152 102 215 102q49 0 49 -61q0 -57 -44 -140.5t-109 -146.5q-277 -270 -466 -270h-5q-31 0 -58 18 q-16 10 -18 31q-2 20 10 22t17 -16q12 -23 39 -25h7q55 0 126 54q77 59 256 241q192 196 192 240q0 14 -20 14q-61 0 -236.5 -127t-290.5 -254q-430 -471 -702 -696q-671 -557 -1374 -557h-39q-258 6 -416 135q-147 123 -147 305z" />
<glyph unicode="q" horiz-adv-x="610" d="M-645 -965q0 85 221 371q270 348 678 754q-203 -174 -293 -174q-72 0 -72 67q0 123 160 287q104 106 248.5 185t232.5 79q61 0 62 -43q0 -47 -64 -104q127 104 174 121q26 9 58 9q11 0 22 -1q-184 -166 -417 -416q-385 -414 -555 -612q-182 -211 -353 -445 q-16 -20 -82 -135q-20 9 -20 57zM-602 -1030q20 43 135 194q141 186 346 408q143 156 406 412q190 186 370 335q15 15 27 7q4 -4 4 -8q0 -7 -12 -17q-242 -213 -379 -348l-426 -434q-281 -301 -465 -572q-8 5 -8 14q0 4 2 9zM-47 39q0 -16 14 -23q4 -1 9 -1q37 0 140 74 q117 85 242 214q207 213 207 252q1 20 -26 20q-96 0 -396 -284q-190 -182 -190 -252z" />
<glyph unicode="r" horiz-adv-x="446" d="M-133 6q-1 10 -1 19q0 17 5 28q76 145 264 342q109 113 187 164q53 35 143 35q-150 -98 -289 -260l6 -8q306 267 413 267q7 0 13 -1q47 -10 47 -55v-7q-2 -18 -12 -29.5t-18 -8.5q-6 6 -25 16q-27 14 -53 16h-5q-118 0 -392 -260q-119 -113 -261 -291q-16 0 -22 33z" />
<glyph unicode="s" horiz-adv-x="438" d="M-98 180l88 74q68 59 96 59q188 162 244 226q84 100 135 145q88 78 123 78q22 -1 22 -17q0 -43 -104 -116q-55 -35 -139 -101q-25 -27 -39 -104q-29 -145 -41 -178q-47 -121 -164 -199q174 80 358 246q10 10 21 0q14 -10 -6 -25q-172 -158 -359 -241q-97 -44 -190 -44 q-11 0 -23 1q-96 6 -96 74q0 56 74 122zM-145 68v-5q0 -36 51 -36q109 0 229 133q53 59 108.5 160.5t73.5 173.5q-70 -78 -219 -201q-10 -29 -92 -84l-102 -70q-47 -35 -49 -71z" />
<glyph unicode="t" horiz-adv-x="380" d="M-80 61q0 82 141 246q45 53 201 211q-37 0 -125 -8q-12 -2 -15 1t-1 9t18 12q47 8 152 13q242 242 483 418q551 401 979 405h10q243 0 369 -98q113 -86 113 -226q-1 -30 -7 -59q-23 -123 -112 -168q-20 -10 -23 0q-2 6 13 19q57 47 73 133q6 35 6 69q0 135 -102 213 q-112 86 -334 86h-10q-383 -4 -934 -440q-205 -162 -399 -348h166q8 0 2 -14q-4 -10 -23 -11q-104 0 -176 -6q-397 -397 -397 -477q0 -29 32 -29q57 0 177 90q113 86 219 187q20 14 28 6q6 -8 -14 -33q-115 -106 -227 -190q-125 -94 -197 -95q-86 0 -86 84z" />
<glyph unicode="u" horiz-adv-x="641" d="M-106 45q0 102 153.5 264t310.5 252q44 26 104 26q11 0 23 -1q-293 -240 -434 -414q-88 -109 -88 -135q0 -12 10 -17q6 -3 14 -3q50 0 183 106q72 57 195 184q195 203 311 271q34 21 85 21q12 0 25 -1q-264 -244 -413 -426q-90 -111 -90 -137q0 -10 10 -15q5 -2 12 -2 q46 0 176 103q4 4 199 170q18 12 27 4q10 -10 -7 -23q-72 -70 -196 -168q-150 -118 -210 -118h-3q-74 4 -74 67q0 47 39 113q-27 -27 -72 -62q-153 -118 -220 -118h-1q-70 0 -69 59z" />
<glyph unicode="v" horiz-adv-x="587" d="M-94 57q0 102 141 248q168 174 385 254q-119 0 -217 -35q-25 -8 -47.5 -26.5t-24.5 -18.5q-8 0 -8 17q0 43 66 65q74 25 194 25q53 0 103 -6q12 0 16 -7q2 -4 -14 -14q-115 -76 -258 -205q-127 -115 -185 -184q-82 -100 -82 -131q0 -20 25 -21q66 0 188 91 q197 147 357 331q47 55 47 95q0 39 14.5 55t87.5 16q35 0 35 -20q0 -29 -47 -81.5t-143 -150.5q-156 -143 -332 -272q-131 -96 -219 -96q-82 0 -82 71z" />
<glyph unicode="w" horiz-adv-x="913" d="M-94 53q0 98 139 250q59 66 168 137q119 82 221 119q-123 0 -219 -35q-25 -8 -46.5 -26.5t-23.5 -18.5q-10 0 -10 21q0 39 68.5 62.5t218.5 23.5q45 0 82 -4q14 0 14 -7l-16 -16q-240 -156 -445 -389q-82 -94 -82 -131q0 -14 11 -19q7 -3 17 -3q57 0 192 116 q135 115 237 213q166 160 291 205q29 10 37 0q8 -8 -10 -23q-190 -145 -355 -356q-69 -89 -69 -128q0 -14 6.5 -21t19.5 -7q63 0 189 103q178 143 319 336q29 39 29 69q0 10 -4 22.5t-4 16.5q0 6 4 10q27 33 102 33q35 0 35 -22q0 -5 -2 -11q-10 -33 -43 -73 q-47 -57 -117 -129q-168 -174 -301 -277q-143 -110 -220 -110q-11 0 -20 2q-65 12 -65 78q0 57 47 131q-33 -33 -92 -86q-147 -123 -225 -123t-78 67z" />
<glyph unicode="x" horiz-adv-x="618" d="M-156 20q-2 10 -2 18q0 19 13 30q6 2 18 -11q25 -12 51 -12q72 0 221 129q76 66 220 221q86 94 86 150q0 23 -27 22q-43 0 -148 -96l-260 -240q-16 -10 -22 0q-8 8 4 21l248 229q129 123 208 123h7q66 -6 65 -57q0 -72 -125 -203l7 -4l108 98l113 99q84 69 131 69h4 q45 -2 49 -47q1 -4 1 -8q0 -11 -9 -16q-33 10 -66 10q-59 0 -268 -183q-104 -92 -168 -194q-47 -78 -47 -113q0 -23 16 -26q7 -2 15 -2q48 0 143 73q135 104 232 193q20 18 26 8q8 -14 -10 -29q-139 -127 -215 -182q-149 -108 -224 -108h-1q-74 0 -74 63q0 68 86 176l-8 6 l-80 -77q-174 -166 -256 -166q-47 0 -62 36z" />
<glyph unicode="y" horiz-adv-x="610" d="M-2224 -629q0 92 41 185q31 69 58 69h1q4 0 6 -2q2 -6 -20 -53q-47 -96 -47 -191q0 -172 140 -290.5t374 -124.5h32q579 0 1248 561q262 219 682 670l-115 -97q-140 -112 -208 -112h-1q-72 0 -71 63q0 100 147 254q164 168 319 256q47 25 108 25h17q-279 -223 -438 -414 q-86 -102 -86 -133q0 -18 19 -19q55 0 182 103q119 96 303 264q72 72 229 195q33 20 105 20q16 0 16 -4q0 -2 -14 -12q-29 -16 -80 -66q-123 -117 -285 -289l-311 -325q-283 -291 -416 -402q-691 -571 -1339 -571h-33q-258 6 -416 135q-147 123 -147 305z" />
<glyph unicode="z" horiz-adv-x="487" d="M-260 -20q-2 14 25.5 38.5t56.5 40.5q209 178 358 275q98 63 352 190q-43 -16 -98 -16q-25 0 -67.5 5t-63.5 5q-90 0 -184 -108q-8 -18 -21 -7q-12 6 0 19q78 111 146 149q50 29 118 29h9q25 0 75 -18.5t74 -22.5q18 -3 34 -3q25 0 46 7q46 27 62 27h2q8 0 10 -2 q4 -18 -25 -31l-69 -27q-51 -27 -160 -98q-195 -127 -197 -129q-125 -74 -350 -219q39 20 96 20q37 0 98.5 -10t82.5 -10q80 0 159 63q20 16 103 99q12 16 18 6q8 -6 -4 -21q-27 -35 -107 -120q-84 -79 -128 -101q-37 -19 -86 -19q-9 0 -17 1q-23 2 -88.5 23.5t-122.5 21.5 q-35 0 -65 -10q-14 -12 -35 -33q-21 -17 -31 -17q-4 0 -6 3z" />
<glyph unicode="{" horiz-adv-x="663" d="M-63 -150q0 72 86 168l182 205q160 180 160 264q0 59 -82 62q-37 0 -29 22q6 14 63 15q104 0 183 37q100 47 217 174l180 202q279 326 545 326q41 0 84 -8q28 -5 22 -21q-6 -14 -37 -10q-29 4 -59 4q-203 0 -418 -258q-61 -74 -121 -137q-180 -193 -272 -254 q-106 -68 -266 -86q41 -31 41 -86q0 -121 -197 -346l-131 -141q-90 -99 -90 -158q0 -63 121 -90q20 -4 16 -15q-4 -6 -39 -4q-43 2 -90 31q-70 39 -69 104z" />
<glyph unicode="|" horiz-adv-x="835" d="M383 -483v2048h72v-2048h-72z" />
<glyph unicode="}" horiz-adv-x="663" d="M-629 -274q2 6 37 6q254 -2 490 280q61 74 120 138q180 193 273 253q106 68 266 86q-45 31 -45 93q0 129 201 340q33 33 113.5 122t80.5 152q0 84 -123 88q-20 0 -14 14q4 6 35 9q55 2 108 -31q61 -39 62 -105q0 -71 -80 -163l-168 -187q-160 -178 -160 -262 q0 -61 84 -61q37 0 27 -25q-6 -14 -64 -14q-104 0 -182 -37q-100 -47 -217 -174l-180 -203q-295 -344 -641 -338q-27 0 -23 19z" />
<glyph unicode="~" horiz-adv-x="1157" d="M365 492q0 8 10 30q66 141 231 142q61 0 186.5 -37t178.5 -37q88 0 159 84q23 24 33 18q14 -8 -2 -39q-78 -145 -223 -145q-61 0 -184 39t-176 39q-86 0 -166 -80q-31 -27 -37 -25q-10 2 -10 11z" />
<glyph unicode="&#xa7;" horiz-adv-x="823" d="M-90 27q8 33 43 22l57 -33q47 -27 109 -26q111 0 172 73q47 57 39 175q-4 49 -17 153q-4 29 -4 53q0 150 111 244q88 74 207 92q-8 113 86 203q123 117 270 117q63 0 107 -27q35 -25 34 -51q0 -39 -43 -23q-27 14 -51 29q-43 20 -102 21q-121 0 -178 -80 q-43 -59 -35 -166q8 -53 18 -154q14 -199 -123 -309q-76 -61 -192 -78q0 -137 -105 -225q-129 -109 -266 -100q-61 4 -103 31.5t-34 58.5zM395 508q6 -117 21 -221q111 12 178 77t57 171q-8 84 -22 219q-125 -14 -191 -90q-49 -55 -43 -156z" />
<glyph unicode="&#xa9;" horiz-adv-x="1509" d="M258 526q0 211 146.5 357.5t359.5 146.5q209 0 356.5 -147.5t147.5 -356.5q0 -213 -146.5 -360.5t-357.5 -147.5t-358.5 146.5t-147.5 361.5zM313 526q0 -188 132.5 -321t318.5 -133t317 133t133 321q2 184 -131 318.5t-319 134.5q-184 0 -317.5 -133t-133.5 -320z M467 510q0 147 100 229q90 74 230 74q104 0 178 -37q20 -23 18 -88l-2 -63h-24q-18 160 -174 159q-102 0 -163 -69.5t-61 -192.5t62.5 -193.5t163.5 -70.5q154 0 184 129h25l-5 -45q-4 -43 -28 -86q-92 -35 -172 -35q-141 0 -230 66q-102 74 -102 223z" />
<glyph unicode="&#xaa;" horiz-adv-x="643" d="M-104 53q0 123 159 287q104 106 246.5 186t230.5 80q66 0 66 -45q0 -43 -63 -104q129 106 172 121q25 9 57 9q11 0 22 -1q-272 -244 -415 -416q-86 -102 -86 -133q0 -12 10 -17q5 -2 11 -2q46 0 188 111q68 53 194 166q16 16 25 2q6 -12 -11 -27l-190 -161 q-152 -123 -219 -123q-74 0 -74 67q0 45 41 107q-207 -174 -295 -174q-70 0 -69 67zM-39 37q0 -14 12 -21q4 -1 9 -1q35 0 138 74q118 85 245 214q205 211 204 250q1 22 -24 22q-98 0 -395 -284q-188 -180 -189 -254z" />
<glyph unicode="&#xab;" horiz-adv-x="608" d="M57 311q150 82 369 248q17 16 27 10q4 -4 4 -10q0 -10 -17 -27q-143 -137 -293 -233q14 -129 9 -207q-10 -45 -23 -45q-8 -2 -16 29q-23 147 -60 235zM264 293q174 102 365 250q24 14 30 8q14 -10 -10 -33q-143 -129 -297 -235q14 -96 8 -205q-2 -27 -2 -31 q-4 -16 -16 -18q-18 0 -18 28q-20 141 -60 236z" />
<glyph unicode="&#xad;" horiz-adv-x="448" d="M66 217q-8 12 14 35q29 37 117 65q100 33 153 31q8 0 8 -8q0 -10 -10 -12q-78 -20 -149 -56q-45 -23 -99 -61q-25 -18 -34 6zM113 322q-8 8 2 14q29 37 107.5 76t125.5 39q14 0 25 -5q18 -4 12 -22q0 -16 -20 -21q-35 -6 -121 -26q-74 -23 -117 -55q-10 -8 -14 0z" />
<glyph unicode="&#xb2;" horiz-adv-x="524" d="M-315 -23q0 10 22 33q123 121 371 252q152 80 207 115q100 61 198 147q127 111 127 168q0 41 -55 41q-90 0 -211 -108q-49 -45 -82 -101q-59 -104 -88 -98q-14 4 -14 20q0 20 20 52q45 68 142 151q135 117 256 117q96 0 96 -92q0 -106 -99 -197q-86 -80 -223 -137 l-252 -104q-70 -33 -225 -123q76 31 135 26q37 -2 110 -25.5t95 -25.5q51 -4 197 125q18 16 24 10q12 -8 -4 -24q-211 -217 -282 -213q-35 2 -114 30.5t-153 32.5q-82 4 -170 -72q-16 -10 -24 -6q-4 2 -4 6z" />
<glyph unicode="&#xb3;" horiz-adv-x="522" d="M-909 -352q0 27 23.5 75t39.5 31q6 -4 -4 -22q-27 -41 -27 -80q0 -37 43 -64q37 -23 91 -24q281 -14 665 303q236 195 254 354v45q-39 -14 -94 -20q-41 -4 -41 14q0 2 3 17.5t52 15.5q41 6 88 -2q133 39 332 227q92 88 100 162q6 53 -63 53q-47 0 -125 -51 q-39 -25 -90 -88q-78 -94 -105 -94q-4 0 -8 2q-23 14 15.5 64t111.5 106q127 94 217 92q105 -3 107 -107q2 -115 -94 -200q-168 -152 -381 -185q31 -25 30 -88q2 -190 -204 -364q-152 -127 -338 -205q-201 -84 -381 -84q-217 0 -217 117z" />
<glyph unicode="&#xb9;" horiz-adv-x="450" d="M-51 -12q-4 31 6 59q35 92 205 258q135 133 329 295q-80 -12 -323 -164q-16 -10 -23 2q-4 10 17 25q166 117 502 272q20 12 71 25q17 0 31 -2q-256 -225 -420 -393q-170 -174 -317 -345q-55 -61 -60 -61q-12 -2 -18 29z" />
<glyph unicode="&#xba;" d="M-90 78q0 129 160 291q102 104 231 172q121 65 204 65h3q76 0 76 -59q0 -106 -185 -295q-266 -268 -401 -268q-88 0 -88 94zM-31 43q0 -33 33 -33q86 0 375 293q176 180 176 252q0 23 -27 23q-104 0 -381 -287q-176 -182 -176 -248z" />
<glyph unicode="&#xbb;" horiz-adv-x="608" d="M-63 53q-12 6 6 35q115 115 270 236q-23 100 -29 204q-2 45 17 47q10 0 20 -28q33 -142 82 -236q-168 -109 -340 -250q-20 -14 -26 -8zM139 55q6 12 13 17q133 137 270 233q-29 115 -29 207q0 45 15 47q12 0 20 -31q41 -141 82 -235q-143 -88 -340 -246q-14 -18 -27 -10 q-10 6 -4 18z" />
<glyph unicode="&#xc0;" horiz-adv-x="1820" d="M1680 1691q-2 57 43 57t43 -66q-4 -94 53 -157q12 -17 6 -21q-6 -6 -22 4q-39 27 -76 76q-45 61 -47 107zM-14 84q0 166 139 340q117 147 283 248q229 141 553 176q-55 39 -55 110q0 10 1 21q20 188 264 301q217 100 502 100q264 0 510 -45q127 -23 381 -90 q49 -12 199 -61q24 -9 24 -17q-6 -12 -22 -6q-40 13 -78 13h-14q-137 -14 -418 -256q-221 -186 -408 -400q-180 -205 -305 -412l-64 -106q-30 -48 -51 -48q-2 0 -4 1q-23 6 -22 37q0 35 29 94q43 90 163 258q39 80 39 150q0 66 -35 120l-96 -92q-692 -690 -1202 -690 q-313 0 -313 254zM20 80q0 -225 269 -225q215 0 487 174q238 152 613 499q83 79 163 142q-154 148 -450 148q-24 0 -49 -1q-125 -4 -299 -63.5t-301 -139.5q-432 -272 -433 -534zM934 969q-1 -9 -1 -17q0 -67 60 -100q37 4 58 4h23q336 0 499 -168q367 299 715 428 q213 78 358 86q-25 6 -78 17q-250 47 -362 61q-231 29 -535 29q-274 0 -489 -90q-231 -98 -248 -250zM1618 631q43 -68 43 -142q0 -37 -10 -73q76 98 170 194q471 482 776 566q-106 -8 -273 -76q-342 -137 -706 -469z" />
<glyph unicode="&#xc2;" horiz-adv-x="1820" d="M1389 1514q0 10 16 21q352 207 604 397q39 29 72 29t41 -29q80 -260 139 -397q14 -33 -12 -33q-14 0 -37 33q-86 125 -168 325q-315 -215 -547 -325q-59 -29 -92 -29q-16 0 -16 8zM-14 84q0 166 139 340q117 147 283 248q229 141 553 176q-55 39 -55 110q0 10 1 21 q20 188 264 301q217 100 502 100q264 0 510 -45q127 -23 381 -90q49 -12 199 -61q24 -9 24 -17q-6 -12 -22 -6q-40 13 -78 13h-14q-137 -14 -418 -256q-221 -186 -408 -400q-180 -205 -305 -412l-64 -106q-30 -48 -51 -48q-2 0 -4 1q-23 6 -22 37q0 35 29 94q43 90 163 258 q39 80 39 150q0 66 -35 120l-96 -92q-692 -690 -1202 -690q-313 0 -313 254zM20 80q0 -225 269 -225q215 0 487 174q238 152 613 499q83 79 163 142q-154 148 -450 148q-24 0 -49 -1q-125 -4 -299 -63.5t-301 -139.5q-432 -272 -433 -534zM934 969q-1 -9 -1 -17 q0 -67 60 -100q37 4 58 4h23q336 0 499 -168q367 299 715 428q213 78 358 86q-25 6 -78 17q-250 47 -362 61q-231 29 -535 29q-274 0 -489 -90q-231 -98 -248 -250zM1618 631q43 -68 43 -142q0 -37 -10 -73q76 98 170 194q471 482 776 566q-106 -8 -273 -76 q-342 -137 -706 -469z" />
<glyph unicode="&#xc3;" horiz-adv-x="1820" d="M1524 1513q0 8 10 30q66 141 231 142q61 0 186.5 -37t178.5 -37q88 0 159 84q23 24 33 18q14 -8 -2 -39q-78 -145 -223 -145q-61 0 -184 39t-176 39q-86 0 -166 -80q-31 -27 -37 -25q-10 2 -10 11zM-14 84q0 166 139 340q117 147 283 248q229 141 553 176q-55 39 -55 110 q0 10 1 21q20 188 264 301q217 100 502 100q264 0 510 -45q127 -23 381 -90q49 -12 199 -61q24 -9 24 -17q-6 -12 -22 -6q-40 13 -78 13h-14q-137 -14 -418 -256q-221 -186 -408 -400q-180 -205 -305 -412l-64 -106q-30 -48 -51 -48q-2 0 -4 1q-23 6 -22 37q0 35 29 94 q43 90 163 258q39 80 39 150q0 66 -35 120l-96 -92q-692 -690 -1202 -690q-313 0 -313 254zM20 80q0 -225 269 -225q215 0 487 174q238 152 613 499q83 79 163 142q-154 148 -450 148q-24 0 -49 -1q-125 -4 -299 -63.5t-301 -139.5q-432 -272 -433 -534zM934 969 q-1 -9 -1 -17q0 -67 60 -100q37 4 58 4h23q336 0 499 -168q367 299 715 428q213 78 358 86q-25 6 -78 17q-250 47 -362 61q-231 29 -535 29q-274 0 -489 -90q-231 -98 -248 -250zM1618 631q43 -68 43 -142q0 -37 -10 -73q76 98 170 194q471 482 776 566q-106 -8 -273 -76 q-342 -137 -706 -469z" />
<glyph unicode="&#xc8;" horiz-adv-x="1388" d="M2010 1622q-2 57 43 57t43 -66q-4 -94 53 -157q12 -17 6 -21q-6 -6 -22 4q-39 27 -76 76q-45 61 -47 107zM70 418v8q0 304 299 569q330 291 839 291q184 0 410 -49q176 53 362 53q47 0 93 -4q90 -8 143 -45q47 -35 47 -80q0 -14 -4 -28q-12 -35 -80 -35q-49 0 -264 41 q-82 16 -256 47q-233 -86 -395 -293q-76 -96 -76 -166q0 -16 6 -29q5 1 11 0q35 0 102 -20q58 -23 58 -41q0 -2 -1 -4q-8 -15 -34 -15q-15 0 -36 5q-76 23 -112 55h-4q-90 0 -260 -86q-166 -84 -286 -207t-161 -246q-16 -47 -16 -88q0 -147 178 -153h13q127 0 300 75 q168 72 324 189q51 39 141 114q63 53 68 54q10 0 10 -11q0 -10 -55 -59q-80 -72 -136 -115q-154 -119 -333 -198q-193 -86 -334 -86q-127 0 -205 59q-79 58 -79 155q0 9 1 19q-135 10 -209 103q-68 86 -69 221zM104 416q2 -125 67 -206t181 -89q16 129 142 266 q106 117 241 193q195 111 432 118q-16 25 -16 72q0 70 39 140.5t121 146.5q98 94 217 147q-170 18 -314 19q-498 0 -817 -258q-137 -111 -216 -261q-77 -147 -77 -281v-7zM1737 1212l186 -47q180 -47 254 -47q49 0 61 25q4 8 5 18q0 35 -43 64.5t-121 36.5q-24 2 -48 2 q-129 0 -294 -52z" />
<glyph unicode="&#xca;" horiz-adv-x="1388" d="M1719 1445q0 10 16 21q352 207 604 397q39 29 72 29t41 -29q80 -260 139 -397q14 -33 -12 -33q-14 0 -37 33q-86 125 -168 325q-315 -215 -547 -325q-59 -29 -92 -29q-16 0 -16 8zM70 418v8q0 304 299 569q330 291 839 291q184 0 410 -49q176 53 362 53q47 0 93 -4 q90 -8 143 -45q47 -35 47 -80q0 -14 -4 -28q-12 -35 -80 -35q-49 0 -264 41q-82 16 -256 47q-233 -86 -395 -293q-76 -96 -76 -166q0 -16 6 -29q5 1 11 0q35 0 102 -20q58 -23 58 -41q0 -2 -1 -4q-8 -15 -34 -15q-15 0 -36 5q-76 23 -112 55h-4q-90 0 -260 -86 q-166 -84 -286 -207t-161 -246q-16 -47 -16 -88q0 -147 178 -153h13q127 0 300 75q168 72 324 189q51 39 141 114q63 53 68 54q10 0 10 -11q0 -10 -55 -59q-80 -72 -136 -115q-154 -119 -333 -198q-193 -86 -334 -86q-127 0 -205 59q-79 58 -79 155q0 9 1 19 q-135 10 -209 103q-68 86 -69 221zM104 416q2 -125 67 -206t181 -89q16 129 142 266q106 117 241 193q195 111 432 118q-16 25 -16 72q0 70 39 140.5t121 146.5q98 94 217 147q-170 18 -314 19q-498 0 -817 -258q-137 -111 -216 -261q-77 -147 -77 -281v-7zM1737 1212 l186 -47q180 -47 254 -47q49 0 61 25q4 8 5 18q0 35 -43 64.5t-121 36.5q-24 2 -48 2q-129 0 -294 -52z" />
<glyph unicode="&#xcc;" horiz-adv-x="1447" d="M1324 1679q-2 57 43 57t43 -66q-4 -94 53 -157q12 -17 6 -21q-6 -6 -22 4q-39 27 -76 76q-45 61 -47 107zM12 109q0 172 119 342q102 150 264 258q111 74 248 131q-33 31 -33 98q0 203 267 330q215 100 440 100q342 0 754 -127q137 -43 192 -78q13 -8 13 -16q0 -2 -1 -4 q-2 -4 -21.5 3t-35.5 7q-104 0 -336 -211q-156 -143 -319 -332q-375 -432 -672 -616q-276 -174 -557 -174q-322 0 -322 289zM45 106q0 -251 277 -251h2q375 0 1112 737q544 545 751 582q-421 126 -861 126h-7q-264 0 -451 -88q-199 -92 -229 -251q-4 -20 -4 -38 q0 -49 29 -77q173 67 351 67h5q106 0 178 -34q82 -41 82 -119q0 -20 -6 -45t-22.5 -43.5t-22.5 -12.5q4 -4 18 58q6 20 6 39q0 133 -233 133q-109 0 -265.5 -62.5t-295.5 -158.5q-414 -283 -414 -562z" />
<glyph unicode="&#xce;" horiz-adv-x="1447" d="M1033 1502q0 10 16 21q352 207 604 397q39 29 72 29t41 -29q80 -260 139 -397q14 -33 -12 -33q-14 0 -37 33q-86 125 -168 325q-315 -215 -547 -325q-59 -29 -92 -29q-16 0 -16 8zM12 109q0 172 119 342q102 150 264 258q111 74 248 131q-33 31 -33 98q0 203 267 330 q215 100 440 100q342 0 754 -127q137 -43 192 -78q13 -8 13 -16q0 -2 -1 -4q-2 -4 -21.5 3t-35.5 7q-104 0 -336 -211q-156 -143 -319 -332q-375 -432 -672 -616q-276 -174 -557 -174q-322 0 -322 289zM45 106q0 -251 277 -251h2q375 0 1112 737q544 545 751 582 q-421 126 -861 126h-7q-264 0 -451 -88q-199 -92 -229 -251q-4 -20 -4 -38q0 -49 29 -77q173 67 351 67h5q106 0 178 -34q82 -41 82 -119q0 -20 -6 -45t-22.5 -43.5t-22.5 -12.5q4 -4 18 58q6 20 6 39q0 133 -233 133q-109 0 -265.5 -62.5t-295.5 -158.5 q-414 -283 -414 -562z" />
<glyph unicode="&#xd1;" horiz-adv-x="2023" d="M1358 1474q0 8 10 30q66 141 231 142q61 0 186.5 -37t178.5 -37q88 0 159 84q23 24 33 18q14 -8 -2 -39q-78 -145 -223 -145q-61 0 -184 39t-176 39q-86 0 -166 -80q-31 -27 -37 -25q-10 2 -10 11zM10 115q0 127 90 268q80 125 195 207q172 123 356 155q-33 31 -33 101 q0 109 93 213q111 125 318.5 201.5t451.5 80.5h27q299 0 575 -86q109 -35 231 -110q18 -10 10 -21q-8 -4 -14 0q-39 23 -63 23q-111 -14 -213 -189q-92 -154 -154 -360q-82 -272 -182 -440q193 258 532 594q499 493 840 493h4q88 0 139 -53q43 -43 43 -92q0 -18 -4 -21 q-10 -2 -10 15q-37 88 -178 88q-348 0 -813 -459q-340 -336 -621 -696q-10 -23 -35 -68q-36 -62 -58 -62q-3 0 -7 1q-13 4 -13 17q0 19 27 58q20 39 80 103q27 49 64 205q51 227 69 290q70 242 199 400q98 119 186 162q-18 -4 -47 -13q-76 -29 -174 -106 q-184 -143 -424 -400q-176 -188 -194 -206q-125 -131 -220 -215q-182 -164 -397 -252q-203 -82 -389 -82q-143 0 -219 73q-68 68 -68 183zM43 115q0 -100 59 -160q68 -66 191 -66q307 0 747 373q211 178 375 342q264 264 455 412q117 90 217 125q68 23 132 23q10 0 19 -1 q-291 132 -689 132q-33 0 -68 -1q-227 -6 -428 -87t-320 -218q-74 -86 -74 -170q0 -47 23 -67q56 8 115 8q29 0 59 -2q92 -6 155.5 -60.5t63.5 -132.5q0 -31 -11 -63.5t-28 -32.5q-2 0 -4 2l8 33q6 25 7 49q0 72 -54.5 122t-142.5 56q-15 1 -30 1q-113 0 -247 -52 q-131 -51 -243.5 -134t-190.5 -190q-96 -129 -96 -241z" />
<glyph unicode="&#xd2;" horiz-adv-x="1603" d="M1551 1622q-2 57 43 57t43 -66q-4 -94 53 -157q12 -17 6 -21q-6 -6 -22 4q-39 27 -76 76q-45 61 -47 107zM94 152v14q0 167 135 383q150 236 394 420q451 342 921 342q174 0 283 -66q135 -80 145 -244q1 -11 1 -22q0 -117 -78 -221q-85 -114 -216 -135 q-115 -188 -262 -324q-205 -188 -459 -313q-260 -127 -469 -136q-14 -1 -27 -1q-138 0 -231 57q-131 76 -137 246zM463 -119q26 0 55 2q-160 31 -160 205q0 94 48 195q141 307 440 532q174 131 377 209q193 72 344 72q33 0 61 -4q70 -8 117 -55.5t47 -118.5 q0 -100 -100 -275q106 35 174 148q56 95 56 189q0 12 -1 24q-23 274 -352 274q-397 0 -873 -375q-254 -201 -401 -391q-156 -204 -156 -354q0 -277 324 -277zM387 80q0 -184 213 -184q375 74 778 454q135 127 238 262q147 195 147 312q0 145 -180 145q-285 0 -688 -309 q-344 -262 -459 -494q-49 -98 -49 -186z" />
<glyph unicode="&#xd4;" horiz-adv-x="1603" d="M1260 1445q0 10 16 21q352 207 604 397q39 29 72 29t41 -29q80 -260 139 -397q14 -33 -12 -33q-14 0 -37 33q-86 125 -168 325q-315 -215 -547 -325q-59 -29 -92 -29q-16 0 -16 8zM94 152v14q0 167 135 383q150 236 394 420q451 342 921 342q174 0 283 -66 q135 -80 145 -244q1 -11 1 -22q0 -117 -78 -221q-85 -114 -216 -135q-115 -188 -262 -324q-205 -188 -459 -313q-260 -127 -469 -136q-14 -1 -27 -1q-138 0 -231 57q-131 76 -137 246zM463 -119q26 0 55 2q-160 31 -160 205q0 94 48 195q141 307 440 532q174 131 377 209 q193 72 344 72q33 0 61 -4q70 -8 117 -55.5t47 -118.5q0 -100 -100 -275q106 35 174 148q56 95 56 189q0 12 -1 24q-23 274 -352 274q-397 0 -873 -375q-254 -201 -401 -391q-156 -204 -156 -354q0 -277 324 -277zM387 80q0 -184 213 -184q375 74 778 454q135 127 238 262 q147 195 147 312q0 145 -180 145q-285 0 -688 -309q-344 -262 -459 -494q-49 -98 -49 -186z" />
<glyph unicode="&#xd5;" horiz-adv-x="1603" d="M1395 1444q0 8 10 30q66 141 231 142q61 0 186.5 -37t178.5 -37q88 0 159 84q23 24 33 18q14 -8 -2 -39q-78 -145 -223 -145q-61 0 -184 39t-176 39q-86 0 -166 -80q-31 -27 -37 -25q-10 2 -10 11zM94 152v14q0 167 135 383q150 236 394 420q451 342 921 342 q174 0 283 -66q135 -80 145 -244q1 -11 1 -22q0 -117 -78 -221q-85 -114 -216 -135q-115 -188 -262 -324q-205 -188 -459 -313q-260 -127 -469 -136q-14 -1 -27 -1q-138 0 -231 57q-131 76 -137 246zM463 -119q26 0 55 2q-160 31 -160 205q0 94 48 195q141 307 440 532 q174 131 377 209q193 72 344 72q33 0 61 -4q70 -8 117 -55.5t47 -118.5q0 -100 -100 -275q106 35 174 148q56 95 56 189q0 12 -1 24q-23 274 -352 274q-397 0 -873 -375q-254 -201 -401 -391q-156 -204 -156 -354q0 -277 324 -277zM387 80q0 -184 213 -184q375 74 778 454 q135 127 238 262q147 195 147 312q0 145 -180 145q-285 0 -688 -309q-344 -262 -459 -494q-49 -98 -49 -186z" />
<glyph unicode="&#xd9;" horiz-adv-x="1640" d="M1298 1622q-2 57 43 57t43 -66q-4 -94 53 -157q12 -17 6 -21q-6 -6 -22 4q-39 27 -76 76q-45 61 -47 107zM76 487q6 135 94 287q98 172 256 283q336 236 815 248h44q239 0 470 -60q23 10 45 10q31 0 12 -28q33 -10 78 -33q29 -20 19 -31q-4 -4 -33 10.5t-78 30.5 l-127 -80q-356 -236 -659 -516q-248 -229 -385 -422q-109 -152 -109 -221q0 -47 57 -47q86 0 322 164q86 59 537 422q137 111 669 516q59 63 181 182q96 88 135 88q26 1 26 -30q0 -35 -53 -86q-80 -78 -262 -183l-463 -465q-215 -227 -362 -460q-53 -84 -72 -129 q-3 -1 -6 -1q-33 0 -33 60q0 57 41 131q113 207 326 405q39 49 157 148l-6 8l-188 -158q-430 -360 -613 -481q-254 -170 -356 -170q-49 0 -80 33t-31 80q0 92 103 246q147 223 457 495q352 313 704 492q-177 40 -391 40q-36 0 -74 -1q-182 -6 -385 -74q-217 -74 -397 -199 q-160 -111 -256 -256q-90 -137 -94 -256v-23q0 -221 149 -333q23 -14 23 -23q-4 -14 -23 -2q-185 95 -185 350q0 19 1 39z" />
<glyph unicode="&#xdb;" horiz-adv-x="1640" d="M1006 1445q0 10 16 21q352 207 604 397q39 29 72 29t41 -29q80 -260 139 -397q14 -33 -12 -33q-14 0 -37 33q-86 125 -168 325q-315 -215 -547 -325q-59 -29 -92 -29q-16 0 -16 8zM76 487q6 135 94 287q98 172 256 283q336 236 815 248h44q239 0 470 -60q23 10 45 10 q31 0 12 -28q33 -10 78 -33q29 -20 19 -31q-4 -4 -33 10.5t-78 30.5l-127 -80q-356 -236 -659 -516q-248 -229 -385 -422q-109 -152 -109 -221q0 -47 57 -47q86 0 322 164q86 59 537 422q137 111 669 516q59 63 181 182q96 88 135 88q26 1 26 -30q0 -35 -53 -86 q-80 -78 -262 -183l-463 -465q-215 -227 -362 -460q-53 -84 -72 -129q-3 -1 -6 -1q-33 0 -33 60q0 57 41 131q113 207 326 405q39 49 157 148l-6 8l-188 -158q-430 -360 -613 -481q-254 -170 -356 -170q-49 0 -80 33t-31 80q0 92 103 246q147 223 457 495q352 313 704 492 q-177 40 -391 40q-36 0 -74 -1q-182 -6 -385 -74q-217 -74 -397 -199q-160 -111 -256 -256q-90 -137 -94 -256v-23q0 -221 149 -333q23 -14 23 -23q-4 -14 -23 -2q-185 95 -185 350q0 19 1 39z" />
<glyph unicode="&#xe0;" horiz-adv-x="643" d="M539 917q-2 57 43 57t43 -66q-4 -94 53 -157q12 -17 6 -21q-6 -6 -22 4q-39 27 -76 76q-45 61 -47 107zM-104 53q0 123 159 287q104 106 246.5 186t230.5 80q66 0 66 -45q0 -43 -63 -104q129 106 172 121q25 9 57 9q11 0 22 -1q-272 -244 -415 -416q-86 -102 -86 -133 q0 -12 10 -17q5 -2 11 -2q46 0 188 111q68 53 194 166q16 16 25 2q6 -12 -11 -27l-190 -161q-152 -123 -219 -123q-74 0 -74 67q0 45 41 107q-207 -174 -295 -174q-70 0 -69 67zM-39 37q0 -14 12 -21q4 -1 9 -1q35 0 138 74q118 85 245 214q205 211 204 250q1 22 -24 22 q-98 0 -395 -284q-188 -180 -189 -254z" />
<glyph unicode="&#xe2;" horiz-adv-x="643" d="M248 740q0 10 16 21q352 207 604 397q39 29 72 29t41 -29q80 -260 139 -397q14 -33 -12 -33q-14 0 -37 33q-86 125 -168 325q-315 -215 -547 -325q-59 -29 -92 -29q-16 0 -16 8zM-104 53q0 123 159 287q104 106 246.5 186t230.5 80q66 0 66 -45q0 -43 -63 -104 q129 106 172 121q25 9 57 9q11 0 22 -1q-272 -244 -415 -416q-86 -102 -86 -133q0 -12 10 -17q5 -2 11 -2q46 0 188 111q68 53 194 166q16 16 25 2q6 -12 -11 -27l-190 -161q-152 -123 -219 -123q-74 0 -74 67q0 45 41 107q-207 -174 -295 -174q-70 0 -69 67zM-39 37 q0 -14 12 -21q4 -1 9 -1q35 0 138 74q118 85 245 214q205 211 204 250q1 22 -24 22q-98 0 -395 -284q-188 -180 -189 -254z" />
<glyph unicode="&#xe3;" horiz-adv-x="643" d="M383 739q0 8 10 30q66 141 231 142q61 0 186.5 -37t178.5 -37q88 0 159 84q23 24 33 18q14 -8 -2 -39q-78 -145 -223 -145q-61 0 -184 39t-176 39q-86 0 -166 -80q-31 -27 -37 -25q-10 2 -10 11zM-104 53q0 123 159 287q104 106 246.5 186t230.5 80q66 0 66 -45 q0 -43 -63 -104q129 106 172 121q25 9 57 9q11 0 22 -1q-272 -244 -415 -416q-86 -102 -86 -133q0 -12 10 -17q5 -2 11 -2q46 0 188 111q68 53 194 166q16 16 25 2q6 -12 -11 -27l-190 -161q-152 -123 -219 -123q-74 0 -74 67q0 45 41 107q-207 -174 -295 -174q-70 0 -69 67 zM-39 37q0 -14 12 -21q4 -1 9 -1q35 0 138 74q118 85 245 214q205 211 204 250q1 22 -24 22q-98 0 -395 -284q-188 -180 -189 -254z" />
<glyph unicode="&#xe8;" horiz-adv-x="425" d="M503 917q-2 57 43 57t43 -66q-4 -94 53 -157q12 -17 6 -21q-6 -6 -22 4q-39 27 -76 76q-45 61 -47 107zM-98 94q12 125 159 266q102 98 232.5 172t202.5 74q61 0 61 -51q0 -61 -106 -137q-41 -29 -112 -53.5t-114 -24.5q-23 0 -32 6q-215 -203 -216 -297q0 -37 46 -37 q68 0 178 70q121 76 260 207q20 18 28 8t-10 -29q-119 -109 -235 -190q-137 -95 -232 -95q-9 0 -18 1q-93 9 -93 96q0 7 1 14zM205 358q6 -2 16 -2q84 0 207 97q94 76 94 114q0 9 -4 13q-3 2 -7 2q-27 0 -122 -68q-102 -76 -184 -156z" />
<glyph unicode="&#xea;" horiz-adv-x="425" d="M212 740q0 10 16 21q352 207 604 397q39 29 72 29t41 -29q80 -260 139 -397q14 -33 -12 -33q-14 0 -37 33q-86 125 -168 325q-315 -215 -547 -325q-59 -29 -92 -29q-16 0 -16 8zM-98 94q12 125 159 266q102 98 232.5 172t202.5 74q61 0 61 -51q0 -61 -106 -137 q-41 -29 -112 -53.5t-114 -24.5q-23 0 -32 6q-215 -203 -216 -297q0 -37 46 -37q68 0 178 70q121 76 260 207q20 18 28 8t-10 -29q-119 -109 -235 -190q-137 -95 -232 -95q-9 0 -18 1q-93 9 -93 96q0 7 1 14zM205 358q6 -2 16 -2q84 0 207 97q94 76 94 114q0 9 -4 13 q-3 2 -7 2q-27 0 -122 -68q-102 -76 -184 -156z" />
<glyph unicode="&#xec;" horiz-adv-x="348" d="M580 1132q-2 57 43 57t43 -66q-4 -94 53 -157q12 -17 6 -21q-6 -6 -22 4q-39 27 -76 76q-45 61 -47 107zM-106 47q0 98 151 256q197 207 315 270q41 22 95 22q9 0 18 -1q-285 -256 -426 -424q-82 -98 -82 -135q0 -20 23 -21q55 0 184 97q113 84 215 176q20 14 29 6 q10 -10 -8 -23q-82 -82 -218 -182q-141 -104 -219 -104t-77 63zM516 764q0 57 57 57q58 0 58 -57t-58 -57q-57 0 -57 57z" />
<glyph unicode="&#xee;" horiz-adv-x="348" d="M289 955q0 10 16 21q352 207 604 397q39 29 72 29t41 -29q80 -260 139 -397q14 -33 -12 -33q-14 0 -37 33q-86 125 -168 325q-315 -215 -547 -325q-59 -29 -92 -29q-16 0 -16 8zM-106 47q0 98 151 256q197 207 315 270q41 22 95 22q9 0 18 -1q-285 -256 -426 -424 q-82 -98 -82 -135q0 -20 23 -21q55 0 184 97q113 84 215 176q20 14 29 6q10 -10 -8 -23q-82 -82 -218 -182q-141 -104 -219 -104t-77 63zM516 764q0 57 57 57q58 0 58 -57t-58 -57q-57 0 -57 57z" />
<glyph unicode="&#xf1;" horiz-adv-x="684" d="M589 739q0 8 10 30q66 141 231 142q61 0 186.5 -37t178.5 -37q88 0 159 84q23 24 33 18q14 -8 -2 -39q-78 -145 -223 -145q-61 0 -184 39t-176 39q-86 0 -166 -80q-31 -27 -37 -25q-10 2 -10 11zM-133 6q-1 10 -1 19q0 17 5 28q76 145 264 342q109 113 189 166 q49 33 141 33q-127 -88 -285 -266q111 90 242 172q168 102 235 102q66 0 66 -55q0 -78 -191 -248q-74 -66 -163 -160q-74 -78 -74 -106q0 -20 20 -21q55 0 172 84l224 183q16 14 24 4q3 -3 3 -7q0 -9 -15 -24q-147 -127 -229 -184q-123 -86 -196 -86q-12 0 -22 2 q-49 12 -49 73q0 51 41 111q49 70 176 186l127 111q82 74 82 96q0 6 -6 8q-4 2 -10 2q-46 0 -204 -97q-179 -109 -283 -210q-119 -113 -261 -291q-16 0 -22 33z" />
<glyph unicode="&#xf2;" d="M514 917q-2 57 43 57t43 -66q-4 -94 53 -157q12 -17 6 -21q-6 -6 -22 4q-39 27 -76 76q-45 61 -47 107zM-90 78q0 129 160 291q102 104 231 172q121 65 204 65h3q76 0 76 -59q0 -106 -185 -295q-266 -268 -401 -268q-88 0 -88 94zM-31 43q0 -33 33 -33q86 0 375 293 q176 180 176 252q0 23 -27 23q-104 0 -381 -287q-176 -182 -176 -248z" />
<glyph unicode="&#xf4;" d="M222 740q0 10 16 21q352 207 604 397q39 29 72 29t41 -29q80 -260 139 -397q14 -33 -12 -33q-14 0 -37 33q-86 125 -168 325q-315 -215 -547 -325q-59 -29 -92 -29q-16 0 -16 8zM-90 78q0 129 160 291q102 104 231 172q121 65 204 65h3q76 0 76 -59q0 -106 -185 -295 q-266 -268 -401 -268q-88 0 -88 94zM-31 43q0 -33 33 -33q86 0 375 293q176 180 176 252q0 23 -27 23q-104 0 -381 -287q-176 -182 -176 -248z" />
<glyph unicode="&#xf5;" d="M358 739q0 8 10 30q66 141 231 142q61 0 186.5 -37t178.5 -37q88 0 159 84q23 24 33 18q14 -8 -2 -39q-78 -145 -223 -145q-61 0 -184 39t-176 39q-86 0 -166 -80q-31 -27 -37 -25q-10 2 -10 11zM-90 78q0 129 160 291q102 104 231 172q121 65 204 65h3q76 0 76 -59 q0 -106 -185 -295q-266 -268 -401 -268q-88 0 -88 94zM-31 43q0 -33 33 -33q86 0 375 293q176 180 176 252q0 23 -27 23q-104 0 -381 -287q-176 -182 -176 -248z" />
<glyph unicode="&#xf9;" horiz-adv-x="641" d="M776 917q-2 57 43 57t43 -66q-4 -94 53 -157q12 -17 6 -21q-6 -6 -22 4q-39 27 -76 76q-45 61 -47 107zM-106 45q0 102 153.5 264t310.5 252q44 26 104 26q11 0 23 -1q-293 -240 -434 -414q-88 -109 -88 -135q0 -12 10 -17q6 -3 14 -3q50 0 183 106q72 57 195 184 q195 203 311 271q34 21 85 21q12 0 25 -1q-264 -244 -413 -426q-90 -111 -90 -137q0 -10 10 -15q5 -2 12 -2q46 0 176 103q4 4 199 170q18 12 27 4q10 -10 -7 -23q-72 -70 -196 -168q-150 -118 -210 -118h-3q-74 4 -74 67q0 47 39 113q-27 -27 -72 -62q-153 -118 -220 -118 h-1q-70 0 -69 59z" />
<glyph unicode="&#xfb;" horiz-adv-x="641" d="M485 740q0 10 16 21q352 207 604 397q39 29 72 29t41 -29q80 -260 139 -397q14 -33 -12 -33q-14 0 -37 33q-86 125 -168 325q-315 -215 -547 -325q-59 -29 -92 -29q-16 0 -16 8zM-106 45q0 102 153.5 264t310.5 252q44 26 104 26q11 0 23 -1q-293 -240 -434 -414 q-88 -109 -88 -135q0 -12 10 -17q6 -3 14 -3q50 0 183 106q72 57 195 184q195 203 311 271q34 21 85 21q12 0 25 -1q-264 -244 -413 -426q-90 -111 -90 -137q0 -10 10 -15q5 -2 12 -2q46 0 176 103q4 4 199 170q18 12 27 4q10 -10 -7 -23q-72 -70 -196 -168 q-150 -118 -210 -118h-3q-74 4 -74 67q0 47 39 113q-27 -27 -72 -62q-153 -118 -220 -118h-1q-70 0 -69 59z" />
<glyph unicode="&#x2c6;" horiz-adv-x="1157" d="M154 354q0 10 16 21q352 207 604 397q39 29 72 29t41 -29q80 -260 139 -397q14 -33 -12 -33q-14 0 -37 33q-86 125 -168 325q-315 -215 -547 -325q-59 -29 -92 -29q-16 0 -16 8z" />
<glyph unicode="&#x2dc;" horiz-adv-x="1024" d="M-149 133q0 8 10 30q66 141 231 142q61 0 186.5 -37t178.5 -37q88 0 159 84q23 24 33 18q14 -8 -2 -39q-78 -145 -223 -145q-61 0 -184 39t-176 39q-86 0 -166 -80q-31 -27 -37 -25q-10 2 -10 11z" />
<glyph unicode="&#x410;" horiz-adv-x="1820" d="M-14 84q0 166 139 340q117 147 283 248q229 141 553 176q-63 45 -54 131q20 188 264 301q217 100 502 100q264 0 510 -45q127 -23 381 -90q49 -12 199 -61q24 -9 24 -17q-6 -12 -22 -6q-47 16 -92 13q-137 -14 -418 -256q-221 -186 -408 -400q-180 -205 -305 -412 l-64 -106q-34 -53 -55 -47q-23 6 -22 37q0 35 29 94q43 90 163 258q39 80 39 150q0 66 -35 120l-96 -92q-692 -690 -1202 -690q-313 0 -313 254zM20 80q0 -225 269 -225q215 0 487 174q238 152 613 499q83 79 163 142q-166 160 -499 147q-125 -4 -299 -63.5t-301 -139.5 q-432 -272 -433 -534zM934 969q-8 -80 59 -117q37 4 58 4q354 6 522 -168q367 299 715 428q213 78 358 86q-25 6 -78 17q-250 47 -362 61q-231 29 -535 29q-274 0 -489 -90q-231 -98 -248 -250zM1618 631q43 -68 43 -142q0 -37 -10 -73q76 98 170 194q471 482 776 566 q-106 -8 -273 -76q-342 -137 -706 -469z" />
<glyph unicode="&#x411;" horiz-adv-x="1726" d="M-35 -14q4 51 123 61q53 4 127 -8q-12 76 -8 156q8 207 47 391q139 752 688 751q367 -12 887 -123q92 74 194 103q12 4 23.5 6t17.5 2q8 -2 7 -8q-4 -8 -35 -19q-84 -27 -156 -94q229 -59 410 -88q78 -12 112 -8q35 4 39 -5t-35 -13q-47 -12 -125 -3q-182 23 -448 74 q-121 -80 -262 -241q-25 -27 -215 -258q29 6 84 -31q180 -111 180 -277q0 -84 -47 -161q-82 -135 -283 -216q-182 -74 -393 -75q-248 -4 -522 57q-39 10 -113 25q49 -170 184 -258q129 -84 316 -76q135 6 233 76q31 23 35 18q14 -12 -17.5 -40t-107.5 -54q-82 -27 -149 -29 q-203 -6 -342.5 89t-184.5 267q-100 -23 -182 -24q-37 0 -60.5 8t-21.5 25zM242 195q-4 -90 10 -162q55 -14 125 0q193 39 381 182q154 119 409 395q426 451 607 561q-455 80 -824 95q-417 4 -659 -713q-43 -178 -49 -358zM326 0l57 -12q260 -55 524 -54q170 2 325.5 81 t237.5 206q59 90 60 189q-12 133 -119 198q-27 18 -74 33q-16 -23 -30 -39q-492 -553 -981 -602z" />
<glyph unicode="&#x412;" horiz-adv-x="1726" d="M-35 -14q4 51 123 61q53 4 127 -8q-12 76 -8 156q8 207 96 413q94 221 254 379q174 172 420 268.5t493 90.5q240 -6 369 -121q109 78 205 102q31 8 55 8q29 0 27 -10q0 -6 -19 -6q-29 -4 -49 -10q-111 -37 -196 -109q80 -98 80 -213q0 -88 -54 -162q-61 -86 -194 -147 q-115 -53 -226 -68q152 -90 152 -256q0 -84 -47 -161q-82 -135 -283 -216q-182 -74 -393 -75q-248 -4 -522 57q-39 10 -113 25q49 -170 184 -258q129 -84 316 -76q135 6 233 76q31 23 35 18q14 -12 -17.5 -40t-107.5 -54q-82 -27 -149 -29q-203 -6 -342.5 89t-184.5 267 q-100 -23 -182 -24q-37 0 -60.5 8t-21.5 25zM242 195q-4 -90 10 -162q55 -14 125 0q193 39 381 182q154 119 409 395q421 455 648 598q-129 104 -345 107q-469 6 -849 -367q-178 -174 -279 -379q-94 -195 -100 -374zM326 0l57 -12q260 -55 524 -54q170 2 325.5 81t237.5 206 q59 90 60 189q0 150 -119 198q-23 -4 -48.5 7.5t-25.5 25.5q-16 -23 -30 -39q-492 -553 -981 -602zM1356 662q29 6 84 -31q225 20 366 221q72 100 72 199q0 76 -39 131q-127 -100 -268 -262q-25 -27 -215 -258z" />
<glyph unicode="&#x413;" horiz-adv-x="1572" d="M109 113q0 168 131 350q-84 57 -82 209q2 270 268 461q328 236 936 215q367 -12 887 -123q92 74 194 102q12 4 23.5 6t17.5 2q8 -2 6 -8q-4 -8 -34 -18q-84 -27 -156 -95q229 -59 410 -88q78 -12 112 -8l35 4q8 -18 -31 -22q-47 -12 -125 -2q-182 23 -444 73 q-190 -170 -658 -663q-651 -690 -1202 -666q-289 12 -288 271zM141 129q-20 -246 265 -254q387 -10 1095 668q362 348 371 354q193 181 326 285q-459 80 -828 94q-588 23 -911 -180q-272 -172 -271 -422q2 -133 64 -195q115 145 272 254q143 100 324 160q199 66 362 55 q219 -14 209 -194q-2 -31 -16 -31q-10 2 -8 41q4 68 -49.5 112t-139.5 46q-135 4 -327 -82q-156 -70 -304 -174q-414 -295 -434 -537z" />
<glyph unicode="&#x414;" horiz-adv-x="1955" d="M-47 10q0 51 113 64q63 6 124 -6q-33 104 -32 235q0 449 383 762q346 283 776 283q299 0 479 -131q121 94 229 114q35 6 58 6q26 0 24 -10q0 -6 -18 -8q-35 -4 -49 -8q-106 -25 -211 -121q190 -168 190 -434q0 -43 -8 -82q-61 -313 -334 -527q-262 -205 -731 -200 q-164 2 -387 33l-317 45q123 -309 530 -310q129 0 223 64q33 23 35 20q14 -10 -14 -35q-88 -76 -254 -75q-416 0 -553 325q-94 -29 -174 -37q-33 -2 -58.5 7.5t-23.5 25.5zM197 287q0 -127 32 -224q250 8 455 134q195 117 469 413q402 432 619 588q-150 115 -414 115 q-410 0 -768 -297q-393 -326 -393 -729zM344 45q309 -63 604 -63q410 0 682 251q246 230 293 480q10 57 10 114q0 209 -129 344q-135 -115 -288 -299l-224 -270q-272 -307 -530 -440q-197 -102 -418 -117z" />
<glyph unicode="&#x415;" horiz-adv-x="1388" d="M70 418q-4 309 299 577q330 291 839 291q184 0 410 -49q176 53 362 53q47 0 93 -4q90 -8 143 -45q47 -35 47 -80q0 -14 -4 -28q-12 -35 -80 -35q-49 0 -264 41q-82 16 -256 47q-233 -86 -395 -293q-76 -96 -76 -166q0 -16 6 -29q35 4 113 -20q63 -25 57 -45 q-12 -23 -70 -10q-76 23 -112 55q-90 2 -264 -86q-166 -84 -286 -207t-161 -246q-16 -47 -16 -88q0 -147 178 -153q131 -4 313 75q168 72 324 189q51 39 141 114q63 53 68 54q10 0 10 -11q0 -10 -55 -59q-80 -72 -136 -115q-154 -119 -333 -198q-193 -86 -334 -86 q-127 0 -205 59q-86 63 -78 174q-135 10 -209 103q-68 86 -69 221zM104 416q2 -125 67 -206t181 -89q16 129 142 266q106 117 241 193q195 111 432 118q-16 25 -16 72q0 70 39 140.5t121 146.5q98 94 217 147q-170 18 -314 19q-498 0 -817 -258q-137 -111 -216 -261.5 t-77 -287.5zM1737 1212l186 -47q180 -47 254 -47q49 0 61 25q4 8 5 18q0 35 -43 64.5t-121 36.5q-145 12 -342 -50z" />
<glyph unicode="&#x416;" horiz-adv-x="2263" d="M57 141q25 299 363 592q190 164 444 240q-10 33 31 90q78 109 239.5 178.5t335.5 69.5q158 0 263 -66q127 -76 127 -225q-14 -174 -111 -293q43 37 401 303q158 106 211 107q31 0 31 -31q0 -27 -61 -121q-86 -131 -351 -432q-98 -113 -372 -397q-127 -133 -133 -183 q0 -18 16 -20q78 -14 264 139q143 117 569 518q799 754 1174 738q201 -8 246 -170q6 -12 -4 -15q-4 -4 -13 8q-59 96 -233 103q-340 -8 -903 -502q-322 -293 -510 -563q-109 -156 -125 -270q0 -31 -14 -64q-23 -6 -23 66q0 86 35 172q51 125 110 194q-174 -156 -292 -246 q-188 -141 -291 -141q-57 0 -58 53q-8 76 113 230q113 143 420 471q162 172 276 330q25 33 21 40q-6 6 -82 -45q-111 -76 -266 -202q-119 -96 -291 -248q-655 -737 -1249 -709q-135 2 -218 68q-102 80 -90 233zM92 141q-12 -133 74 -204q76 -63 199 -66q496 -12 1099 604 q269 272 320 471q10 37 10 74q0 127 -100 192q-84 55 -215 56q-164 0 -329 -64.5t-232 -156.5q-31 -41 -33 -68q129 35 229 27q197 -16 197 -191q0 -23 -4 -47q-27 -205 -244 -385q-268 -223 -524 -223q-43 0 -66 14q-35 20 -16 35l22 -14q33 -14 60 -15q190 0 487 248 q254 211 254 391q0 150 -174 162q-141 10 -330 -88q-158 -84 -311 -221q-354 -315 -373 -531z" />
<glyph unicode="&#x417;" horiz-adv-x="1259" d="M-455 -219q23 174 224 289q193 111 432 106q186 -2 334.5 -66.5t185.5 -168.5l63 57q80 74 134.5 164t58.5 155q4 68 -53 93q-53 -16 -121 -27q-33 -4 -60.5 4t-23.5 29q14 51 127 43q78 -6 106 -17q240 53 467 275q199 195 267 379q23 63 22 110q0 104 -113 115 q-123 10 -299 -80q-131 -68 -239 -160q-276 -233 -277 -389q0 -90 103 -90q119 0 291 170q66 66 126 184q27 53 25 54q2 -10 6 -19q-2 -20 -8 -43q-29 -94 -119 -188q-170 -178 -319 -178q-39 0 -72 14q-63 29 -63 113q0 86 68.5 198.5t178.5 202.5q125 100 267 166 q164 74 297 74q215 0 215 -193q-1 -45 -13 -96q-45 -176 -247 -356q-231 -207 -535 -279q68 -51 68 -133q0 -70 -47.5 -164t-118.5 -166q-193 -193 -462 -308.5t-532 -115.5q-178 0 -268 63.5t-76 178.5zM-428 -250q0 -84 84 -130t231 -46q395 0 813 348q-37 100 -175 155.5 t-322 53.5q-201 -2 -391 -90q-240 -111 -240 -291z" />
<glyph unicode="&#x418;" horiz-adv-x="1640" d="M76 487q6 135 94 287q98 172 256 283q336 236 815 248q262 6 514 -60q23 10 45 10q31 0 12 -28q33 -10 78 -33q29 -20 19 -31q-4 -4 -33 10.5t-78 30.5l-127 -80q-356 -236 -659 -516q-248 -229 -385 -422q-109 -152 -109 -221q0 -47 57 -47q86 0 322 164q86 59 537 422 q137 111 669 516q59 63 181 182q96 88 135 88q26 1 26 -30q0 -35 -53 -86q-80 -78 -262 -183l-463 -465q-215 -227 -362 -460q-53 -84 -72 -129q-39 -6 -39 59q0 57 41 131q113 207 326 405q39 49 157 148l-6 8l-188 -158q-430 -360 -613 -481q-254 -170 -356 -170 q-49 0 -80 33t-31 80q0 92 103 246q147 223 457 495q352 313 704 492q-207 47 -465 39q-182 -6 -385 -74q-217 -74 -397 -199q-160 -111 -256 -256q-90 -137 -94 -256q-8 -238 149 -356q23 -14 23 -23q-4 -14 -23 -2q-199 102 -184 389z" />
<glyph unicode="&#x419;" horiz-adv-x="1640" d="M76 487q6 135 94 287q98 172 256 283q336 236 815 248q262 6 514 -60q23 10 45 10q31 0 12 -28q33 -10 78 -33q29 -20 19 -31q-4 -4 -33 10.5t-78 30.5l-127 -80q-356 -236 -659 -516q-248 -229 -385 -422q-109 -152 -109 -221q0 -47 57 -47q86 0 322 164q86 59 537 422 q137 111 669 516q59 63 181 182q96 88 135 88q26 1 26 -30q0 -35 -53 -86q-80 -78 -262 -183l-463 -465q-215 -227 -362 -460q-53 -84 -72 -129q-39 -6 -39 59q0 57 41 131q113 207 326 405q39 49 157 148l-6 8l-188 -158q-430 -360 -613 -481q-254 -170 -356 -170 q-49 0 -80 33t-31 80q0 92 103 246q147 223 457 495q352 313 704 492q-207 47 -465 39q-182 -6 -385 -74q-217 -74 -397 -199q-160 -111 -256 -256q-90 -137 -94 -256q-8 -238 149 -356q23 -14 23 -23q-4 -14 -23 -2q-199 102 -184 389zM2114 1602q0 16 12 16q8 0 18 -12 q20 -35 43 -117q176 94 267 125q29 12 28 -2q14 -10 -6 -21q-166 -94 -301 -186q-25 -16 -31 -16q-14 0 -14 26q-2 93 -16 187z" />
<glyph unicode="&#x41a;" horiz-adv-x="1957" d="M45 109q0 168 125 342q104 147 266 258q117 80 250 133q-39 12 -39 94q0 205 250 330q203 102 426 102q373 0 786 -127q53 -16 156 -57q41 -23 35 -37q0 4 -31 10h-20q-109 -14 -334 -223q-154 -143 -311 -324q-373 -430 -672 -614q-279 -170 -561 -170q-326 0 -326 283z M76 106q0 -250 286 -249q377 0 1113 735q530 531 745 584q-47 16 -109 30q-408 100 -786 94q-248 -4 -424 -92q-186 -94 -219 -250q-18 -86 18 -112q184 70 361 69q106 0 176 -34q84 -41 84 -121q0 -20 -6 -43t-23.5 -42.5t-23.5 -15.5q-2 2 -2 5q0 4 8 20t13 34.5t5 37.5 q0 131 -231 131q-111 0 -267.5 -61.5t-295.5 -157.5q-422 -289 -422 -562zM1608 129q0 88 30.5 236.5t112.5 326.5q106 86 295 195q317 182 455 246q258 119 383 118q114 0 151 -94q4 -25 -4 -29q-2 0 -14 17q-39 49 -131 49q-135 0 -336 -88q-193 -84 -484 -250 q-156 -88 -215 -135q-78 -193 -110 -365q-39 -207 -15 -288q16 -41 58 -41q39 0 90 39q10 6 14 2q6 -6 -4 -17q-74 -84 -158 -84q-76 0 -102 60q-16 37 -16 102z" />
<glyph unicode="&#x41b;" horiz-adv-x="1855" d="M86 172q0 313 340 641q162 156 346 240q166 76 303 75q94 0 150 -36q74 -51 73 -154q0 -70 -30 -147q-90 -221 -320 -433q-287 -262 -532 -262q-90 0 -115 62q-12 31 4 30q2 0 21 -30q23 -39 88 -39q119 0 262 96q78 53 237 199q250 225 322 387q35 76 35 145 q0 84 -60 125q-47 31 -114 31q-252 0 -619 -348q-358 -342 -358 -600q0 -106 58.5 -172t158.5 -80q33 -4 67 -4q209 0 445 190q197 158 481 512q324 403 546 572t435 169q172 0 219 -102q8 -18 4 -39q-4 -27 -24 -26q-10 -2 -33 43q-49 100 -176 100q-178 0 -393 -203 q-154 -143 -477 -553q-547 -694 -1008 -694q-43 0 -84 6q-252 37 -252 299zM1415 18q0 29 15 60q43 92 198.5 276.5t315.5 335.5q467 442 825 602q102 53 211 45q59 -4 59 -28q0 -4 -2 -4q-6 -4 -18 0q-18 6 -31 8q-63 8 -135 -15q-285 -88 -877 -710q-293 -307 -430 -510 q-72 -106 -104 -105q-27 0 -27 45z" />
<glyph unicode="&#x41c;" horiz-adv-x="2265" d="M10 94q0 133 94 281q86 129 207 215q186 131 394 160q-37 25 -37 104q0 109 92 213q111 125 318.5 200.5t453.5 80.5q422 6 825 -103q113 -31 158 -57q33 -18 22 -29q-2 -4 -34.5 13.5t-69.5 29.5q-61 -4 -129 -61q-80 -66 -197 -213l-211 -275q-209 -268 -321 -389 q379 324 526 438q403 317 819 521q80 39 197 73q164 49 272 41q59 -4 60 -28q0 -4 -2 -4q-6 -4 -19 0q-18 6 -30 8q-63 8 -136 -15q-285 -88 -876 -710q-293 -307 -430 -510q-72 -106 -105 -105q-27 0 -26 45q0 29 14 60q43 92 198.5 276.5t315.5 335.5q467 442 805 586 q-117 -29 -221 -82q-408 -205 -811 -520q-279 -217 -651 -537q-33 -55 -64 -92q-70 -84 -104 -84q-6 0 -11 2q-10 4 -10 17q0 31 39 69q25 25 123 109l330 508q281 399 573 526q-39 -10 -119 -35q-115 -43 -282 -156q-133 -90 -404 -350l-487 -479q-391 -342 -785 -315 q-264 18 -264 237zM43 100q0 -88 58.5 -145t162.5 -66q154 -12 365 86q193 92 391 254q92 76 440 402l228 211q113 98 229 178q166 115 334 164q88 26 141 30q-383 92 -860 80q-231 -6 -428 -82q-205 -78 -320 -215q-76 -90 -75 -176q0 -57 30 -67q82 8 152 4 q94 -6 157.5 -62.5t63.5 -134.5q0 -29 -10 -57q-12 -35 -31 -35q-2 0 -4 2l6 33q6 25 6 49q0 72 -54 121t-140 57q-252 23 -545 -188q-113 -80 -195 -193q-102 -135 -102 -250z" />
<glyph unicode="&#x41d;" horiz-adv-x="1988" d="M53 86q0 31 4 66q20 145 134 292.5t292 255.5q47 29 129 68q-74 61 -73 158q0 225 295 348q223 92 483 92q414 0 942 -139q100 -27 156 -51q47 -20 39 -33q-4 -2 -17 4q-18 6 -24 6q-8 2 -31 0q-197 -16 -619 -473q55 -84 56 -174q0 -49 -17 -100q129 147 236 245 q604 565 1026 566q168 0 221 -78q18 -27 0 -37l-29 20q-72 72 -186 72q-397 0 -1010 -641q-217 -227 -395 -473l-61 -86q-25 -31 -45 -33q-29 -2 -29 31q0 88 217 346q43 88 43 166q0 82 -47 153q-29 -31 -78 -88q-362 -422 -747 -608q-276 -135 -529 -135q-336 0 -336 260z M86 84q0 -227 291 -227q207 0 508 180q309 186 637 514l53 53l117 113q-147 141 -445 149q-156 4 -366 -67q-193 -68 -355 -168q-395 -248 -434 -486q-6 -33 -6 -61zM569 924q0 -86 72 -144q309 131 608 117q319 -16 467 -158q436 402 635 435q-23 8 -88 22 q-475 100 -946 100q-231 0 -451 -77q-297 -104 -297 -295z" />
<glyph unicode="&#x41e;" horiz-adv-x="1603" d="M94 152q-6 172 135 397q150 236 394 420q451 342 921 342q174 0 283 -66q135 -80 145 -244q8 -129 -77 -243.5t-216 -134.5q-115 -188 -262 -324q-205 -188 -459 -313q-260 -127 -469 -136q-156 -6 -258 56q-131 76 -137 246zM139 154q2 -295 379 -271q-160 31 -160 205 q0 94 48 195q141 307 440 532q174 131 377 209q193 72 344 72q33 0 61 -4q70 -8 117 -55.5t47 -118.5q0 -100 -100 -275q106 35 174 148q63 107 55 213q-23 274 -352 274q-397 0 -873 -375q-254 -201 -401 -391q-158 -207 -156 -358zM387 80q0 -184 213 -184q375 74 778 454 q135 127 238 262q147 195 147 312q0 145 -180 145q-285 0 -688 -309q-344 -262 -459 -494q-49 -98 -49 -186z" />
<glyph unicode="&#x41f;" horiz-adv-x="1988" d="M53 86q0 31 4 66q20 145 134 292.5t292 255.5q47 29 129 68q-74 61 -73 158q0 225 295 348q223 92 483 92q414 0 1315 -80q342 -33 420 -67q180 -2 233 -80q18 -27 0 -37l-29 20q-72 72 -164 68q6 -37 -88 -4q-332 8 -944 -633q-217 -227 -395 -473l-61 -86 q-25 -31 -45 -33q-29 -2 -29 31q0 88 217 346q184 215 291 313q623 559 891 555q-106 20 -432 41q-709 49 -1180 49q-231 0 -451 -77q-297 -104 -297 -295q0 -86 72 -144q309 131 608 117q121 0 205 -35q41 -18 10 -35q-72 35 -217 39q-156 4 -366 -67q-193 -68 -355 -168 q-395 -248 -434 -486q-6 -33 -6 -61q0 -227 291 -227q207 0 508 180q309 186 637 514l53 53l117 113q459 440 692 463q66 4 70 -37q-4 -2 -17 4q-18 6 -24 6q-8 2 -31 0q-197 -16 -619 -473l-98 -111q-362 -422 -747 -608q-276 -135 -529 -135q-336 0 -336 260z" />
<glyph unicode="&#x420;" horiz-adv-x="1421" d="M-197 -23q-4 41 72 60q49 12 105 12q104 0 208 -6q-18 74 -16 154q8 203 96 403q92 211 252 369q186 184 430 286q268 115 555 103q242 -10 353 -131q96 66 192 90q18 4 39 6q18 2 31 0q14 -2 12 -8q0 -6 -18 -6q-29 -4 -50 -11q-102 -35 -182 -98q74 -78 74 -209 q0 -109 -60 -196q-68 -98 -183.5 -157.5t-231.5 -59.5q-45 0 -90 10q-37 8 -37 24q0 6 4 11q12 14 41 0q14 -8 45 -19q215 -23 387 227q76 109 76 211q0 86 -47 140q-147 -113 -312 -301l-231 -279q-281 -317 -551 -450q-199 -98 -477 -125q414 -82 567 -72q205 12 318 156 q8 16 14 10q10 -6 -2 -41q-53 -152 -199.5 -260.5t-312.5 -114.5q-174 -6 -302 75t-175 230q-16 -2 -132 -28.5t-190 -26.5q-70 0 -72 22zM205 197q-2 -82 16 -154q467 31 965 567q213 231 313 328q180 176 334 274q-111 102 -328 113q-250 12 -499 -102 q-236 -106 -426 -305q-362 -375 -375 -721zM231 14q45 -139 175 -215q121 -70 274 -63q135 6 269 96t204 221q-133 -141 -309 -147q-133 -4 -260 20q-113 20 -330 88q-10 4 -23 0z" />
<glyph unicode="&#x421;" horiz-adv-x="1427" d="M57 408q0 188 115 372q109 176 279 291q317 213 763 213q199 0 435 -57q184 57 364 57q115 0 191.5 -42t76.5 -112q0 -55 -73 -55q-43 0 -295 58q-147 33 -252 49q-317 -125 -610 -377q-217 -186 -361 -391q-152 -215 -151 -348q0 -72 50 -116t148 -42q197 6 422 149 q96 61 266 197q29 23 35 16q12 -12 -18 -39q-168 -137 -268 -200q-238 -150 -441 -156q-104 -4 -180 40t-96 130q-20 -8 -56 -10q-164 -6 -254 93t-90 280zM92 412q-2 -168 81 -259.5t230 -91.5q14 0 52 9q-12 170 133 389q123 186 309 346q309 262 657 391q-154 18 -340 18 q-430 0 -727 -188q-178 -113 -285.5 -278.5t-109.5 -335.5zM1733 1206l188 -51q211 -57 283 -57q55 0 55 35q0 59 -70.5 91.5t-175.5 32.5q-133 0 -280 -51z" />
<glyph unicode="&#x422;" horiz-adv-x="2459" d="M53 86q0 31 4 66q20 145 134 292.5t292 255.5q47 29 129 68q-74 61 -73 158q0 225 295 348q223 92 483 92q414 0 1315 -80q365 -33 655 -100q92 37 203 35q211 -4 264 -82q18 -27 0 -37l-29 20q-72 72 -252 64q-72 2 -125 -15q33 -6 91 -24q27 -43 -66 -12l-74 16 q-291 -96 -770 -598q-217 -227 -395 -473l-61 -86q-25 -31 -45 -33q-29 -2 -29 31q0 88 217 346q184 215 291 313q430 406 723 512q-334 59 -733 84q-709 49 -1180 49q-231 0 -451 -77q-297 -104 -297 -295q0 -86 72 -144q309 131 608 117q121 0 205 -35q41 -18 10 -35 q-72 35 -217 39q-156 4 -366 -67q-193 -68 -355 -168q-395 -248 -434 -486q-6 -33 -6 -61q0 -227 291 -227q207 0 508 180q309 186 637 514l53 53l117 113q459 440 692 463q66 4 70 -37q-4 -2 -17 4q-18 6 -24 6q-8 2 -31 0q-197 -16 -619 -473l-98 -111 q-362 -422 -747 -608q-276 -135 -529 -135q-336 0 -336 260zM1565 -33q0 35 28 94q43 90 222 332q76 98 170 195q471 481 784 575q131 37 182 -18q-6 -12 -22 -6q-45 16 -93 12q-137 -14 -417 -256q-221 -186 -408 -399q-180 -205 -305 -412l-64 -106q-34 -54 -55 -48 q-23 6 -22 37z" />
<glyph unicode="&#x423;" horiz-adv-x="1796" d="M-158 -242q0 33 6 68q29 154 148 235q35 25 43 7q4 -2 -21 -21q-106 -78 -133 -217q-6 -35 -6 -68q0 -256 397 -256q387 0 873 408q106 90 211 197l254 258l495 516q-117 -84 -477 -383q-213 -176 -497 -352q-195 -121 -351 -189q-63 -29 -112 -29q-47 0 -58 33 q-16 49 111 168q147 127 469 430q223 225 428 479q63 78 104 152q-147 23 -387 23q-188 0 -405 -66q-236 -72 -390.5 -190.5t-239.5 -257t-85 -254.5q0 -213 137 -316q23 -14 23 -20q0 -10 -23 -4q-174 96 -174 348q0 131 80 282q92 172 246 283q330 236 829 235 q248 0 408 -32q20 51 27 84q33 -35 28 -95q119 -20 187 -61q29 -18 18 -31q-2 -2 -33 13q-76 33 -174 49q-16 -70 -45 -113q-164 -256 -557 -629q-98 -94 -405 -354q-86 -74 -82 -94q8 -33 92 6q152 70 319 176q156 100 420 305l324 264q244 197 422 316q369 248 618 248 q217 0 297 -162q4 -19 0 -21l-14 7q-59 70 -144 92q-51 12 -151 12q-174 0 -366.5 -90t-362.5 -254q-143 -139 -389 -430q-213 -254 -287 -334q-152 -170 -273 -268q-479 -389 -942 -389q-207 0 -318.5 75.5t-111.5 210.5z" />
<glyph unicode="&#x424;" horiz-adv-x="1918" d="M12 109q0 172 119 342q102 150 264 258q111 74 248 131q-33 31 -33 98q0 203 267 330q215 100 440 100q342 0 754 -127q137 -43 192 -78q16 -10 12 -20q-2 -4 -21.5 3t-35.5 7q-76 0 -207 -104q29 -18 57 -43q98 -104 99 -236q0 -109 -60 -197q-68 -98 -183.5 -157.5 t-231.5 -59.5q-45 0 -90 11q-37 8 -37 24q0 6 4 10q12 14 41 0q14 -8 45 -18q215 -23 387 227q76 109 76 211q0 86 -64 156q-41 37 -67 53q-43 -31 -105 -88q-156 -143 -319 -332q-375 -432 -672 -616q-276 -174 -557 -174q-322 0 -322 289zM45 106q0 -252 279 -251 q297 0 802 446q-127 0 -204 59q-86 63 -78 175q20 156 145 292q35 39 62 62q-139 0 -296 -62.5t-296 -158.5q-414 -283 -414 -562zM639 961q-14 -76 25 -115q176 67 409 63q68 59 158 111q195 111 432 119q199 6 315 -70q125 90 209 105q-424 127 -868 126q-264 0 -451 -88 q-199 -92 -229 -251zM950 492q0 -147 226 -150q109 98 260 250q326 326 516 457q-98 59 -246 59q-152 0 -293 -76q-131 -65 -223 -149q90 -43 90 -123q0 -20 -6 -45t-22.5 -43.5t-22.5 -12.5q4 -4 18 58q6 20 6 39q0 80 -86 110q-160 -164 -200 -286q-16 -47 -17 -88z" />
<glyph unicode="&#x425;" horiz-adv-x="1728" d="M57 141q25 299 363 592q190 164 444 240q-10 33 31 90q78 109 239.5 178.5t335.5 69.5q158 0 263 -66q127 -76 127 -225q-1 -219 -347 -586q-569 -606 -1148 -594q-135 2 -218 68q-102 80 -90 233zM92 141q-12 -133 74 -204q76 -63 199 -66q496 -12 1099 604 q269 272 320 471q10 37 10 74q0 127 -100 192q-84 55 -215 56q-164 0 -329 -64.5t-232 -156.5q-31 -41 -33 -68q129 35 229 27q197 -16 197 -191q0 -23 -4 -47q-27 -205 -244 -385q-268 -223 -524 -223q-43 0 -66 14q-35 20 -16 35l22 -14q33 -14 60 -15q190 0 487 248 q254 211 254 391q0 150 -174 162q-141 10 -330 -88q-158 -84 -311 -221q-354 -315 -373 -531zM1337 -59q0 86 35 172q51 125 187 303q166 219 391 418q276 244 553 370q246 113 442 113q201 0 256 -100q14 -25 -4 -27q-6 -2 -23 22q-86 78 -264 78q-334 0 -901 -518 q-322 -293 -510 -563q-109 -156 -125 -270q0 -31 -14 -64q-23 -6 -23 66z" />
<glyph unicode="&#x426;" horiz-adv-x="1802" d="M76 487q6 135 94 287q98 172 256 283q336 236 815 248q262 6 514 -60q23 10 45 10q31 0 12 -28q33 -10 78 -33q29 -20 19 -31q-4 -4 -33 10.5t-78 30.5l-127 -80q-356 -236 -659 -516q-248 -229 -385 -422q-109 -152 -109 -221q0 -47 57 -47q86 0 322 164q86 59 537 422 q137 111 669 516q59 63 181 182q96 88 135 88q27 0 26 -30q0 -35 -53 -86q-80 -78 -262 -183l-463 -465q-215 -227 -393 -526q262 74 375 -43q106 -143 -50 -299q-190 -162 -397 -217t-342 -43q-147 16 -184 108t24 203q115 150 332 146q147 -8 285.5 -83t189.5 -147 q145 137 103 244q-61 106 -201 80q-129 -31 -176 -12q-43 18 -39 59q0 57 41 131q113 207 326 405q39 49 157 148l-6 8l-188 -158q-430 -360 -613 -481q-254 -170 -356 -170q-49 0 -80 33t-31 80q0 92 103 246q147 223 457 495q352 313 704 492q-207 47 -465 39 q-182 -6 -385 -74q-217 -74 -397 -199q-160 -111 -256 -256q-90 -137 -94 -256q-8 -238 149 -356q23 -14 23 -23q-4 -14 -23 -2q-199 102 -184 389zM725 -480q43 -95 199 -87q299 14 544 168q-51 82 -201.5 148.5t-271.5 62.5q-149 -11 -233 -95q-80 -102 -37 -197z" />
<glyph unicode="&#x427;" horiz-adv-x="1796" d="M182 457q0 131 80 282q92 172 246 283q330 236 829 235q248 0 408 -32q20 51 27 84q33 -35 28 -95q119 -20 187 -61q29 -18 18 -31q-2 -2 -33 13q-76 33 -174 49q-16 -70 -45 -113q-168 -256 -387 -518q-63 -88 -59 -109q8 -33 92 7q152 70 297 172q80 51 168 122 q244 197 422 316q369 248 618 248q217 0 297 -162q4 -18 0 -21l-14 7q-59 70 -144 92q-51 12 -151 12q-174 0 -366.5 -90t-362.5 -254q-119 -106 -348 -367q-215 -227 -363 -460q-53 -84 -72 -129q-39 -6 -39 59q0 57 41 131q113 207 326 405q55 59 227 216 q-100 -82 -209 -146q-162 -109 -344 -190q-63 -29 -112 -29q-47 0 -58 33q-16 49 80 182l330 444q63 78 104 152q-147 23 -387 23q-188 0 -405 -66q-236 -72 -390.5 -190.5t-239.5 -257t-85 -254.5q0 -213 137 -316q23 -14 23 -20q0 -10 -23 -4q-174 96 -174 348z" />
<glyph unicode="&#x428;" horiz-adv-x="2402" d="M76 487q6 135 94 287q98 172 256 283q336 236 815 248q262 6 514 -60q23 10 45 10q31 0 12 -28q33 -10 78 -33q29 -20 19 -31q-4 -4 -33 10.5t-78 30.5l-127 -80q-356 -236 -659 -516q-248 -229 -385 -422q-109 -152 -109 -221q0 -47 57 -47q86 0 322 164q86 59 537 422 q137 111 669 516q59 63 181 182q96 88 135 88q27 0 26 -30q0 -35 -53 -86q-80 -78 -262 -183l-463 -465q-190 -221 -278 -336q-109 -152 -109 -221q0 -47 57 -47q86 0 322 164q86 59 536 422q137 111 670 516q59 63 180 182q96 88 136 88q27 0 26 -30q0 -35 -53 -86 q-80 -78 -262 -183l-463 -465q-215 -227 -363 -460q-53 -84 -71 -129q-39 -6 -39 59q0 57 41 131q113 207 325 406q39 49 158 147l-6 8l-188 -157q-430 -360 -613 -482q-254 -170 -356 -170q-49 0 -80 33t-31 80q0 92 103 246q76 106 252 290q39 49 157 148l-6 8l-188 -158 q-430 -360 -613 -481q-254 -170 -356 -170q-49 0 -80 33t-31 80q0 92 103 246q147 223 457 495q352 313 704 492q-207 47 -465 39q-182 -6 -385 -74q-217 -74 -397 -199q-160 -111 -256 -256q-90 -137 -94 -256q-8 -238 149 -356q23 -14 23 -23q-4 -14 -23 -2 q-199 102 -184 389z" />
<glyph unicode="&#x429;" horiz-adv-x="2564" d="M76 487q6 135 94 287q98 172 256 283q336 236 815 248q262 6 514 -60q23 10 45 10q31 0 12 -28q33 -10 78 -33q29 -20 19 -31q-4 -4 -33 10.5t-78 30.5l-127 -80q-356 -236 -659 -516q-248 -229 -385 -422q-109 -152 -109 -221q0 -47 57 -47q86 0 322 164q86 59 537 422 q137 111 669 516q59 63 181 182q96 88 135 88q27 0 26 -30q0 -35 -53 -86q-80 -78 -262 -183l-463 -465q-190 -221 -278 -336q-109 -152 -109 -221q0 -47 57 -47q86 0 322 164q86 59 536 422q137 111 670 516q59 63 180 182q96 88 136 88q27 0 26 -30q0 -35 -53 -86 q-80 -78 -262 -183l-463 -465q-215 -227 -393 -526q262 74 374 -43q106 -143 -49 -299q-190 -162 -397 -217t-342 -43q-147 16 -184 108.5t24 202.5q115 150 332 146q147 -8 285.5 -83t189.5 -147q145 137 103 244q-61 106 -201 80q-129 -31 -176 -12q-43 18 -39 59 q0 57 41 131q113 207 325 406q39 49 158 147l-6 8l-188 -157q-430 -360 -613 -482q-254 -170 -356 -170q-49 0 -80 33t-31 80q0 92 103 246q76 106 252 290q39 49 157 148l-6 8l-188 -158q-430 -360 -613 -481q-254 -170 -356 -170q-49 0 -80 33t-31 80q0 92 103 246 q147 223 457 495q352 313 704 492q-207 47 -465 39q-182 -6 -385 -74q-217 -74 -397 -199q-160 -111 -256 -256q-90 -137 -94 -256q-8 -238 149 -356q23 -14 23 -23q-4 -14 -23 -2q-199 102 -184 389zM1487 -476q43 -95 199 -87q299 14 544 168q-51 82 -201.5 148.5 t-271.5 62.5q-149 -11 -233 -95q-80 -102 -37 -197z" />
<glyph unicode="&#x42a;" horiz-adv-x="1726" d="M-35 -14q4 51 123 61q53 4 164 -14q55 -14 125 0q193 39 381 182q154 119 409 395q299 330 367 420q78 94 113 162q-176 25 -416 25q-178 0 -385 -68q-215 -68 -397 -188q-160 -104 -254 -244q-90 -131 -95 -244q-10 -221 148 -340q25 -14 22 -20q-4 -14 -22 -4 q-197 104 -185 366q6 119 95 270q102 174 256 277q356 236 815 235q244 0 430 -34q18 35 29 65q4 12 14 -2q25 -35 22 -80h2q129 -33 152 -53q29 -20 18 -31q-4 -4 -32 13q-55 29 -146 45q-35 -106 -112 -209q-59 -78 -250 -309q29 6 98 -37q166 -104 166 -271 q0 -84 -47 -161q-82 -135 -283 -216q-182 -74 -393 -75q-248 -4 -522 57q-39 10 -113 25q-133 -29 -215 -31q-37 0 -60.5 8t-21.5 25zM326 0l57 -12q260 -55 524 -54q170 2 325.5 81t237.5 206q59 90 60 189q6 121 -119 198q-37 18 -74 33q-16 -23 -30 -39 q-492 -553 -981 -602z" />
<glyph unicode="&#x42b;" horiz-adv-x="2023" d="M-35 -14q4 51 123 61q53 4 127 -8q-12 76 -8 156q8 207 96 413q94 221 254 379q174 172 420 268.5t493 90.5q240 -6 369 -121q109 78 205 102q30 8 55 8q27 0 29 -26q0 -31 -21 -54q-16 -31 -55 -50t-82 -27.5t-80 -6t-49 16.5q-129 -106 -270 -268q-25 -27 -215 -258 q29 6 98 -37q166 -104 166 -271q0 -84 -47 -161q-82 -135 -283 -216q-182 -74 -393 -75q-248 -4 -522 57q-39 10 -113 25q49 -170 184 -258q129 -84 316 -76q135 6 233 76q31 23 35 18q14 -12 -17.5 -40t-107.5 -54q-82 -27 -149 -29q-203 -6 -342.5 89t-184.5 267 q-100 -23 -182 -24q-37 0 -60.5 8t-21.5 25zM242 195q-4 -90 10 -162q55 -14 125 0q193 39 381 182q154 119 409 395q421 455 648 598q-129 104 -345 107q-469 6 -849 -367q-178 -174 -279 -379q-94 -195 -100 -374zM326 0l57 -12q260 -55 524 -54q170 2 325.5 81t237.5 206 q59 90 60 189q6 121 -119 198q-37 18 -74 33q-16 -23 -30 -39q-492 -553 -981 -602zM1530 -102q-31 10 14 75q20 39 80 103l74 82q193 258 532 594q502 496 844 493q88 0 139 -53q43 -43 43 -92q0 -18 -4 -21q-10 -2 -10 15q-37 88 -178 88q-348 0 -813 -459 q-340 -336 -621 -696q-10 -23 -35 -68q-41 -72 -65 -61zM1866 1206q8 -12 40.5 -15t71.5 6t74 32.5t51 64.5q-2 29 -45 15q-111 -37 -192 -103z" />
<glyph unicode="&#x42c;" horiz-adv-x="1726" d="M-35 -14q4 51 123 61q53 4 127 -8q-12 76 -8 156q8 207 96 413q94 221 254 379q174 172 420 268.5t493 90.5q240 -6 369 -121q109 78 205 102q30 8 55 8q27 0 29 -26q0 -31 -21 -54q-16 -31 -55 -50t-82 -27.5t-80 -6t-49 16.5q-129 -106 -270 -268q-25 -27 -215 -258 q29 6 98 -37q166 -104 166 -271q0 -84 -47 -161q-82 -135 -283 -216q-182 -74 -393 -75q-248 -4 -522 57q-39 10 -113 25q49 -170 184 -258q129 -84 316 -76q135 6 233 76q31 23 35 18q14 -12 -17.5 -40t-107.5 -54q-82 -27 -149 -29q-203 -6 -342.5 89t-184.5 267 q-100 -23 -182 -24q-37 0 -60.5 8t-21.5 25zM242 195q-4 -90 10 -162q55 -14 125 0q193 39 381 182q154 119 409 395q421 455 648 598q-129 104 -345 107q-469 6 -849 -367q-178 -174 -279 -379q-94 -195 -100 -374zM326 0l57 -12q260 -55 524 -54q170 2 325.5 81t237.5 206 q59 90 60 189q6 121 -119 198q-37 18 -74 33q-16 -23 -30 -39q-492 -553 -981 -602zM1866 1206q8 -12 40.5 -15t71.5 6t74 32.5t51 64.5q-2 29 -45 15q-111 -37 -192 -103z" />
<glyph unicode="&#x42d;" horiz-adv-x="1552" d="M57 141q14 168 127 334q53 66 131 47q-209 -221 -223 -381q-12 -133 74 -204q76 -63 199 -66q428 -10 917 436q-41 43 -197 21q-113 -31 -141 -25q-33 -4 -60.5 4t-23.5 29q14 51 125 53q221 -2 330 -57q68 59 149 143q268 272 320 471q10 37 10 74q0 127 -100 192 q-84 55 -215 56q-152 6 -400 -107q-131 -68 -239 -160q-276 -233 -277 -389q0 -90 103 -90q119 0 290 170q66 66 127 185q27 53 25 53q2 -10 6 -19q-2 -20 -8 -43q-29 -94 -119 -188q-170 -178 -319 -178q-39 0 -72 14q-63 29 -64 113q0 86 69 198.5t179 202.5 q125 100 258 164q219 106 432 117q158 0 263 -66q127 -76 127 -225q0 -219 -347 -586q-569 -606 -1148 -594q-135 2 -218 68q-102 80 -90 233z" />
<glyph unicode="&#x42e;" horiz-adv-x="3332" d="M53 86q0 31 4 66q20 145 134 292.5t292 255.5q47 29 129 68q-74 61 -73 158q0 225 295 348q223 92 483 92q414 0 942 -139q100 -27 156 -51q47 -20 39 -33q-4 -2 -17 4q-18 6 -24 6q-8 2 -31 0q-197 -16 -619 -473q113 -131 103 -313q12 55 92 182q150 236 393 420 q451 342 922 342q174 0 282 -66q135 -80 146 -244q8 -129 -77 -243.5t-216 -134.5q-115 -188 -262 -324q-205 -188 -459 -313q-260 -127 -469 -136q-156 -6 -258 56q-131 76 -137 246q-2 76 2 92q31 238 -82 413q-29 -31 -78 -88q-362 -422 -747 -608q-276 -135 -529 -135 q-336 0 -336 260zM86 84q0 -227 291 -227q207 0 508 180q309 186 637 514l53 53l117 113q-147 141 -445 149q-156 4 -366 -67q-193 -68 -355 -168q-395 -248 -434 -486q-6 -33 -6 -61zM569 924q0 -86 72 -144q309 131 608 117q319 -16 467 -158q436 402 635 435 q-23 8 -88 22q-475 100 -946 100q-231 0 -451 -77q-297 -104 -297 -295zM1868 154q2 -295 379 -271q-160 31 -160 205q0 94 47 195q141 307 440 532q174 131 377 209q193 72 344 72q33 0 62 -4q70 -8 117 -55.5t47 -118.5q0 -100 -101 -275q106 35 174 148q64 107 56 213 q-23 274 -353 274q-397 0 -872 -375q-254 -201 -402 -391q-158 -207 -155 -358zM2116 80q0 -184 213 -184q375 74 778 454q135 127 237 262q148 195 148 312q0 145 -180 145q-285 0 -689 -309q-344 -262 -458 -494q-49 -98 -49 -186z" />
<glyph unicode="&#x42f;" horiz-adv-x="1640" d="M-14 84q0 166 139 340q117 147 283 248q215 133 530 178q76 4 61 -37q-72 0 -245.5 -59.5t-300.5 -139.5q-432 -272 -433 -534q0 -225 269 -225q215 0 487 174q238 152 529 426q143 147 96 176q-29 27 -164 12q-76 -8 -119 35q-31 25 -31 92q0 70 39 140.5t121 146.5 q98 94 217 147q-170 18 -313 19q-498 0 -817 -258q-137 -111 -216 -261.5t-77 -287.5q2 -125 66.5 -206t195.5 -89q-20 -29 -53 -23q-111 20 -174 99q-68 86 -70 221q-4 309 299 577q330 291 840 291q184 0 409 -49q176 53 363 53q47 0 92 -4q90 -8 143 -45q47 -35 48 -80 q0 -14 -5 -28q-12 -35 -79 -35q-49 0 -265 41q-82 16 -256 47q-233 -86 -395 -293q-76 -96 -76 -166q0 -16 6 -29q43 -16 119 -4q158 25 236 -22q92 -74 -72 -234q-604 -608 -1114 -608q-313 0 -313 254zM1221 -10q0 35 28 94q43 90 201 305q96 125 190 221q472 482 785 578 q100 33 182 -21q-6 -12 -22 -6q-47 16 -93 13q-137 -14 -417 -256q-221 -186 -408 -400q-180 -205 -305 -412l-64 -106q-34 -53 -55 -47q-23 6 -22 37zM1673 1212l187 -47q180 -47 254 -47q49 0 61 25q4 8 4 18q0 35 -43 64.5t-121 36.5q-145 12 -342 -50z" />
<glyph unicode="&#x430;" horiz-adv-x="643" d="M-104 53q0 123 159 287q104 106 246.5 186t230.5 80q66 0 66 -45q0 -43 -63 -104q129 106 172 121q34 12 79 8q-272 -244 -415 -416q-86 -102 -86 -133q0 -12 10 -17q37 -18 199 109q68 53 194 166q16 16 25 2q6 -12 -11 -27l-190 -161q-152 -123 -219 -123q-74 0 -74 67 q0 45 41 107q-207 -174 -295 -174q-70 0 -69 67zM-39 37q0 -14 12 -21q29 -12 147 73t245 214q205 211 204 250q1 22 -24 22q-98 0 -395 -284q-188 -180 -189 -254z" />
<glyph unicode="&#x431;" horiz-adv-x="600" d="M-90 78q0 129 160 291q102 104 231 172q123 66 207 65q100 0 80 -92q129 135 346 332q260 236 444 368q559 403 979 404q248 0 381 -105q115 -92 115 -231q0 -29 -6 -57q-23 -121 -113 -168q-18 -10 -22 0q-2 6 12 18q63 57 76 131q6 31 6 60q0 139 -111 223 q-123 94 -350 94q-383 0 -932 -434q-215 -170 -627 -555q-178 -182 -294 -285q-358 -326 -494 -325q-88 0 -88 94zM-39 39q0 -16 12 -23q29 -12 147 73t245 214q203 186 204 252q1 20 -26 20q-96 0 -393 -284q-188 -180 -189 -252z" />
<glyph unicode="&#x432;" horiz-adv-x="614" d="M-109 66q0 115 252 376q457 477 867 772q219 160 397 244q-8 61 23 72q20 -6 14 -51q289 139 545 139q248 0 372 -105q123 -111 121 -260q-2 -174 -131 -288q-170 -154 -473 -121q-217 27 -350 188q-127 166 -121 367q-160 -90 -363 -250q-408 -322 -829 -764 q287 217 406 217q59 0 59 -57q0 -104 -184 -285q-281 -274 -502 -274q-102 0 -103 80zM-41 37q8 -25 39 -25q59 0 156 72q66 51 227 201l145 135q100 96 101 131q0 18 -25 18q-100 0 -418 -241q-104 -80 -170.5 -166t-54.5 -125zM1444 1419q-2 -213 117 -372 q131 -143 317 -166q287 -31 451 110q117 113 108 275q-8 141 -110 223q-123 94 -351 94q-241 0 -532 -164z" />
<glyph unicode="&#x433;" horiz-adv-x="444" d="M-86 51q-14 101 379 324q176 106 176 176q0 33 -41 33q-78 0 -168 -88q-41 -39 -59 -80q-53 -86 -76 -82q-14 4 -14 24t12 41q37 55 115 121q55 47 121.5 74t109.5 18q66 -12 66 -88q0 -70 -71 -137.5t-223.5 -155.5t-211.5 -151q-49 -43 -2 -68q74 0 198 84 q94 63 246 197q14 14 25 4q12 -8 -4 -21q-86 -86 -216 -180q-139 -100 -245 -112q-59 -6 -85 7t-32 60z" />
<glyph unicode="&#x434;" horiz-adv-x="622" d="M-1245 -344q-8 49 10 53q10 4 16 -33q18 -109 140 -172q104 -57 233 -57q309 0 676 291q205 164 516 504l-4 4q-279 -260 -379 -260q-72 0 -72 69q0 125 156 285q104 106 251.5 185t236.5 79q27 0 44 -9t17 -36q0 -43 -57 -106l6 -4q100 100 137 120q31 17 70 15 q-10 -10 -310 -355q-305 -348 -530 -522q-383 -295 -748 -295q-150 0 -266 66q-127 70 -143 178zM-49 39q0 -16 14 -23q31 -12 148.5 73t242.5 214q207 213 207 252q1 20 -26 20q-96 0 -396 -284q-190 -182 -190 -252z" />
<glyph unicode="&#x435;" horiz-adv-x="425" d="M-98 94q12 125 159 266q102 98 232.5 172t202.5 74q61 0 61 -51q0 -61 -106 -137q-41 -29 -112 -53.5t-114 -24.5q-23 0 -32 6q-215 -203 -216 -297q0 -37 46 -37q68 0 178 70q121 76 260 207q20 18 28 8t-10 -29q-119 -109 -235 -190q-150 -104 -250 -94t-92 110z M205 358q6 -2 16 -2q84 0 207 97q94 76 94 114q0 9 -4 13q-18 14 -129 -66q-102 -76 -184 -156z" />
<glyph unicode="&#x436;" horiz-adv-x="925" d="M-2187 -629q0 92 41 185q31 70 59 69q4 0 6 -2q2 -6 -20 -53q-47 -96 -47 -191q0 -172 140 -290.5t374 -124.5q313 -8 639 145q270 127 624 408q233 184 553 520q96 102 146 151q-74 -47 -260 -145q-96 -55 -162 -59q-47 0 -62 36q-8 33 11 48q6 2 18 -11q25 -12 51 -12 q72 0 221 129q76 66 220 221q86 94 86 150q0 23 -27 22q-43 0 -148 -96l-260 -240q-16 -10 -22 0q-8 8 4 21l248 229q135 129 215 123q66 -6 65 -57q0 -72 -125 -203q-115 -117 -237 -221q63 37 100 63l166 117l221 242q461 485 717 686q219 172 487 276q283 111 533 111 q248 0 381 -105q115 -92 115 -231q0 -29 -7 -57q-23 -123 -112 -168q-18 -10 -23 0q-2 6 13 18q59 51 73 131q6 33 6 64q0 137 -110 221q-121 92 -348 92q-453 0 -967 -428q-248 -205 -637 -606l-172 -191q76 57 324 193q96 55 145 55q45 -2 49 -47q4 -18 -8 -24 q-33 10 -66 10q-59 0 -268 -183q-104 -92 -168 -194q-47 -78 -47 -113q0 -23 17 -26q47 -14 157 71q135 104 232 193q20 18 26 8q8 -14 -10 -29q-139 -127 -215 -182q-150 -109 -225 -108q-74 0 -74 63q0 68 86 176l78 86q43 47 139 125q-135 -80 -270 -182l-189 -205 q-350 -365 -573 -543q-733 -586 -1364 -571q-258 6 -416 135q-147 123 -147 305z" />
<glyph unicode="&#x437;" horiz-adv-x="536" d="M-1286 -344q-10 49 10 53q10 4 16 -33q20 -106 127 -170q96 -55 230 -59q307 -8 680 291q123 98 276 250q117 123 115 188q2 18 0 31q-45 -16 -78 -17q-35 0 -35 17q0 20 47 29q33 6 68 -3q102 29 264 183q80 76 80 127q0 41 -47 41q-51 0 -107 -43q-4 -4 -67 -80 q-55 -68 -80 -68q-4 0 -8 2q-18 12 12 58q27 39 86 86q92 74 176 73q96 0 96 -104q0 -90 -65 -154q-115 -111 -315 -139q25 -35 30 -72q2 -14 2 -32q4 -49 -102 -166q-133 -137 -254 -232q-395 -307 -764 -301q-152 2 -258 66q-113 66 -135 178z" />
<glyph unicode="&#x438;" horiz-adv-x="641" d="M-106 45q0 102 153.5 264t310.5 252q53 31 127 25q-293 -240 -434 -414q-88 -109 -88 -135q0 -12 10 -17q43 -20 197 103q72 57 195 184q195 203 311 271q42 26 110 20q-264 -244 -413 -426q-90 -111 -90 -137q0 -10 10 -15q39 -18 188 101q4 4 199 170q18 12 27 4 q10 -10 -7 -23q-72 -70 -196 -168q-154 -121 -213 -118q-74 4 -74 67q0 47 39 113q-27 -27 -72 -62q-154 -119 -221 -118q-70 0 -69 59z" />
<glyph unicode="&#x439;" horiz-adv-x="641" d="M-106 45q0 102 153.5 264t310.5 252q53 31 127 25q-293 -240 -434 -414q-88 -109 -88 -135q0 -12 10 -17q43 -20 197 103q72 57 195 184q195 203 311 271q42 26 110 20q-264 -244 -413 -426q-90 -111 -90 -137q0 -10 10 -15q39 -18 188 101q4 4 199 170q18 12 27 4 q10 -10 -7 -23q-72 -70 -196 -168q-154 -121 -213 -118q-74 4 -74 67q0 47 39 113q-27 -27 -72 -62q-154 -119 -221 -118q-70 0 -69 59zM590 850q0 16 12 16q8 0 19 -12q20 -35 43 -117q176 94 266 125q29 12 28 -2q14 -10 -6 -20q-166 -94 -301 -187q-25 -16 -30 -16 q-14 0 -15 27q-2 92 -16 186z" />
<glyph unicode="&#x43a;" horiz-adv-x="620" d="M-131 27q0 14 4 26q49 127 260 361q424 467 877 800q215 158 446 267q301 137 533 137q248 0 381 -105q115 -92 114 -231q0 -28 -6 -57q-23 -121 -113 -168q-18 -10 -22 0q-2 6 12 18q63 57 76 131q6 31 6 60q0 139 -110 223q-123 94 -351 94q-383 0 -932 -434 q-205 -164 -456 -399q-287 -272 -471 -492q66 55 248 188q250 172 360 160q72 -8 57 -71q-6 -29 -30 -37q-6 0 -39 28q-20 16 -51 19q-106 4 -228 -88q-61 -72 -112 -224q-33 -100 -33 -147q0 -41 33 -41q31 0 149 86l195 166q12 12 22 2t-6 -27q-106 -96 -201 -168 q-172 -131 -237 -120q-49 8 -49 73q0 41 20 115q33 115 90 203q-33 -23 -100 -74q-115 -90 -168 -143q-96 -115 -139 -185q-29 0 -29 54z" />
<glyph unicode="&#x43b;" horiz-adv-x="638" d="M-164 45q0 66 78 164q93 115 195 90q-66 -68 -115 -127q-88 -109 -88 -135q0 -12 10 -17q43 -20 199 109q125 115 184 178q195 203 307 260q119 37 187 31q-264 -244 -414 -426q-90 -111 -90 -137q0 -10 10 -15q39 -18 188 101q4 4 199 170q18 12 27 4q10 -10 -6 -23 q-72 -70 -197 -168q-154 -121 -213 -118q-74 4 -74 67q0 98 344 420q-49 -8 -86 -43q-256 -244 -354 -326q-154 -119 -221 -118q-70 0 -70 59z" />
<glyph unicode="&#x43c;" horiz-adv-x="976" d="M-164 45q0 66 78 164q92 115 195 90q-66 -68 -115 -127q-88 -109 -88 -135q0 -12 10 -17q43 -20 199 109q125 115 184 178q195 203 307 260q119 37 187 31q-264 -244 -414 -426q-90 -111 -90 -137q0 -10 10 -15q39 -18 188 101q5 4 230 201q180 188 297 256q43 27 110 20 q-264 -244 -413 -426q-90 -111 -90 -137q0 -10 10 -15q39 -18 188 101q4 4 199 170q18 12 26 4q10 -10 -6 -23q-72 -70 -196 -168q-154 -121 -213 -118q-74 4 -74 67q2 61 57 140q-53 -49 -102 -89q-154 -121 -213 -118q-74 4 -74 67q0 98 344 420q-49 -8 -86 -43 q-256 -244 -354 -326q-154 -119 -221 -118q-70 0 -70 59z" />
<glyph unicode="&#x43d;" horiz-adv-x="673" d="M-133 6q-4 31 4 47q76 145 264 342q109 113 189 166q49 33 143 33q-141 -98 -307 -295q-6 -84 37 -94q43 -20 196 102q197 203 314 271q43 27 110 20q-264 -244 -414 -426q-90 -111 -90 -137q0 -10 11 -15q39 -18 188 101q4 4 199 170q18 12 26 4q10 -10 -6 -23 q-72 -70 -196 -168q-154 -121 -213 -118q-74 4 -74 67q8 96 108 195q-98 -76 -170 -78q-70 0 -71 59q-84 -78 -226 -256q-16 0 -22 33z" />
<glyph unicode="&#x43e;" d="M-90 78q0 129 160 291q102 104 231 172q123 66 207 65q76 0 76 -59q0 -106 -185 -295q-266 -268 -401 -268q-88 0 -88 94zM-31 43q0 -33 33 -33q86 0 375 293q176 180 176 252q0 23 -27 23q-104 0 -381 -287q-176 -182 -176 -248z" />
<glyph unicode="&#x43f;" horiz-adv-x="684" d="M-133 6q-4 31 4 47q76 145 264 342q109 113 189 166q49 33 143 33q-141 -98 -287 -266q113 90 242 172q166 102 235 102q66 0 66 -57q0 -76 -191 -246q-74 -66 -163 -160q-74 -78 -74 -106q0 -20 20 -21q55 0 172 84l224 183q16 14 24 4q10 -10 -12 -31 q-147 -127 -229 -184q-143 -100 -218 -84q-49 12 -49 73q0 51 41 111q49 70 176 186l127 111q82 74 82 96q0 6 -6 8q-35 14 -214 -95t-283 -210q-119 -113 -261 -291q-16 0 -22 33z" />
<glyph unicode="&#x440;" horiz-adv-x="600" d="M-2621 -629q0 92 41 185q31 70 59 69q4 0 6 -2q2 -6 -20 -53q-47 -96 -48 -191q0 -172 140.5 -290.5t374.5 -124.5q655 -16 1347 561q213 178 840 860q211 229 323 340q295 293 568 489q559 403 979 404q248 0 381 -105q115 -92 114 -231q0 -28 -6 -57 q-23 -121 -113 -168q-18 -10 -22 0q-2 6 12 18q63 57 76 131q6 31 6 60q0 139 -110 223q-123 94 -351 94q-383 0 -932 -434q-395 -313 -856 -807q84 78 205 160q152 102 215 102q49 0 49 -61q0 -57 -44 -140.5t-109 -146.5q-281 -274 -471 -270q-31 0 -58 18q-16 10 -18 31 q-2 20 10 22t17 -16q12 -23 39 -25q57 -4 133.5 54.5t255.5 240.5q193 197 192 240q0 14 -20 14q-61 0 -236.5 -127t-290.5 -254q-430 -471 -702 -696q-690 -573 -1413 -557q-258 6 -416 135q-147 123 -147 305z" />
<glyph unicode="&#x441;" horiz-adv-x="458" d="M-98 82q2 133 174 293q102 94 223 160.5t190 66.5q59 0 60 -53q-1 -29 -19 -70q-29 -61 -81 -104q-35 -29 -60 -29q-27 0 -27 25q0 31 70 73q90 55 90 105q0 27 -22 26q-68 0 -328 -247q-195 -186 -195 -277q0 -39 46 -39q74 0 198 84q94 63 246 197q14 14 25 4 q12 -8 -5 -21q-86 -86 -215 -180q-139 -100 -245 -112q-59 -6 -92 21.5t-33 76.5z" />
<glyph unicode="&#x442;" horiz-adv-x="1021" d="M-133 6q-4 31 4 47q72 137 264 342q100 106 191 166q49 33 141 33q-152 -104 -291 -270q371 299 500 276q41 -8 41 -51q0 -49 -43 -105q238 160 319 160q27 0 46.5 -18.5t19.5 -42.5q0 -74 -189 -244q-88 -80 -162.5 -159t-74.5 -107q0 -20 22 -21q51 0 170 86t215 174 q23 21 33 11q8 -8 -14 -31q-115 -106 -228 -184q-143 -100 -217 -84q-49 12 -49 73q0 51 41 111q49 70 176 186l127 111q80 72 80 94q0 12 -12 12q-43 0 -191 -88q-154 -90 -258 -182q-119 -104 -301 -328q-16 0 -20 33q-4 29 4 47q57 113 233 301q12 14 125 113 q84 74 84 94q0 6 -6 8q-35 14 -212 -94t-285 -211q-123 -117 -261 -291q-16 0 -22 33z" />
<glyph unicode="&#x443;" horiz-adv-x="610" d="M-1245 -344q-10 49 10 53q10 4 16 -33q20 -106 127 -170q96 -55 230 -59q307 -8 680 291q123 98 276 250q139 137 199 213q-92 -82 -119 -103q-143 -113 -209 -112q-72 0 -71 63q0 100 147 254q164 168 319 256q53 29 125 25q-287 -231 -438 -414q-86 -102 -86 -133 q0 -18 19 -19q53 0 182 103q147 119 305 264q82 78 227 195q33 20 97 20q16 0 16 -4q0 -2 -14 -12q-29 -16 -80 -66q-129 -121 -359 -371q-168 -182 -188 -202q-133 -137 -254 -232q-395 -307 -764 -301q-152 2 -258 66q-113 66 -135 178z" />
<glyph unicode="&#x444;" horiz-adv-x="972" d="M-2228 -629q0 92 41 185q31 70 59 69q4 0 6 -2q2 -6 -20 -53q-47 -96 -47 -191q0 -172 140 -290.5t374 -124.5q313 -8 639 145q270 127 624 408q233 184 553 520q86 86 121 129l-10 6q-203 -186 -303 -186q-72 0 -72 69q0 125 156 285q104 106 251.5 185t235.5 79 q27 0 44.5 -9t17.5 -36q0 -43 -58 -106l86 92q461 485 717 686q219 172 488 276q283 111 532 111q248 0 381 -105q115 -92 115 -231q0 -29 -7 -57q-23 -123 -112 -168q-18 -10 -23 0q-2 6 13 18q59 51 73 131q6 33 6 64q0 137 -110 221q-121 92 -348 92q-453 0 -967 -428 q-248 -205 -637 -606q-86 -86 -194 -207q88 80 204 160q152 102 215 102q49 0 50 -61q0 -57 -44 -140.5t-110 -146.5q-281 -274 -471 -270q-33 0 -57 20q-14 12 -17 31q-2 18 8 20q12 2 17 -16q12 -25 39 -25q55 -6 131 52.5t258 242.5q193 197 192 240q0 14 -18 14 q-59 0 -238 -131q-164 -123 -290 -250l-168 -174q-315 -330 -539 -508q-733 -586 -1364 -571q-258 6 -416 135q-147 123 -147 305zM-63 39q0 -16 14 -23q31 -12 148.5 73t242.5 214q207 213 207 252q0 20 -27 20q-96 0 -395 -284q-190 -182 -190 -252z" />
<glyph unicode="&#x445;" horiz-adv-x="618" d="M-156 20q-8 33 11 48q6 2 18 -11q25 -12 51 -12q72 0 221 129q76 66 220 221q86 94 86 150q0 23 -27 22q-43 0 -148 -96l-260 -240q-16 -10 -22 0q-8 8 4 21l248 229q135 129 215 123q66 -6 65 -57q0 -72 -125 -203l7 -4l108 98l113 99q88 72 135 69q45 -2 49 -47 q4 -18 -8 -24q-33 10 -66 10q-59 0 -268 -183q-104 -92 -168 -194q-47 -78 -47 -113q0 -23 16 -26q47 -14 158 71q135 104 232 193q20 18 26 8q8 -14 -10 -29q-139 -127 -215 -182q-150 -109 -225 -108q-74 0 -74 63q0 68 86 176l-8 6l-80 -77q-174 -166 -256 -166 q-47 0 -62 36z" />
<glyph unicode="&#x446;" horiz-adv-x="641" d="M-106 45q0 102 153.5 264t310.5 252q53 31 127 25q-293 -240 -434 -414q-88 -109 -88 -135q0 -12 10 -17q43 -20 197 103q72 57 195 184q195 203 311 271q43 27 110 20q-264 -244 -413 -426q-90 -111 -90 -137q0 -10 10 -15q39 -18 188 101q4 4 199 170q18 12 27 4 q10 -10 -7 -23q-72 -70 -196 -168q-139 -117 -219 -108q76 -84 20 -201q-47 -80 -209 -78q-135 12 -135 97q0 25 22.5 64.5t45.5 31.5q6 -4 -11 -29q-23 -33 -20 -65q6 -63 106 -66q98 0 127 73.5t-8 192.5q-6 12 -6 37q0 47 39 113q-27 -27 -72 -62q-154 -119 -221 -118 q-70 0 -69 59z" />
<glyph unicode="&#x447;" horiz-adv-x="520" d="M-12 223q-10 8 6 27q27 23 156 145q109 104 165 166q0 31 41 74q35 37 68 55.5t65 26.5q63 14 80 0q10 -10 -125 -88q-90 -53 -90 -78q0 -14 52 -31q66 -20 55 -71q-18 -98 -180 -240q-139 -121 -140 -172q0 -18 21 -19q51 0 178 91q45 31 219 182q18 10 25 2 q12 -12 -4 -23q-139 -125 -228 -186q-137 -98 -196 -98q-70 0 -68 73q4 121 139 236q182 160 181 180q-2 10 -46 31q-27 12 -36 26l-152 -155q-27 -27 -156 -144q-18 -20 -30 -10z" />
<glyph unicode="&#x448;" horiz-adv-x="970" d="M-106 45q0 102 153.5 264t310.5 252q53 31 127 25q-293 -240 -434 -414q-88 -109 -88 -135q0 -12 10 -17q43 -20 197 103q72 57 195 184q195 203 311 271q43 27 110 20q-264 -244 -413 -426q-90 -111 -90 -137q0 -10 10 -15q51 -20 205 103q72 57 194 184 q195 203 312 271q43 27 110 20q-264 -244 -414 -426q-90 -111 -90 -137q0 -10 11 -15q39 -18 188 101q4 4 199 170q18 12 26 4q10 -10 -6 -23q-72 -70 -197 -168q-154 -121 -213 -118q-74 4 -73 67q0 47 39 113q-27 -27 -72 -62q-154 -119 -221 -118q-74 4 -74 67 q0 47 39 113q-27 -27 -72 -62q-153 -118 -221 -118q-70 0 -69 59z" />
<glyph unicode="&#x449;" horiz-adv-x="970" d="M-106 45q0 102 153.5 264t310.5 252q53 31 127 25q-293 -240 -434 -414q-88 -109 -88 -135q0 -12 10 -17q43 -20 197 103q72 57 195 184q195 203 311 271q43 27 110 20q-264 -244 -413 -426q-90 -111 -90 -137q0 -11 10 -15q51 -20 205 103q72 57 194 184 q195 203 312 271q43 27 110 20q-264 -244 -414 -426q-90 -111 -90 -137q0 -10 11 -15q39 -18 188 101q4 4 199 170q18 12 26 4q10 -10 -6 -23q-72 -70 -197 -168q-139 -117 -219 -108q76 -84 21 -201q-47 -80 -209 -78q-135 12 -135 97q0 25 22.5 64.5t44.5 31.5 q6 -4 -10 -29q-23 -33 -20 -65q6 -63 106 -66q98 0 127 74t-8 192q-6 12 -6 37q0 47 39 113q-27 -27 -72 -62q-154 -119 -221 -118q-74 4 -74 67q0 47 39 113q-27 -27 -72 -62q-154 -119 -221 -118q-70 0 -69 59z" />
<glyph unicode="&#x44a;" horiz-adv-x="714" d="M-12 223q-10 8 6 27q27 23 156 145q109 104 165 166q0 31 41 74q35 37 68 55.5t65 26.5q63 14 80 0q10 -10 -125 -88q-90 -53 -90 -78q0 -14 52 -31q66 -20 55 -71q-23 -84 -86 -130q74 18 132 21.5t85 -29.5q29 -31 1 -95t-89 -112q-147 -115 -260 -120q-59 -6 -92 21.5 t-33 76.5q2 133 135 248q156 125 154 145q-2 10 -46 31q-27 12 -36 26l-152 -155q-27 -27 -156 -144q-18 -20 -30 -10zM197 70q4 -55 43 -58q74 0 198 84q74 57 100.5 130t-12.5 85q-51 10 -126.5 -21.5t-149.5 -105.5q-51 -63 -53 -114z" />
<glyph unicode="&#x44b;" horiz-adv-x="774" d="M-98 82q2 133 174 293q135 121 252 186q53 31 127 25q-156 -128 -297 -267q74 18 132 21.5t85 -29.5q29 -31 1 -95t-89 -112q-147 -115 -260 -120q-59 -6 -92 21.5t-33 76.5zM-20 70q4 -55 43 -58q74 0 198 84q74 57 100.5 130t-12.5 85q-51 10 -126.5 -21.5 t-149.5 -105.5q-51 -63 -53 -114zM350 53q0 47 39 113q35 63 109 141q195 203 311 271q43 27 111 20q-264 -244 -414 -426q-90 -111 -90 -137q0 -10 10 -15q39 -18 188 101q4 4 199 170q18 12 27 4q10 -10 -6 -23q-72 -70 -197 -168q-154 -121 -213 -118q-74 4 -74 67z" />
<glyph unicode="&#x44c;" horiz-adv-x="489" d="M-111 82q2 133 174 293q135 121 252 186q53 31 127 25q-156 -128 -297 -267q74 18 132.5 21.5t84.5 -29.5q29 -31 1.5 -95t-89.5 -112q-147 -115 -260 -120q-59 -6 -92 21.5t-33 76.5zM-33 70q4 -55 43 -58q74 0 199 84q74 57 100.5 130t-12.5 85q-51 10 -127 -21.5 t-150 -105.5q-51 -63 -53 -114z" />
<glyph unicode="&#x44d;" d="M-90 78q0 96 86 182q66 57 158 39q-184 -190 -185 -256q0 -33 33 -33q146 6 404 289q-139 -47 -168 -37q-25 8 -33 28.5t2 41.5q49 -12 112.5 -11t104.5 7q129 156 129 227q0 23 -27 23q-80 8 -166 -54q-80 -47 -122 -20q104 104 235 104q109 2 111 -61q0 -106 -162 -328 q-184 -233 -406 -239q-106 4 -106 98z" />
<glyph unicode="&#x44e;" horiz-adv-x="884" d="M-133 6q-4 31 4 47q76 145 264 342q109 113 189 166q49 33 143 33q-141 -98 -307 -295q-6 -84 37 -94q43 -20 184 92l63 72q102 104 232 172q123 66 207 65q76 0 75 -59q0 -106 -184 -295q-266 -268 -401 -268q-88 0 -88 94q0 87 53 155q-80 -61 -152 -63q-70 0 -71 59 q-84 -78 -226 -256q-16 0 -22 33zM344 43q0 -33 33 -33q86 0 375 293q176 180 176 252q0 23 -27 23q-104 0 -381 -287q-176 -182 -176 -248z" />
<glyph unicode="&#x44f;" horiz-adv-x="651" d="M-164 45q0 66 78 164q92 115 195 90q-66 -68 -115 -127q-88 -109 -88 -135q0 -12 10 -17q43 -20 199 109l219 176q-23 -6 -47 -6q-72 0 -72 68q14 115 139 192q106 57 195 57q59 0 59 -43q0 -47 -57 -104l4 -4q68 57 166 125q35 12 72 8q-264 -244 -414 -426 q-90 -111 -90 -137q0 -10 10 -15q39 -18 188 101q4 4 199 170q18 12 27 4q10 -10 -6 -23q-72 -70 -197 -168q-154 -121 -213 -118q-74 4 -74 67q14 94 187 273q-184 -139 -283 -222q-154 -119 -221 -118q-70 0 -70 59zM279 352q0 -16 14 -22q35 -4 81 21.5t87 66.5 q123 111 123 149q0 20 -27 21q-82 -6 -160 -66q-102 -76 -118 -170z" />
<glyph unicode="&#x2000;" horiz-adv-x="1024" />
<glyph unicode="&#x2001;" horiz-adv-x="2048" />
<glyph unicode="&#x2002;" horiz-adv-x="1024" />
<glyph unicode="&#x2003;" horiz-adv-x="2048" />
<glyph unicode="&#x2004;" horiz-adv-x="682" />
<glyph unicode="&#x2005;" />
<glyph unicode="&#x2006;" horiz-adv-x="341" />
<glyph unicode="&#x2007;" horiz-adv-x="598" />
<glyph unicode="&#x2008;" horiz-adv-x="225" />
<glyph unicode="&#x2009;" horiz-adv-x="204" />
<glyph unicode="&#x200a;" horiz-adv-x="20" />
<glyph unicode="&#x200b;" horiz-adv-x="0" />
<glyph unicode="&#x200c;" horiz-adv-x="0" />
<glyph unicode="&#x200d;" horiz-adv-x="0" />
<glyph unicode="&#x200e;" horiz-adv-x="682" />
<glyph unicode="&#x200f;" horiz-adv-x="682" />
<glyph unicode="&#x2010;" horiz-adv-x="448" d="M64 203v248h322v-248h-322z" />
<glyph unicode="&#x2011;" horiz-adv-x="448" d="M64 203v248h322v-248h-322z" />
<glyph unicode="&#x2012;" horiz-adv-x="598" d="M64 203v248h472v-248h-472z" />
<glyph unicode="&#x2013;" horiz-adv-x="854" d="M0 297l57 68h797l-61 -68h-793z" />
<glyph unicode="&#x2014;" horiz-adv-x="1705" d="M0 297l57 68h1649l-57 -68h-1649z" />
<glyph unicode="&#x2015;" horiz-adv-x="4096" d="M64 203v248h3970v-248h-3970z" />
<glyph unicode="&#x2016;" horiz-adv-x="1670" d="M1218 -483v2048h72v-2048h-72zM383 -483v2048h72v-2048h-72z" />
<glyph unicode="&#x2018;" horiz-adv-x="225" d="M256 731q0 51 84 123q57 47 139 78q17 4 19 -4q0 -10 -11 -15q-121 -47 -149 -122q16 -6 22 -27q6 -20 0 -39q-20 -55 -69 -43q-35 8 -35 49z" />
<glyph unicode="&#x2019;" horiz-adv-x="225" d="M229 680q0 10 11 14q121 47 149 123q-16 6 -22 27q-6 20 0 39q20 55 69 43q37 -8 37 -49q0 -49 -86 -123q-51 -45 -139 -78q-16 -4 -19 4z" />
<glyph unicode="&#x201a;" horiz-adv-x="225" d="M-256 -150q0 10 10 15q121 47 150 123q-16 6 -23 26q-6 20 0 39q20 55 72 43q35 -8 35 -51q0 -49 -86 -121q-59 -49 -140 -78q-14 -4 -18 4z" />
<glyph unicode="&#x201c;" horiz-adv-x="423" d="M256 731q0 51 84 123q57 47 139 78q17 4 19 -4q0 -10 -11 -15q-121 -47 -149 -122q16 -6 22 -27q6 -20 0 -39q-20 -55 -69 -43q-35 8 -35 49zM453 733q0 49 86 121q59 49 139 78q14 4 18 -4q0 -10 -10 -15q-121 -47 -149 -122q16 -6 22 -27q6 -20 0 -39q-20 -55 -72 -43 q-35 8 -34 51z" />
<glyph unicode="&#x201d;" horiz-adv-x="423" d="M229 680q0 10 11 14q121 47 149 123q-16 6 -22 27q-6 20 0 39q20 55 69 43q37 -8 37 -49q0 -49 -86 -123q-51 -45 -139 -78q-16 -4 -19 4zM426 680q0 10 10 14q125 51 152 123q-16 6 -23 27q-6 20 0 39q20 55 70 43q35 -8 35 -49q0 -49 -84 -123q-51 -45 -140 -78 q-16 -4 -20 4z" />
<glyph unicode="&#x201e;" horiz-adv-x="423" d="M-256 -150q0 10 10 15q121 47 150 123q-16 6 -23 26q-6 20 0 39q20 55 72 43q35 -8 35 -51q0 -49 -86 -121q-59 -49 -140 -78q-14 -4 -18 4zM-57 -150q0 10 10 15q121 47 149 123q-16 6 -22 26t0 39q20 55 70 43q37 -8 36 -49q0 -51 -86 -123q-57 -47 -139 -78 q-16 -4 -18 4z" />
<glyph unicode="&#x2024;" horiz-adv-x="225" d="M-125 41q0 57 55 57q54 0 54 -57q0 -53 -54 -53q-55 0 -55 53z" />
<glyph unicode="&#x2025;" horiz-adv-x="450" d="M100 41q0 57 55 57q54 0 54 -57q0 -53 -54 -53q-55 0 -55 53zM-125 41q0 57 55 57q54 0 54 -57q0 -53 -54 -53q-55 0 -55 53z" />
<glyph unicode="&#x2026;" horiz-adv-x="737" d="M-125 41q0 57 55 57q54 0 54 -57q0 -53 -54 -53q-55 0 -55 53zM131 41q0 57 55 57q23 0 39.5 -17t16.5 -40q0 -53 -56 -53q-55 0 -55 53zM387 41q0 57 55 57q23 0 39.5 -17t16.5 -40q0 -53 -56 -53q-55 0 -55 53z" />
<glyph unicode="&#x202a;" horiz-adv-x="0" />
<glyph unicode="&#x202f;" horiz-adv-x="392" />
<glyph unicode="&#x2030;" horiz-adv-x="1306" d="M-131 -86q0 12 31 37q12 8 936 684q-72 -33 -144 -33q-74 0 -98 57q-31 -76 -111 -157q-86 -88 -169 -136.5t-121 -37.5q-45 12 -46 63q0 86 107 195q70 70 155 114.5t140 44.5q57 0 53 -49q27 -70 92 -69q70 0 160 45q57 35 117 67q29 17 35 11q14 -14 -7 -27 l-1073 -809q-27 -16 -49 -10q-8 4 -8 10zM186 367q0 -23 25 -23q72 0 258 193q113 115 113 174q-1 16 -19 16q-72 0 -258 -192q-119 -123 -119 -168zM410 49q0 86 106 195q70 70 154 114.5t141 44.5q53 0 53 -43q0 -78 -121 -200q-86 -90 -167.5 -137.5t-120.5 -36.5 q-45 12 -45 63zM449 27q0 -23 22 -23q74 0 260 191q111 113 111 174q-1 18 -19 18q-70 0 -256 -194q-119 -125 -118 -166zM791 49q0 86 106 195q70 70 155 114.5t140 44.5q53 0 53 -43q0 -78 -119 -200q-86 -88 -169 -136.5t-121 -37.5q-45 12 -45 63zM829 27q0 -23 25 -23 q74 0 258 191q113 117 113 174q-1 18 -19 18q-70 0 -258 -194q-119 -121 -119 -166z" />
<glyph unicode="&#x2032;" horiz-adv-x="534" d="M354 516q-6 2 0 16l430 443q96 98 138 98q32 1 32 -26q0 -29 -80 -99l-499 -426q-12 -10 -21 -6z" />
<glyph unicode="&#x2033;" horiz-adv-x="1068" d="M888 516q-6 2 0 16l430 443q96 98 138 98q32 1 32 -26q0 -29 -80 -99l-499 -426q-12 -10 -21 -6zM354 516q-6 2 0 16l430 443q96 98 138 98q32 1 32 -26q0 -29 -80 -99l-499 -426q-12 -10 -21 -6z" />
<glyph unicode="&#x2034;" horiz-adv-x="1602" d="M1422 516q-6 2 0 16l430 443q96 98 138 98q32 1 32 -26q0 -29 -80 -99l-499 -426q-12 -10 -21 -6zM888 516q-6 2 0 16l430 443q96 98 138 98q32 1 32 -26q0 -29 -80 -99l-499 -426q-12 -10 -21 -6zM354 516q-6 2 0 16l430 443q96 98 138 98q32 1 32 -26q0 -29 -80 -99 l-499 -426q-12 -10 -21 -6z" />
<glyph unicode="&#x2035;" d="M508 834q-2 57 43 57t43 -66q-4 -94 53 -157q12 -17 6 -21q-6 -6 -22 4q-39 27 -76 76q-45 61 -47 107z" />
<glyph unicode="&#x2036;" horiz-adv-x="1024" d="M1020 834q-2 57 43 57t43 -66q-4 -94 53 -157q12 -17 6 -21q-6 -6 -22 4q-39 27 -76 76q-45 61 -47 107zM508 834q-2 57 43 57t43 -66q-4 -94 53 -157q12 -17 6 -21q-6 -6 -22 4q-39 27 -76 76q-45 61 -47 107z" />
<glyph unicode="&#x2037;" horiz-adv-x="1536" d="M1532 834q-2 57 43 57t43 -66q-4 -94 53 -157q12 -17 6 -21q-6 -6 -22 4q-39 27 -76 76q-45 61 -47 107zM1020 834q-2 57 43 57t43 -66q-4 -94 53 -157q12 -17 6 -21q-6 -6 -22 4q-39 27 -76 76q-45 61 -47 107zM508 834q-2 57 43 57t43 -66q-4 -94 53 -157q12 -17 6 -21 q-6 -6 -22 4q-39 27 -76 76q-45 61 -47 107z" />
<glyph unicode="&#x2039;" horiz-adv-x="835" d="M106 342l21 31l766 241l8 -49l-702 -219l352 -201l-33 -45z" />
<glyph unicode="&#x203a;" horiz-adv-x="835" d="M-59 145l702 220l-352 200l33 45l411 -241l-20 -31l-766 -242z" />
<glyph unicode="&#x203c;" horiz-adv-x="1080" d="M503 47q0 23 18.5 41t41.5 18t40 -18t17 -41q0 -55 -57 -55q-59 0 -60 55zM663 205q0 12 37 53l588 666l75 84q51 49 84 49q41 0 41 -37t-39 -76q-246 -254 -716 -702q-55 -53 -64 -47q-6 4 -6 10zM-37 47q0 23 18.5 41t41.5 18t40 -18t17 -41q0 -55 -57 -55 q-59 0 -60 55zM123 205q0 12 37 53l588 666l75 84q51 49 84 49q41 0 41 -37t-39 -76q-246 -254 -716 -702q-55 -53 -64 -47q-6 4 -6 10z" />
<glyph unicode="&#x2047;" horiz-adv-x="1396" d="M764 47q2 23 21 41t42 18q55 0 51 -59q-4 -55 -61 -55q-59 0 -53 55zM899 211q55 125 258 289q27 23 192 133q123 82 174 143q94 109 95 182q0 49 -52 58q-80 14 -174 -68q-37 -33 -76 -102q-51 -74 -81 -68q-29 10 10 68q45 68 127 129q111 84 209 72q115 -14 114 -132 q1 -90 -69 -172q-76 -92 -226 -168q-190 -96 -276 -163q-129 -102 -201 -209q-10 -14 -20 -10q-10 2 -4 18zM66 47q2 23 21 41t42 18q55 0 51 -59q-4 -55 -61 -55q-59 0 -53 55zM201 211q55 125 258 289q27 23 192 133q123 82 174 143q94 109 95 182q0 49 -52 58 q-80 14 -174 -68q-37 -33 -76 -102q-51 -74 -81 -68q-29 10 10 68q45 68 127 129q111 84 209 72q115 -14 114 -132q1 -90 -69 -172q-76 -92 -226 -168q-190 -96 -276 -163q-129 -102 -201 -209q-10 -14 -20 -10q-10 2 -4 18z" />
<glyph unicode="&#x2048;" horiz-adv-x="1238" d="M661 47q0 23 18.5 41t41.5 18t40 -18t17 -41q0 -55 -57 -55q-59 0 -60 55zM821 205q0 12 37 53l588 666l75 84q51 49 84 49q41 0 41 -37t-39 -76q-246 -254 -716 -702q-55 -53 -64 -47q-6 4 -6 10zM66 47q2 23 21 41t42 18q55 0 51 -59q-4 -55 -61 -55q-59 0 -53 55z M201 211q55 125 258 289q27 23 192 133q123 82 174 143q94 109 95 182q0 49 -52 58q-80 14 -174 -68q-37 -33 -76 -102q-51 -74 -81 -68q-29 10 10 68q45 68 127 129q111 84 209 72q115 -14 114 -132q1 -90 -69 -172q-76 -92 -226 -168q-190 -96 -276 -163 q-129 -102 -201 -209q-10 -14 -20 -10q-10 2 -4 18z" />
<glyph unicode="&#x2049;" horiz-adv-x="1238" d="M606 47q2 23 21 41t42 18q55 0 51 -59q-4 -55 -61 -55q-59 0 -53 55zM741 211q55 125 258 289q27 23 192 133q123 82 174 143q94 109 95 182q0 49 -52 58q-80 14 -174 -68q-37 -33 -76 -102q-51 -74 -81 -68q-29 10 10 68q45 68 127 129q111 84 209 72q115 -14 114 -132 q1 -90 -69 -172q-76 -92 -226 -168q-190 -96 -276 -163q-129 -102 -201 -209q-10 -14 -20 -10q-10 2 -4 18zM-37 47q0 23 18.5 41t41.5 18t40 -18t17 -41q0 -55 -57 -55q-59 0 -60 55zM123 205q0 12 37 53l588 666l75 84q51 49 84 49q41 0 41 -37t-39 -76 q-246 -254 -716 -702q-55 -53 -64 -47q-6 4 -6 10z" />
<glyph unicode="&#x2057;" horiz-adv-x="2136" d="M1956 516q-6 2 0 16l430 443q96 98 138 98q32 1 32 -26q0 -29 -80 -99l-499 -426q-12 -10 -21 -6zM1422 516q-6 2 0 16l430 443q96 98 138 98q32 1 32 -26q0 -29 -80 -99l-499 -426q-12 -10 -21 -6zM888 516q-6 2 0 16l430 443q96 98 138 98q32 1 32 -26q0 -29 -80 -99 l-499 -426q-12 -10 -21 -6zM354 516q-6 2 0 16l430 443q96 98 138 98q32 1 32 -26q0 -29 -80 -99l-499 -426q-12 -10 -21 -6z" />
<glyph unicode="&#x205f;" horiz-adv-x="490" />
<glyph unicode="&#x2060;" horiz-adv-x="0" />
<glyph unicode="&#x2122;" horiz-adv-x="3837" d="M1582 94q0 133 94 281q86 129 207 215q186 131 394 160q-37 25 -37 104q0 109 92 213q111 125 318.5 200.5t453.5 80.5h44q399 0 781 -103q113 -31 158 -57q33 -18 22 -29q-2 -4 -34.5 13.5t-69.5 29.5q-61 -4 -129 -61q-80 -66 -197 -213l-211 -275q-209 -268 -321 -389 q379 324 526 438q403 317 819 521q80 39 197 73q141 42 241 42q16 0 31 -1q59 -4 60 -28q0 -4 -2 -4q-6 -4 -19 0q-18 6 -30 8q-16 2 -33 2q-49 0 -103 -17q-285 -88 -876 -710q-293 -307 -430 -510q-71 -105 -104 -105h-1q-27 0 -26 45q0 29 14 60q43 92 198.5 276.5 t315.5 335.5q467 442 805 586q-117 -29 -221 -82q-408 -205 -811 -520q-279 -217 -651 -537q-33 -55 -64 -92q-70 -84 -104 -84q-6 0 -11 2q-10 4 -10 17q0 31 39 69q25 25 123 109l330 508q281 399 573 526q-39 -10 -119 -35q-115 -43 -282 -156q-133 -90 -404 -350 l-487 -479q-362 -317 -727 -317q-29 0 -58 2q-264 18 -264 237zM1615 100q0 -88 58.5 -145t162.5 -66q17 -1 34 -1q143 0 331 87q193 92 391 254q92 76 440 402l228 211q113 98 229 178q166 115 334 164q88 26 141 30q-339 81 -751 81q-54 0 -109 -1q-231 -6 -428 -82 q-205 -78 -320 -215q-75 -89 -75 -174q0 -59 30 -69q55 5 104 5q25 0 48 -1q94 -6 157.5 -62.5t63.5 -134.5q0 -29 -10 -57q-12 -35 -31 -35q-2 0 -4 2l6 33q6 25 6 49q0 72 -54 121t-140 57q-25 2 -50 2q-231 0 -495 -190q-113 -80 -195 -193q-102 -135 -102 -250zM240 463 q-82 56 -82 202v7q2 270 268 461q301 217 839 216q48 0 97 -1q367 -12 887 -123q92 74 194 102q12 4 23.5 6t17.5 2q8 -2 6 -8q-4 -8 -34 -18q-84 -27 -156 -95q229 -59 410 -88q59 -9 92 -9q11 0 20 1l35 4q1 -3 1 -6q0 -13 -32 -16q-26 -7 -60 -7q-29 0 -65 5 q-182 23 -444 73q-190 -170 -658 -663q-629 -667 -1165 -667q-19 0 -37 1q-288 12 -288 269q0 170 131 352zM141 129q-1 -16 -1 -31q0 -215 266 -223h11q386 0 1084 668q362 348 371 354q193 181 326 285q-459 80 -828 94q-60 2 -117 2q-504 0 -794 -182 q-272 -172 -271 -422q2 -133 64 -195q115 145 272 254q143 100 324 160q171 57 315 56q24 0 47 -1q209 -13 209 -179v-15q-2 -31 -16 -31q-10 2 -8 41v9q1 62 -49 103q-54 44 -140 46h-12q-131 0 -315 -82q-156 -70 -304 -174q-414 -295 -434 -537z" />
<glyph unicode="&#xe000;" horiz-adv-x="605" d="M0 605h605v-605h-605v605z" />
</font>
</defs>
</svg>
