<?xml version="1.0" standalone="no"?>
<!DOCTYPE svg PUBLIC "-//W3C//DTD SVG 1.1//EN" "http://www.w3.org/Graphics/SVG/1.1/DTD/svg11.dtd" >
<svg xmlns="http://www.w3.org/2000/svg">
<metadata>
This is a custom SVG webfont generated by Font Squirrel.
Copyright   : Copyright c Gophmann AL 2006 All rights reserved
Designer    : Gophamnn AL
Foundry     : Gophmann AL
</metadata>
<defs>
<font id="ClassicaTwoRegular" horiz-adv-x="1228" >
<font-face units-per-em="2048" ascent="1638" descent="-410" />
<missing-glyph horiz-adv-x="716" />
<glyph unicode=" "  horiz-adv-x="716" />
<glyph unicode="&#x09;" horiz-adv-x="716" />
<glyph unicode="&#xa0;" horiz-adv-x="716" />
<glyph unicode="!" horiz-adv-x="921" d="M1114 1323l-561 -922h-61l499 922h123zM475 143q0 -31 -20 -53q-23 -25 -58 -24q-37 0 -59 20q-23 23 -23 61q0 29 25 52q23 23 57 22q29 0 56 -22q22 -23 22 -56z" />
<glyph unicode="&#x22;" horiz-adv-x="1363" d="M1753 2454q0 -49 -16 -109q-16 -57 -37 -100q-10 -23 -21.5 -44.5l-21.5 -39.5l-35 -52l19.5 68l19.5 66q18 63 18 141q-47 0 -57 41v30.5t2 24.5q2 20 18 51q25 37 54 37q39 0 49 -49q8 -24 8 -65zM1548 2443q0 -53 -16 -108q-16 -57 -37 -101q-23 -47 -43 -80 q-10 -16 -19.5 -29.5t-15.5 -23.5l19.5 68l19.5 67q18 63 19 140q-16 -4 -15 -4q-16 0 -28 14q-4 8 -8.5 15t-6.5 16v29.5t4 23.5q0 10 7.5 24.5l17.5 32.5q23 35 49 35q16 0 29 -12q14 -14 16 -39q8 -27 8 -68z" />
<glyph unicode="#" d="M1425 1008q0 -33 -16 -78q-8 -20 -17.5 -41t-21.5 -41q-23 -35 -61 -72q-35 -33 -80 -47q-12 -4 -33 -8q-20 -4 -33 -4q-31 0 -51 14q-23 12 -31 51q0 55 27 107q27 51 84 78q-47 -47 -74 -93q-25 -47 -24 -92q6 -35 26 -43q20 -10 41 -10q20 0 31 2q14 2 25 6 q43 8 77 41q33 29 62 72q12 20 22.5 39.5t18.5 42.5q16 45 16 76q0 53 -47 88q-47 31 -129 30q-72 -10 -133 -49t-125 -90l8 -28.5t4 -30.5q2 -14 3 -28.5t1 -29.5q0 -94 -37 -182q-37 -90 -98 -172q-57 -78 -137 -151q-78 -72 -154 -123q6 -35 33 -68q29 -31 57 -43 q10 -4 21.5 -8t24.5 -4q10 -4 22 -4h27q100 0 204 49q61 29 101 65q43 37 74 80q14 20 25 42t20 44q14 43 14 84v4q0 41 -29 66q-29 23 -67 22q-49 0 -97 -34l-39.5 -32l-37.5 -32l-38 -37.5t-44 -50.5q20 39 57 80q37 43 90 84q57 41 111 41q43 0 76 -29q31 -29 30 -78v-4 q0 -59 -24 -110q-10 -27 -25.5 -49.5t-32.5 -43.5q-35 -41 -78 -71q-39 -31 -81 -53q-35 -16 -91 -35q-59 -18 -120 -19h-26.5t-27.5 4q-12 0 -24 4.5l-23 8.5q-39 16 -65 43q-27 23 -45 67q-51 -33 -97 -59q-25 -14 -52 -27.5t-56 -23.5q-25 -10 -49.5 -13.5t-50.5 -3.5 h-22.5t-25.5 4q-10 0 -20 4.5t-21 8.5q-74 37 -73 131q0 2 4 18q2 8 14 25q4 6 9 12t14 10q16 8 32 8q23 -6 23 -20q0 -16 -20 -31l-18.5 -15t-16.5 -11q-23 -16 -23 -35q0 -23 23 -49q23 -25 45 -35q8 -2 17 -4t20 -6q10 -2 21 -3t26 -1q47 0 84 14q63 25 112 57 q51 31 92 62q-12 49 -12 102q0 141 98 305q94 158 320 334q-6 33 -35 76q-14 20 -27.5 32.5t-27.5 22.5q-55 33 -109 33q-33 0 -57 -8q-29 -6 -59 -25q-14 -8 -29.5 -18.5t-34.5 -20.5q-16 -10 -34.5 -25.5l-37.5 -31.5q-37 -35 -71 -84q-16 -23 -32.5 -51.5t-31.5 -63.5 q-14 -37 -14 -74q0 -51 27 -69q27 -14 55 -14q20 0 31 4q8 0 14 2t10 4q53 23 90 57q20 16 36.5 35.5t33.5 42.5q33 41 53 84l18.5 41t14.5 35q-4 -37 -25 -82q-18 -47 -49 -92q-16 -23 -33.5 -43.5t-38.5 -40.5q-41 -37 -88 -54q-37 -14 -65 -14q-31 0 -57 14 q-23 10 -33 39q-10 25 -10 49q0 10 1 19.5t3 19.5t4 18.5t6 18.5q43 123 119 193q37 35 76.5 63.5t82.5 50.5q68 37 129 37q57 0 113 -33l30.5 -21t33.5 -28q37 -37 51 -73q70 55 137 90q68 35 133 41q88 0 135 -33q49 -35 49 -92v-6zM942 958q-35 -31 -69.5 -69.5 t-69.5 -85.5t-64.5 -94t-56.5 -99q-53 -98 -86 -190q-31 -92 -31 -154q39 33 80 82l41 52.5l43 58.5l80 129q20 35 36.5 67.5l33.5 67.5q14 33 25 64.5l22 62.5q16 65 16 108z" />
<glyph unicode="$" horiz-adv-x="0" d="M3549 2025q0 -145 -45 -262t-123 -213t-178 -166q-104 -72 -213 -116q-57 -23 -113.5 -41.5t-113.5 -30.5q-119 -23 -221 -22q-127 0 -265 36q-70 16 -134 44t-124 63q-117 70 -194 180q-76 106 -76 254q0 92 51 182q49 88 135 166t199 123q117 47 236 47q68 0 116 -14 q53 -16 94 -39q-23 6 -45 11t-43 9q-41 6 -84 7q-111 0 -215 -43q-102 -41 -182 -111t-127 -156q-47 -90 -47 -180q0 -129 61 -229q59 -104 158 -174q94 -68 223 -109q125 -37 256 -37q117 0 238 31q113 27 227 84q106 51 203 129q47 39 88 80t76 86q70 90 108 194 q39 106 39 213q0 154 -51 283q-53 129 -143 236q-45 53 -99.5 100t-117.5 88q-129 82 -275 135q-152 57 -313 84q-84 14 -168 21.5t-170 7.5q-119 0 -247 -12.5t-267 -38.5q-276 -49 -586 -172q88 -74 158 -160q35 -45 65.5 -91t57.5 -98q25 -49 44 -100t34 -104 q29 -111 28 -213q0 -102 -34 -220q-35 -113 -95 -202q-61 -92 -145 -152q-82 -57 -182 -57q-47 0 -86 8q-39 6 -80 22q-35 12 -58 39q-20 23 -20 58q0 31 24 59q25 25 60 25q43 0 63 -27q23 -27 23 -57q0 -35 -25 -60q-27 -23 -61 -22q25 -14 67 -21q20 -2 43 -3t46 -1 q90 0 167 54q74 49 134 141q29 43 51 93t39 108q33 111 32 231q0 84 -22 184q-23 94 -68 191q-47 96 -118 186q-70 90 -175 176q-227 -86 -462 -223l-241 -136.5l-247 -139.5q6 -27 11.5 -54.5t9.5 -56.5q6 -59 6 -117q0 -133 -49 -268q-45 -131 -138 -246 q-90 -111 -213 -178q-123 -68 -276 -68q-104 0 -201 21q-100 23 -186 69q-90 49 -160 132q-74 86 -115 204q-45 -10 -92 -19t-94 -13t-95 -6.5t-97 -2.5q-96 0 -201 13q-106 10 -207 37q-104 29 -192 69q-92 43 -162 107q-72 61 -111 147q-41 86 -41 193q0 152 62 278 q61 121 166 217q51 47 111.5 88t129.5 76q139 68 291 111q156 45 309 65q78 10 155 15.5t148 5.5q178 0 332 -31q76 -14 141.5 -33.5t122.5 -42.5q94 41 182.5 72t174.5 47t164.5 25.5t156.5 9.5q139 0 273 -29q131 -29 241 -74q115 -47 211 -106q49 -29 95.5 -60.5 t86.5 -64.5q49 20 105.5 40.5l122.5 43.5q63 20 132 39.5t144 36.5l152 31.5t160 25.5t163.5 16.5t167.5 6.5q279 0 525 -70q242 -66 432 -195q184 -127 293 -311q108 -183 108 -412zM1016 2761q-98 74 -197.5 132t-206.5 99q-211 84 -456 84q-143 0 -312 -35 q-158 -33 -348 -104q264 -133 408 -307q147 -178 186 -361l115.5 69l113.5 66l110.5 65t113.5 62l113.5 60.5l115.5 58.5l120 56.5zM61 2253q-35 150 -116 262q-41 57 -84 107.5t-90 91.5t-92.5 74.5t-90.5 60.5t-79.5 44t-61.5 27q-182 -94 -299 -198q-119 -102 -190 -219 q-72 -115 -103 -236t-31 -235q0 -39 3.5 -77t7.5 -77q8 -72 35 -147q63 14 132.5 33.5t147.5 47.5q78 27 156 59l157 66q156 70 314 154l148 81zM88 2001q0 57 -6 117q-4 29 -8 54.5l-8 51.5l-228 -135l-133 -72t-145 -71l-156 -70t-166 -68t-174 -59.5t-182 -48.5 q41 -100 98 -176q57 -78 129 -129q70 -51 156 -80q80 -27 168 -27q147 0 268 68q121 70 207 172q88 106 133 231q47 129 47 242zM-582 2937q-49 18 -109.5 34.5t-131.5 30.5q-72 14 -151 21.5t-167 7.5q-43 0 -96 -5t-119 -15q-127 -18 -270 -62q-72 -20 -143.5 -47 t-143.5 -59q-141 -63 -256 -158q-117 -92 -186 -209q-72 -119 -72 -266q0 -150 72 -256q70 -100 186 -166q115 -66 254 -92q72 -14 141.5 -20.5t141.5 -6.5q47 0 94 2t96 6t101.5 11.5t109.5 17.5q-8 33 -13 65.5t-9 67.5q-6 68 -7 133q0 135 41 275q20 68 52 132t73 128 q82 121 213 233q125 107 299 197z" />
<glyph unicode="%" horiz-adv-x="819" d="M1239 -403q0 -150 -84 -322q-41 -86 -110.5 -168t-167.5 -168q-39 -35 -82 -66.5l-90 -64.5q-90 -63 -211 -119q-121 -55 -267 -98q-143 -39 -329 -61q-53 -123 -156 -213q-104 -92 -240 -152q-70 -29 -143.5 -51.5t-155.5 -38.5q-80 -14 -160.5 -21.5t-164.5 -7.5 q-150 0 -293 25q-72 10 -139.5 28.5t-133.5 40.5q-63 23 -121.5 51.5t-111.5 63.5q-104 66 -176 160q82 -82 194 -148q109 -61 238 -104q127 -41 260 -61q68 -10 135.5 -15.5t134.5 -5.5q78 0 154 7t152 22q74 12 141 32.5t131 49.5q125 55 219 137q96 84 141 192 q-96 -10 -190 -12q-47 -2 -95 -3t-96 -1q-467 0 -935 104q-236 51 -477.5 130t-495.5 188l-161 -74l-157 -76l-152.5 -75.5l-150.5 -71.5l-147.5 -67.5l-145.5 -65.5q-147 -63 -297 -109q-150 -45 -311 -74q-78 -14 -161 -20t-169 -6q-84 0 -169 6t-177 20q-180 25 -383 93 q-82 27 -149 75q-33 23 -61.5 48.5t-51.5 54.5q-47 61 -72 123q-25 63 -24 133q0 63 29 137q12 35 34.5 66.5t51.5 64.5q55 61 149 115q47 27 101.5 50.5t119.5 41.5q92 29 180.5 47.5t174.5 28.5t169.5 15t167.5 5q219 0 433 -37q106 -16 211.5 -40.5t214.5 -55.5 t217 -66.5t221 -76.5l227.5 -85l237.5 -91q170 88 342 151q174 63 356 111q92 23 180 39t178 26t175.5 15.5t169.5 5.5q215 0 403 -37q184 -33 326 -109q70 -35 123 -81t94 -99q80 -109 80 -250q0 -84 -27 -166q236 25 438 103q98 37 185.5 82t162.5 98q152 104 256 225 q100 119 154 234q35 78 49 151q12 74 12 144q0 127 -45 231q-45 102 -122 180q-76 76 -181 119q-102 43 -221 43h-24.5t-24.5 -2t-24.5 -2t-24.5 -4q-51 -12 -96 -35q-43 -23 -43 -47q43 0 65 -25q20 -25 21 -45q0 -37 -23 -59q-23 -23 -55 -23q-37 0 -58 25q-20 20 -20 57 q0 41 20 74t50 53q29 20 67 33q41 14 72 17q43 6 88 6q129 0 248 -47q121 -47 207 -125q88 -80 141 -191q51 -108 51 -239zM-139 -1253q0 119 -72 219q-70 96 -197 168q-63 35 -139 61.5t-164 46.5q-176 37 -389 37q-295 0 -641 -80q-342 -76 -708 -252q125 -51 242.5 -94 l232.5 -82q113 -39 224.5 -69.5t221.5 -57.5q111 -27 222.5 -45t226.5 -33q113 -14 231.5 -20t243.5 -6q199 0 424 18q41 99 41 189zM-2531 -1057l-191.5 70l-197.5 74t-204 72.5l-214 66.5q-109 33 -220.5 58.5t-228.5 47.5q-236 41 -483 41q-160 0 -322 -18 q-166 -16 -335 -64q-102 -29 -187 -77q-80 -45 -141 -109q-29 -31 -51.5 -64.5t-38.5 -68.5q-33 -68 -33 -141q0 -109 78 -211q39 -51 100.5 -94.5t149.5 -77.5q164 -63 319 -84q78 -10 157 -16.5t156 -6.5q186 0 369 31q92 16 179 35.5t173 46.5q86 25 169 53.5t165 60.5 l157 65t150 67l144.5 65.5l136.5 65.5l126.5 59z" />
<glyph unicode="&#x26;" horiz-adv-x="2048" d="M1999 401q-20 -41 -47 -79.5t-60 -79.5q-63 -80 -168 -146q-102 -66 -243 -104q-72 -20 -156 -32.5t-182 -8.5q-51 2 -98.5 14t-92.5 33q-90 37 -159 86q-68 47 -121 106q-51 53 -82 101l-44.5 -50.5t-43.5 -43.5l-45.5 -39t-44.5 -35q-23 -16 -46.5 -30.5l-48.5 -29.5 q-53 -27 -108 -47l-27.5 -8t-25.5 -6t-23.5 -3t-21.5 -1q-59 0 -84 31q-23 33 -23 71q0 31 12 66q6 16 13.5 31.5l15.5 31.5q35 61 82 119q23 29 48.5 57.5l53.5 57.5l57.5 55.5l57.5 54.5l111 111q-2 8 -2 16.5v16.5v33q0 86 18 176q14 86 49 170q16 41 35.5 79.5 t42.5 75.5q45 76 98 133q63 70 127 70q39 0 68 -31q27 -27 27 -80q0 -16 -3 -26q-4 -16 -6 -27q-12 -55 -51 -123l-42.5 -72.5t-51.5 -78.5l-55.5 -78l-59.5 -78l-61.5 -74.5l-59.5 -68.5q14 -78 43 -154q23 -72 56 -149l85 119.5l89 128.5l178 258l90 121.5l90 113.5 q88 111 172 184q29 23 60.5 44.5t70.5 37.5q78 33 140 33q37 0 67 -12q29 -10 51 -41q10 -14 17 -31q2 -10 3 -20.5t1 -20.5q0 -47 -17 -76q-20 -39 -41 -49q-18 -8 -41 -12q-31 2 -30 35q0 14 10 30q8 12 16 15q4 2 10.5 4t12.5 2q8 2 25 10q8 6 18 19q2 6 10 22q4 12 4 25 q0 25 -14 39q-41 43 -109 43q-55 0 -122 -29q-66 -29 -130 -80q-20 -16 -42.5 -39.5t-49.5 -56.5q-53 -66 -110 -148l-58.5 -86l-62.5 -92l-129 -190l-63.5 -94.5l-61.5 -94.5l-60.5 -89l-58.5 -81q14 -23 31.5 -49t40.5 -57q43 -59 104 -117q61 -55 142 -98q78 -41 178 -51 q49 -6 100 -7q133 0 256 41q59 18 114.5 44t104.5 57q102 63 170 137q35 39 63 74.5t48 70.5zM901 1354q0 43 -20 63q-18 20 -47 21q-59 0 -121 -70q-100 -113 -152 -244q-47 -129 -47 -250v-30.5t4 -28.5q0 -14 2 -28.5l4 -28.5q31 29 61.5 63.5t61.5 73.5l58.5 77l54.5 77 q49 74 88 143l28.5 60.5t16.5 45.5l6 31q2 9 2 25zM561 324l-32.5 71.5l-32.5 75.5q-35 76 -41 176l-99.5 -98l-103.5 -109q-106 -115 -178 -235q-18 -29 -31 -62q-10 -37 -10 -61q0 -29 18 -49q14 -20 58 -21q41 0 96 21q102 47 186 114q84 68 170 177z" />
<glyph unicode="'" horiz-adv-x="358" d="M602 1329v-12q-2 -4 -2 -7t-2 -7q-10 -63 -47 -119q-37 -55 -82 -101l-43 -42t-41 -35q-20 -16 -34.5 -26.5l-22.5 -16.5l47 61.5l49 60.5q51 63 59 123q-33 0 -32 45q2 14 4 23.5t6 17.5q2 14 12 25q6 8 19 18q8 6 24 19q25 18 47 18q39 0 39 -45z" />
<glyph unicode="(" horiz-adv-x="819" d="M1491 2019q-82 -55 -217 -172q-66 -57 -135.5 -125.5l-145.5 -150.5t-150.5 -172t-152.5 -195q-156 -205 -282 -438q-129 -238 -222 -498q-94 -264 -120 -542q-2 14 -3.5 28.5t-3.5 28.5t-2 29.5v31.5q0 162 45 351q23 98 54.5 197.5t72.5 203.5q82 205 209 418 q123 209 283 399q164 190 354 346q98 78 200.5 143.5t215.5 116.5z" />
<glyph unicode=")" horiz-adv-x="1843" d="M1489 1919q0 -303 -105 -612q-102 -305 -292 -598q-188 -289 -449 -541q-262 -250 -573 -430q317 231 561 518q242 285 418 590q174 301 282 602q53 150 93 289t63 270q2 -10 2 -22.5v-22.5v-43z" />
<glyph unicode="*" d="M1171 844l-225 -160h221l-49 -82h-241l98 -172l-70 -45l-90 168l-110 -205h-91l107 205l-217 -168l-41 61l213 156h-250l57 82h254l-98 172l66 45l94 -168l106 209h90l-106 -213l237 172z" />
<glyph unicode="+" d="M1167 684l-49 -82h-291l-122 -254h-91l127 254h-315l57 82h295l127 258h90l-127 -258h299z" />
<glyph unicode="," horiz-adv-x="559" d="M356 127q0 -2 -1 -8t-3 -17q-10 -66 -45 -120q-35 -55 -84 -111l-44 -46.5t-44 -39.5t-37 -30.5t-24 -20.5q23 35 47 66.5l49 64.5q51 63 59 123q-33 0 -32 37q10 55 30 75q10 10 20.5 22.5t22.5 24.5q27 18 52 19q34 0 34 -39z" />
<glyph unicode="-" d="M1167 684l-49 -82h-692l57 82h684z" />
<glyph unicode="." horiz-adv-x="512" d="M352 86q0 -31 -20 -53q-23 -25 -58 -25q-37 0 -59 21q-23 23 -22 61q0 29 24 51q23 23 57 23q29 0 56 -23q22 -22 22 -55z" />
<glyph unicode="/" horiz-adv-x="614" d="M1274 2032l-1438 -2315l-86 -4l1434 2315z" />
<glyph unicode="0" horiz-adv-x="1024" d="M1075 930q0 -94 -43 -205q-20 -53 -47 -107.5t-59 -107.5q-33 -53 -71 -102.5t-79 -96.5q-84 -96 -166 -159q-102 -80 -190 -113q-94 -35 -168 -35q-76 0 -127 33q-53 33 -80 98q-31 76 -31 168t35 201q16 53 40 104t54 103q57 98 142 192q41 45 84 86t90 76 q88 66 176 102q92 35 172 35q63 0 121 -22q53 -23 88 -70q59 -78 59 -180zM985 942v27.5t-2 25.5q-4 25 -12 49q-25 61 -82 93q-59 31 -129 30q-72 0 -142 -30q-72 -29 -131 -84q-82 -78 -155 -179q-66 -96 -117 -200q-47 -102 -74 -203q-27 -98 -26 -184q0 -57 12 -103 q12 -49 70 -86q59 -35 135 -35q59 0 125 25q70 27 121 84q35 35 68.5 77l68.5 89q72 94 133 194q57 100 98 209q39 105 39 201z" />
<glyph unicode="1" horiz-adv-x="716" d="M913 1233l-766 -1233h-114l610 963q-86 -53 -170 -91q-43 -16 -80 -31.5t-65 -25.5l-13 12q84 35 162 81t150 100z" />
<glyph unicode="2" horiz-adv-x="1150" d="M1237 926q0 -113 -74 -219q-70 -106 -180 -195q-55 -43 -141 -82l-84 -34.5t-88 -35.5q-45 -16 -88 -33.5l-86 -33.5t-80 -35.5t-68 -40.5q18 6 37 6q35 0 72 -18q16 -10 34.5 -20.5t38.5 -20.5t42 -19.5l44 -19.5q45 -18 103 -19q45 0 104 19q53 14 123 59 q-63 -84 -135 -137q-68 -49 -156 -49q-57 0 -125 25t-153 79q-23 6 -51 23q-33 14 -68 14q-49 0 -111 -41q-20 -12 -36.5 -25.5t-30.5 -23.5q-29 -23 -68 -49l4 41q88 96 191 156q51 29 104.5 55.5t110.5 50.5l117.5 48.5l126.5 54.5q125 53 276 151q25 16 46.5 35.5 t39.5 42.5l31.5 46.5t25.5 49.5q23 49 31 100q4 25 7 47.5t3 45.5q0 72 -20 104q-10 23 -31 47q-16 18 -47 43q-27 18 -65 31q-35 12 -78 12q-72 0 -131 -33q-66 -37 -109 -81q-23 -25 -40 -52.5t-32 -56.5q-27 -55 -26 -109q0 -55 31 -88q27 -33 86 -32q35 0 71 12 q37 12 68 37q-23 -53 -68 -80q-41 -27 -90 -27q-35 0 -67 17q-14 8 -27.5 17t-24.5 24q-23 27 -34 59q-12 33 -13 72q0 59 43 125q43 63 111 116q33 27 69.5 49.5t77.5 38.5q82 35 154 35q57 0 110 -24q53 -23 97 -62q41 -37 67 -88q29 -51 29 -104z" />
<glyph unicode="3" horiz-adv-x="1071" d="M1202 1004q0 -80 -43 -156q-45 -80 -141 -131q-6 -4 -15.5 -8l-21.5 -9q-10 -4 -23.5 -10t-27.5 -10t-26.5 -10t-26.5 -11q-14 -4 -25.5 -8l-22.5 -8q76 -20 109 -84q31 -61 31 -135q0 -109 -58 -186q-57 -82 -141 -134q-82 -51 -182 -79q-94 -27 -182 -27q-72 0 -142 20 q-76 20 -131 58q-55 37 -96 98q-37 57 -37 137q0 33 16 72q16 41 41 68q27 31 64 51q37 18 80 18q45 0 84 -20q41 -23 61 -58q-35 23 -86 23q-31 0 -61 -12q-27 -10 -58 -35q-29 -23 -43 -53q-16 -33 -16 -72q0 -68 27 -115q23 -45 65 -82q43 -33 88 -47t96 -14q78 0 172 22 q88 20 162 68q74 43 121 108q47 66 47 146q0 47 -14 90q-14 45 -49 82q-37 37 -88 57q-57 23 -136 23h-61l-2 16l64.5 8t64.5 7q63 4 121 12q55 8 112 24q27 8 52.5 19.5t48.5 27.5q78 53 112 132q35 80 35 141q0 90 -61 133q-59 41 -141 41q-59 0 -113 -21q-51 -18 -96 -53 q-41 -33 -70 -86q-25 -53 -25 -112q0 -43 21 -70q18 -29 63 -29q51 0 136 47q-16 -49 -54 -69q-35 -20 -82 -21q-45 0 -84 21q-39 18 -47 49q-8 18 -10 33q-4 20 -4 39q0 59 39 112q35 51 96 101q61 45 129 71q35 12 68 19.5t65 7.5q104 0 180 -60q72 -58 72 -167z" />
<glyph unicode="4" d="M1147 971l-106.5 -164l-106.5 -168l-101.5 -165l-99.5 -159h246l-16 -57h-263l-59.5 -87t-58.5 -89q-29 -45 -59.5 -87l-59.5 -81h-94l225 344h-533q-51 0 -51 16q0 12 8 23q4 6 9.5 13l13.5 18l1053 880v-57l-983 -836h520l434 656h82z" />
<glyph unicode="5" horiz-adv-x="1024" d="M1245 1163q-18 -68 -65 -96q-45 -27 -107 -27q-59 0 -117 19q-29 8 -53 18t-47 21l-356 -377l32.5 8t32.5 6t30.5 3t31.5 1q166 0 237 -69q74 -72 74 -189q0 -113 -49 -200q-47 -86 -131 -152q-86 -63 -189 -96q-100 -33 -215 -33q-70 0 -133 18q-63 14 -110 54 q-49 35 -76 90q-29 53 -29 127q0 96 68 170q14 16 28.5 25.5t30.5 17.5q31 12 60 12q53 0 94 -31q41 -29 41 -61q-55 23 -97 22q-43 0 -69 -20q-29 -23 -43 -51q-16 -31 -25 -70q-6 -37 -6 -72q0 -63 25 -102q20 -37 63 -63q20 -10 44 -19.5t52 -13.5q27 -4 55.5 -6t59.5 -2 q109 0 193 43q82 43 141 108q57 66 86 139q29 76 29 140q0 109 -54 168q-53 55 -188 55q-55 0 -107 -14q-55 -16 -110 -50l-17 17l521 565q39 -35 86 -51q45 -12 94 -12q27 0 51.5 3t48.5 7q23 4 44.5 10t39.5 10z" />
<glyph unicode="6" horiz-adv-x="1054" d="M1587 1284v-14t-2 -19q-4 -25 -8 -39q-6 -16 -18 -32q-10 -12 -29 -13q-29 0 -35 41q0 127 -51 197q-53 68 -174 68q-90 0 -183 -35q-45 -16 -89 -39t-87 -51q-84 -55 -166 -129q-80 -72 -151 -152l-67.5 -78l-63.5 -78l-56.5 -74.5t-50.5 -70.5q72 63 156 94 q80 31 154 31q49 0 92 -19q39 -16 76 -53q29 -33 49 -82q18 -47 18 -106q0 -137 -57 -252q-55 -119 -142 -201q-88 -84 -188 -133q-104 -47 -195 -47q-72 0 -116 27q-47 29 -74 69q-27 39 -39 96q-10 57 -10 107q0 147 61 295q61 143 164 280q51 68 108.5 130.5t123.5 119.5 t131 107.5t135 93.5q135 86 270 135q135 47 240 47q51 0 100 -12t88 -39q39 -25 64 -68q22 -41 22 -102zM815 627q0 49 -14 86q-8 20 -17.5 37.5t-23.5 33.5q-29 31 -62 50q-35 18 -77 18q-90 0 -175 -59q-80 -55 -143 -152q-61 -90 -96 -199q-35 -111 -35 -204q0 -47 8 -82 q10 -43 27 -68q20 -31 51 -47q33 -16 76 -16q104 0 192 57q90 55 154 143q61 82 100 195q35 111 35 207z" />
<glyph unicode="7" horiz-adv-x="768" d="M1090 1212l-971 -1347h-127l909 1212q-45 -14 -96 -14q-61 0 -113 22q-49 20 -86 50q-18 12 -33.5 24l-29.5 23q-29 23 -49 22q-14 0 -31 -16l-148 -209l-24 12l221 336l37 -16l-37 -54q25 12 51 13q35 0 76 -19l37.5 -20l42.5 -21q41 -23 88 -41q45 -18 102 -18 q43 0 86 14q40 10 95 47z" />
<glyph unicode="8" horiz-adv-x="1089" d="M1239 1049q0 -59 -22 -123q-20 -55 -66 -111q-41 -49 -107 -90q-63 -39 -143 -53v24q55 12 109 49q49 31 90 86q39 55 59 113q23 63 23 123q0 57 -21 107q-23 55 -59 92q-35 39 -92 63q-55 23 -123 23q-70 0 -127 -31q-57 -29 -96 -80q-39 -49 -62 -115q-20 -61 -20 -137 q0 -47 12 -96q4 -25 14 -46.5t23 -43.5l106 -172q37 -59 54 -119q18 -66 18 -129q0 -193 -107 -287q-109 -96 -307 -96q-158 0 -260 84q-98 82 -98 252q0 70 24 147q25 76 80 140q53 63 148 112q88 45 223 68q-25 86 -25 160q0 82 33 155q29 72 84 137q53 59 127 97 q74 35 154 34q84 0 145 -26q63 -29 111 -74q43 -43 71 -106q12 -31 19.5 -63.5t7.5 -67.5zM694 342q0 61 -12 121q-4 29 -11 53.5t-16 44.5q-18 51 -59 103q-20 23 -35.5 50t-28.5 56q-113 -8 -192 -49q-76 -39 -129 -103q-49 -59 -72 -131q-23 -74 -22 -139q0 -63 22 -125 q20 -59 62 -104q39 -41 92 -70q51 -27 115 -26q68 0 120 24q53 25 90 68q35 41 58 102q18 57 18 125z" />
<glyph unicode="9" horiz-adv-x="1517" d="M2 -2v14t2 19q4 25 8 39q6 16 19 32q8 12 28 13q29 0 35 -41q0 -127 51 -197q51 -68 174 -67q88 0 183 34q45 16 89 39t87 51q82 55 166 129q80 72 151 152l68 78t63 80l56.5 74.5t50.5 68.5q-72 -63 -156 -94q-80 -31 -153 -31q-49 0 -93 19q-39 16 -75 53 q-31 33 -49 84q-18 45 -19 104q0 137 57 252q55 119 142 201q88 84 188 133q104 47 195 47q72 0 116 -27q47 -29 74 -69q27 -39 39 -96q10 -57 10 -107q0 -147 -61 -295q-61 -143 -164 -280q-51 -68 -108.5 -130.5t-122.5 -119.5q-66 -57 -131.5 -107.5t-135.5 -93.5 q-133 -86 -268 -135q-135 -47 -242 -47q-51 0 -100 12t-88 39q-39 25 -63 68q-23 41 -23 102zM774 655q0 -49 14 -86q8 -20 17.5 -37.5t23.5 -33.5q27 -31 62 -49q33 -18 78 -19q90 0 174 59q80 55 143 152q61 90 96 199q35 111 35 204q0 47 -8 82q-10 43 -27 68 q-20 29 -49 47q-33 16 -78 16q-104 0 -192 -57q-90 -55 -154 -143q-63 -84 -100 -193q-35 -111 -35 -209z" />
<glyph unicode=":" horiz-adv-x="600" d="M573 512q-12 -53 -30 -80q-16 -25 -60 -51q-29 -16 -41 -16q-14 0 -22 14q-6 14 -6 55q6 49 20 74q12 25 49 49q31 20 49 21q41 0 41 -66zM360 168q-6 -53 -20 -84q-12 -31 -53 -64q-29 -18 -43 -18q-35 0 -35 59q6 53 20 84q12 33 50 64q29 23 49 22q32 0 32 -63z" />
<glyph unicode=";" horiz-adv-x="696" d="M500 365v-15q0 -6 -4 -18q-8 -45 -23 -76q-8 -25 -51 -51q-20 -20 -43 -21q-31 0 -31 66q10 53 29 82q8 14 21.5 25.5t31.5 23.5q27 16 45 16q25 1 25 -32zM356 70q0 -4 -1 -11.5t-3 -17.5q-10 -59 -49 -123q-41 -61 -86 -117q-23 -29 -45 -52t-45 -44l-37 -32.5 t-24 -20.5q10 16 22 32.5t27 32.5l24.5 31.5t22.5 32.5q10 16 20.5 30.5l20.5 28.5q16 29 22 58q-23 0 -30 20q-6 20 -7 37q12 35 37 76q20 37 54 63q20 14 45 15q32 0 32 -39z" />
<glyph unicode="&#x37e;" horiz-adv-x="696" d="M500 365v-15q0 -6 -4 -18q-8 -45 -23 -76q-8 -25 -51 -51q-20 -20 -43 -21q-31 0 -31 66q10 53 29 82q8 14 21.5 25.5t31.5 23.5q27 16 45 16q25 1 25 -32zM356 70q0 -4 -1 -11.5t-3 -17.5q-10 -59 -49 -123q-41 -61 -86 -117q-23 -29 -45 -52t-45 -44l-37 -32.5 t-24 -20.5q10 16 22 32.5t27 32.5l24.5 31.5t22.5 32.5q10 16 20.5 30.5l20.5 28.5q16 29 22 58q-23 0 -30 20q-6 20 -7 37q12 35 37 76q20 37 54 63q20 14 45 15q32 0 32 -39z" />
<glyph unicode="&#x3c;" horiz-adv-x="921" d="M741 25l-606 335l168 84q80 41 158 91q35 23 67.5 48t61.5 52q55 51 86 115h20q-53 -117 -172 -218q-59 -51 -125.5 -96t-144.5 -84l487 -282v-45z" />
<glyph unicode="=" d="M1167 684l-49 -82h-692l57 82h684zM1102 438l-49 -82h-693l58 82h684z" />
<glyph unicode="&#x3e;" horiz-adv-x="921" d="M750 360l-615 -335v49l500 270q-94 29 -162 70q-72 43 -123 98q-55 55 -94 115q-20 31 -37.5 61.5l-34.5 61.5h21q39 -78 104 -144q33 -31 67 -58.5t73 -49.5l74.5 -44.5t78.5 -37.5q76 -36 148 -56z" />
<glyph unicode="?" horiz-adv-x="1087" d="M1114 1251q0 -57 -33 -110q-16 -27 -37.5 -53.5t-50.5 -53.5t-60.5 -51.5l-66.5 -50.5q-35 -27 -70.5 -51.5l-74.5 -49.5q-33 -23 -64.5 -48t-62.5 -58q-61 -61 -113 -137q-27 -39 -48 -78l-42 -80q-20 -41 -34.5 -82t-24.5 -82v107q23 66 48.5 120t53.5 99 q29 45 57.5 82t59.5 69q61 61 127 109l63.5 45.5l61.5 44.5q123 90 168 158q45 63 45 117q0 31 -12 55q-10 20 -29 43q-20 27 -55 39q-31 12 -66 12q-53 0 -102 -31q-47 -29 -64 -82l-70 17q41 74 121 121q82 47 166 47q43 0 86 -17q20 -8 39 -19t35 -30q49 -55 49 -121z M319 45q0 -31 -20 -53q-23 -25 -57 -25q-37 0 -60 21q-23 23 -22 61q0 29 24 51q23 23 58 23q29 0 55 -23q22 -22 22 -55z" />
<glyph unicode="@" d="M1370 764q0 -68 -18 -156q-18 -86 -56 -178q-18 -47 -41.5 -92t-52.5 -90q-59 -90 -135 -160q-39 -35 -83 -63.5t-95 -51.5q-100 -45 -221 -47q-76 -2 -131 39q-53 41 -54 129q0 61 23 135q20 68 55 123q-68 -86 -158 -170q-92 -86 -223 -162q-47 -20 -80 -20 q-18 0 -32 6q-10 2 -23 14q-20 16 -29 50q-8 27 -8 71v24.5t4 27.5q0 14 4 26l9 27q10 29 23 60.5t34 66.5l42.5 72.5t49.5 76.5l54.5 78t60.5 78l65.5 74.5l67.5 70.5q35 33 68.5 61.5t68.5 55.5q70 51 133 76q14 6 28.5 11t29.5 9q14 4 27.5 6t25.5 2q43 0 65 -28 q16 -29 17 -70v-26q0 -10 -4 -31l94 155h86l-406 -679q-31 -53 -65 -125q-16 -35 -27.5 -70l-21.5 -68q-6 -18 -6 -34q0 -53 43 -80q41 -29 90 -29q106 0 192 39q92 37 160 100q72 63 123 144q55 84 90 166q16 43 29.5 86t23.5 88q8 43 12.5 83t4.5 74v31l-3.5 14.5 t-1.5 14.5q-6 86 -47 168q-41 78 -104 139q-68 61 -143 96q-82 35 -164 35q-158 0 -303 -47q-72 -23 -134.5 -53.5t-117.5 -65.5q-104 -70 -185 -158q-74 -84 -104 -159q47 137 143 229q49 47 104.5 86t114.5 72q119 61 248 92q63 14 118.5 21.5t106.5 7.5q133 0 238 -48 q100 -45 168 -116q63 -68 98 -146q16 -39 22.5 -73.5t10.5 -67.5q2 -6 2 -23v-24zM862 928q0 43 -18 71q-16 25 -58 25q-41 0 -86 -25q-61 -33 -122 -88q-61 -59 -123 -129q-29 -35 -57.5 -73.5l-57.5 -79.5l-52.5 -80t-47.5 -78l-44.5 -74t-39.5 -69q-16 -35 -31.5 -63.5 t-26.5 -51.5q-8 -16 -15 -34.5t-11 -35.5q-10 -37 -11 -63q0 -25 9 -39q8 -18 41 -18q31 0 57 14q74 41 134 85t108 89q94 92 163 203l258 409q10 14 15.5 27.5t9.5 28.5q6 26 6 49z" />
<glyph unicode="A" horiz-adv-x="3731" d="M4852 2349q0 -186 -82 -358q-80 -174 -215 -324q-133 -152 -309 -278q-172 -125 -367 -222q-96 -47 -191.5 -85t-193.5 -66q-190 -57 -361 -70q-49 -68 -116 -153q-70 -90 -129 -187q-63 -102 -105 -211q-43 -109 -43 -223q0 -33 8 -63q10 -37 27 -62q14 -25 47 -45 q27 -16 72 -20q27 92 90 202q59 106 141 195q41 45 87 81t98 64q100 57 211 58q68 0 104 -37q37 -35 37 -88q0 -104 -72 -199q-72 -90 -182 -158q-109 -66 -240 -104q-133 -37 -252 -37q-4 -12 -12 -68q-4 -29 -7 -60.5t-3 -70.5v-34.5t2 -36.5q2 -37 12 -74h-20l-7.5 53.5 t-3.5 46.5q-4 23 -4 42.5v39.5t1 41t3 41t4.5 40t6.5 40q-117 6 -178 88q-59 82 -60 215q0 88 39 180t92 187q51 92 111 172l51.5 70.5t38.5 58.5q-92 -12 -172 -19q-80 -6 -164 -18q-45 -59 -96 -119.5t-111 -120.5q-117 -119 -254 -229q-141 -111 -291 -203 q-78 -47 -155.5 -87t-157.5 -75t-161 -61.5t-163 -46.5q-158 -39 -319 -39q-23 -78 -23 -186q0 -152 52 -275q51 -127 145 -219q94 -94 223 -145q131 -53 287 -54q147 0 295 45q147 43 268 127q59 41 107.5 93.5t87.5 113.5q76 121 76 281q0 145 -91 213q-90 68 -235 67 q-90 0 -178 -20q-92 -23 -172 -55q-80 -35 -142 -86q-63 -51 -90 -107h-24q39 68 102 119q33 27 69 49.5t77 42.5t83.5 34.5t88.5 24.5q84 20 178 21q78 0 145 -19q63 -14 115 -53q49 -37 78 -96q27 -55 26 -137q0 -162 -78 -293q-39 -66 -88 -120t-112 -99 q-121 -88 -279 -137q-158 -47 -309 -48q-168 0 -309 56q-145 57 -244 155q-98 94 -158 240q-57 135 -57 309q0 47 6 90q2 23 6 42.5t8 35.5q-143 6 -297 55q-156 51 -278 144q-127 92 -209 229q-82 133 -82 314q0 123 39 227q35 104 105 201q66 90 159 168q88 74 197 129 q53 27 108.5 47t114.5 34q121 29 236 29q121 0 231 -33q113 -35 203 -98q86 -61 143 -162q53 -96 53 -225q0 -119 -49 -213q-47 -90 -133 -164q-41 -35 -89 -61.5t-101 -46.5q-109 -37 -228 -37q-61 0 -139 16q-35 8 -68.5 21.5t-64.5 29.5q-61 35 -100 90q-39 51 -39 132 q0 57 24 104q27 49 66 82q41 35 90 55q49 18 100 19q63 0 103 -21v-4q-39 16 -86 16q-57 0 -109 -18q-47 -18 -86 -53q-35 -35 -55 -82q-20 -43 -21 -105q0 -74 43 -125q43 -49 107 -79q61 -27 133 -43q70 -12 127 -13q102 0 201 37q98 39 174 105q78 68 123 161 q47 94 47 203q0 121 -52 209q-51 92 -131 152q-84 61 -188 92t-213 30q-168 0 -334 -59q-82 -29 -153.5 -70t-135.5 -94q-129 -106 -204 -252q-78 -145 -78 -321q0 -166 67 -295q68 -131 181 -221q115 -90 260 -142q141 -47 301 -57q57 168 170 305q55 66 118.5 125.5 t135.5 110.5q145 102 309 178q82 37 164 67.5t168 57.5q164 51 329 82q80 14 154 24.5t139 16.5l120 125.5l126 130.5q129 131 279 266l153.5 133.5t165.5 132.5q86 66 179 129.5t194 122.5q14 10 30.5 16.5t34.5 12.5q37 12 74 12q29 0 51 -8q27 -10 43 -29l-44.5 -46 l-55.5 -58l-62.5 -69l-70.5 -77l-77 -84l-81 -90l-82 -94l-82 -94l-81 -94l-81 -95l-74.5 -90l-68.5 -84q156 12 342 66q180 51 363 141q180 86 348 205q168 121 293 264q129 147 204 316q37 86 56.5 173t19.5 181q0 152 -57 274q-55 125 -152 232q-94 100 -223 182 q-63 39 -128.5 71.5t-135.5 61.5q-70 27 -141.5 47.5t-143.5 34.5q-72 12 -140.5 19.5t-133.5 7.5q-195 0 -406 -37q-205 -33 -409 -109q-201 -72 -381 -178q-90 -53 -168 -115.5t-146 -134.5q-135 -141 -215 -317q-78 -178 -77 -385q0 -84 28 -176q27 -84 101 -168 q236 369 518 557q281 186 641 186q76 0 147 -18q66 -18 119 -56q51 -39 78 -94q29 -61 28 -135q0 -102 -49 -190q-47 -86 -127 -158q-39 -35 -84 -65.5t-96 -59.5q-51 -27 -102 -49.5t-105 -40.5q-102 -37 -207 -55q-102 -18 -182 -19q-170 0 -311 45q-143 45 -260 123 q-10 -10 -23 -29l-12 -20l-12 -21q-4 -10 -10.5 -20t-10.5 -21q-4 -10 -7 -19t-7 -17h-17l19.5 47t19.5 43q20 39 43 73q-104 104 -143 207q-41 106 -41 207q0 233 88 416q86 184 234 325q150 139 342 238q188 96 405 162q217 63 432 90q111 14 214.5 21.5t203.5 7.5 q150 0 295 -33q76 -16 147.5 -39t143.5 -51q72 -29 137.5 -66t128.5 -78q61 -41 114.5 -90t100.5 -102q94 -111 145 -234q54 -129 54 -270zM3944 1966q-8 8 -30 8q-23 0 -60 -16l-31.5 -16.5l-29.5 -16.5q-143 -82 -293 -196q-152 -117 -301 -252q-76 -66 -146.5 -134.5 l-140.5 -140.5l-128 -136.5t-113 -131.5q27 4 50 7t46 7q23 2 43 4l41 4q20 2 40.5 4.5t41.5 4.5l41.5 4t44.5 6l115.5 131l117.5 135l120.5 136.5l121.5 131.5l118.5 128.5l116.5 121.5l110.5 110.5zM3367 2099q0 74 -31 127q-29 51 -80 86q-49 33 -114 49q-59 14 -131 15 q-184 0 -349 -58q-164 -55 -307 -153q-143 -100 -262 -234q-59 -68 -114.5 -141.5t-102.5 -151.5q133 -96 272 -135q141 -37 281 -37q96 0 209 23q53 10 106.5 24.5t106.5 34.5t102 44t96 53t89.5 60.5t76.5 66.5q70 70 111 153q41 86 41 174zM3639 465q0 39 -24 67 q-20 27 -76 27q-80 0 -178 -47q-94 -47 -178 -125q-84 -74 -156 -184q-70 -102 -107 -223q111 0 238 36q63 16 121.5 42t111.5 59q53 31 98.5 69.5t80.5 83.5q69 93 69 195zM2540 881q-55 -6 -120 -16.5t-139 -24.5q-150 -29 -303 -74q-158 -47 -319 -117 q-80 -35 -154.5 -77t-144.5 -93q-70 -49 -132.5 -106.5t-115.5 -122.5q-109 -129 -166 -297q72 0 139.5 7t133.5 22q66 14 128 31.5t121 39.5q113 45 224 105q53 29 102 59.5t96 63.5q92 63 172 129l74 61.5l68 56.5l45 40l43 40l39.5 40l40.5 42l39.5 45.5l39.5 44.5 l43 48.5z" />
<glyph unicode="B" horiz-adv-x="2420" d="M3701 1970q0 -98 -43 -190q-41 -92 -111 -170q-66 -76 -158 -142q-45 -33 -90 -59.5t-92 -48.5q-88 -43 -184 -70q-90 -25 -164 -24q66 10 152 37q43 14 87 31.5t91 39.5q45 23 89 49.5t89 57.5q86 61 156 137t110 162q41 92 41 186q0 63 -24 117q-25 51 -70 88 q-43 33 -102 55q-59 18 -127 19q-68 0 -138 -15l-71.5 -17t-73.5 -24q-74 -29 -148 -67q-35 -20 -69.5 -42t-69.5 -48q14 -29 25.5 -59.5t19.5 -59.5q16 -61 17 -117q0 -166 -131 -321q-133 -160 -414 -291q31 -23 67 -66q16 -20 32 -44.5t30 -55.5q14 -29 24.5 -66 t20.5 -80q18 -84 18 -202q0 -121 -53 -244t-145 -215q-96 -96 -226 -154q-129 -57 -290 -57q-74 0 -113 43q-39 41 -39 115q0 86 41 178q20 45 46 85t56 79q57 74 129 129q35 27 67 46t60 30q-80 -47 -151 -119q-70 -70 -117 -144t-74 -147q-27 -72 -26 -135q0 -55 26 -84 q27 -31 84 -31q135 0 250 64q115 59 205 159q84 96 137 221q51 121 51 244q0 100 -14 166q-16 76 -37 125q-10 27 -21.5 49.5t-25.5 40.5l-26.5 31.5t-22.5 25.5q-61 -29 -119 -41q-63 -14 -127 -16q-104 -176 -239 -344q-66 -86 -137.5 -162t-147.5 -145q53 -59 78 -113 q23 -55 22 -100q0 -55 -28 -103q-14 -23 -34 -42t-44 -35q-43 -31 -113 -52q-66 -18 -135 -18q-74 0 -147 20q-80 23 -144 66q-98 -35 -217 -61q-119 -23 -262 -23q-66 0 -154 6q-88 4 -163 31q-76 25 -134 78q-53 53 -53 151q0 59 35 119q33 55 92 105q57 47 131 88 q70 39 152 67l77.5 23.5t77.5 19.5q39 6 73 10.5t67 4.5q0 162 55 339q53 172 158 351q102 174 245 329q72 78 152 146.5t168 128.5q88 59 181 106t198 82q102 35 207.5 52.5t216.5 17.5q102 0 186 -19q86 -18 150 -49q33 -14 60.5 -30.5t49.5 -32.5q23 -16 39 -34.5 t27 -35.5q35 27 69.5 50.5t73.5 43.5q37 20 74 36t76 30t75.5 23.5t73.5 17.5q74 12 141 12q80 0 142 -20q70 -20 112 -58q23 -20 42.5 -42.5t33.5 -51.5q27 -59 27 -127zM2773 1890q0 63 -29 117q-184 -154 -338 -342q-76 -92 -147.5 -190.5t-140.5 -204.5 q20 -4 39.5 -10.5l37.5 -12.5q37 -12 66 -35q20 8 43 20.5t49 33.5q27 18 53.5 40.5l55.5 49.5t56.5 56.5l55.5 62.5q29 33 53.5 67.5l47.5 69.5q45 76 71 141q27 76 27 137zM2216 1200q-14 12 -43 23q-27 12 -72 18l-65 -94q25 2 49 7t51 13q27 6 46.5 14.5t33.5 18.5z M1993 1253h-25.5t-28.5 -2q-14 -2 -27.5 -3t-27.5 -5q-20 -6 -43 -16q-16 -10 -16 -27q0 -14 12 -22q8 -6 29 -15q8 -4 16 -5t19 -3q8 -2 15 -2h11q2 4 6 8t9 13q4 8 10 15t10 15t10 14.5t10 14.5t6.5 12t4.5 8zM2728 2036q-10 16 -47 49t-90 61q-61 29 -140 49 q-80 20 -190 21q-164 0 -344 -55q-174 -51 -350 -152q-172 -98 -328 -235q-156 -139 -272 -306q-115 -166 -187 -362q-68 -195 -67 -401q117 0 231 -19q55 -8 106.5 -19.5t98.5 -25.5t89 -28.5t77 -30.5t62.5 -33t47.5 -33q68 72 132.5 147.5t123.5 153.5l114.5 154 l107.5 151l-15.5 4t-17.5 7q-18 2 -37 12q-8 4 -15.5 9t-13.5 11q-10 14 -10 31q0 27 23 43q25 18 57 27q35 10 70 12q18 2 34.5 3t32.5 1q82 125 170 229q86 106 180 205l93.5 91l93.5 85q90 78 180 144zM1540 264q0 90 -86 174l-49.5 -45l-48.5 -45q-23 -23 -48.5 -43 l-54.5 -43q-27 -23 -55.5 -42l-60.5 -40l-68 -35.5t-74 -33.5q33 -23 66 -38.5t65 -25.5q63 -18 123 -18q66 0 115 20q55 18 92 51q39 31 62 74q22 45 22 90zM1389 483q-115 82 -295 129q-184 47 -381 47q0 -111 24 -192q20 -80 60 -148q35 -61 80 -106q20 -23 39.5 -39 l37.5 -31q133 61 242 158l102.5 93t90.5 89zM905 123q-33 27 -60.5 56.5t-49.5 62.5q-47 68 -74 133q-14 35 -23.5 69.5t-17.5 71.5q-12 70 -12 143q-29 0 -63 -3t-68 -11q-74 -12 -146 -37t-141 -61q-70 -35 -121 -80q-51 -41 -86 -96q-31 -53 -31 -113q0 -78 45 -123 q47 -47 113 -67q68 -23 139 -29q74 -6 131 -6q133 0 238 26q53 12 110.5 28t116.5 36z" />
<glyph unicode="C" horiz-adv-x="1380" d="M2128 2048q0 -47 -23 -127q-10 -39 -26.5 -79t-36.5 -81t-45 -84t-53 -84q-29 -41 -61 -78.5t-66 -72.5q-35 -33 -73 -59.5t-79 -49.5q-82 -41 -168 -41q-72 0 -123 37q-49 35 -59 80q-113 -76 -254 -123t-275 -47q-100 0 -180 27q-113 -137 -207 -287 q-47 -76 -90 -153.5l-84 -157.5q-23 -45 -41 -93.5t-34 -101.5q-29 -104 -29 -192q0 -61 22 -111q20 -39 64 -70q39 -27 96 -39q29 -4 60.5 -7t66.5 -3q92 0 193 33q53 16 104 38.5t104 51.5t103.5 61.5t101.5 71.5q49 37 92 79t82 87q78 90 123 186q45 102 45 195 q0 55 -37 84q-35 27 -92 27q-143 0 -280 -68q-139 -68 -246 -174q-109 -104 -176 -231q-68 -127 -68 -246q0 76 31 166q27 86 80 172q27 41 57.5 82t65.5 79q35 39 74.5 72t82.5 62q86 57 185 92q98 35 198 35q76 0 115 -39q39 -37 39 -103q0 -109 -45 -213 q-47 -106 -123 -200q-39 -47 -82 -92.5t-94 -86.5q-94 -80 -209 -143q-55 -29 -111.5 -53.5t-113.5 -40.5q-117 -35 -215 -35q-186 0 -275 88q-86 88 -86 262q0 94 21 182q18 94 49 164q16 37 34.5 75t41.5 77l45 78t49 80l50.5 77.5l53.5 77.5l54.5 75l52.5 71 q-104 72 -160 180q-53 113 -53 242q0 111 49 225q45 109 127 215q76 98 180 194q104 92 211 162q53 35 106.5 64.5t106.5 52.5t100.5 37t90.5 20q-76 -35 -154 -75.5t-160 -88.5q-82 -47 -155.5 -102t-141.5 -117q-68 -59 -123 -126.5t-100 -139.5q-86 -145 -86 -315 q0 -63 16 -129q8 -29 17.5 -56.5t23.5 -54.5q27 -53 64 -88q35 -37 78 -59q70 70 159 172q88 100 197 209q53 53 110.5 105l116.5 105t122 100.5t128 88.5q66 41 131.5 73.5t134.5 59.5q133 51 273 51q66 0 104 -20q41 -18 66 -56q27 -35 35 -84q10 -51 10 -104zM2099 2046 q0 23 -1 43t-3 43t-7 42t-13 36q-8 16 -19.5 31.5t-27.5 25.5q-35 23 -93 23q-131 0 -268 -60q-135 -59 -262 -153q-125 -92 -248 -209l-113.5 -112.5l-105.5 -108.5l-92 -103.5l-82 -95.5l-68.5 -80t-52.5 -57q70 -25 150 -25q66 0 147 17q37 8 73 18t70 22q35 10 67 23.5 t60 28.5q29 12 52.5 25.5l44.5 25.5q0 68 20 123q10 29 22.5 54.5t28.5 47.5q31 45 68 80q39 37 70 55q57 37 98 37t41 -41v-13t-4 -15q0 -8 -4.5 -15.5t-8.5 -17.5q-27 -47 -59.5 -92t-71.5 -86t-81 -75t-87 -63q4 -18 15 -36q10 -20 30 -35q18 -14 48 -25q31 -10 59 -10 q74 0 143 39q74 39 140 98q33 31 64.5 65.5t59.5 75.5q29 39 54.5 79t48.5 81q41 76 70 156q28 80 28 133zM1622 1792q0 16 -16 16q-10 0 -25 -6q-8 -2 -16.5 -7t-20.5 -13q-80 -55 -133 -125q-53 -76 -72 -191q84 53 156 136q35 39 61.5 74.5l49.5 68.5q4 10 12 27 q4 12 4 20z" />
<glyph unicode="D" horiz-adv-x="2641" d="M3371 2068l-147 -116l-76 -58.5l-74 -58.5l-71.5 -56.5l-67.5 -56.5l-61.5 -52l-55.5 -48q20 -72 37 -160q12 -90 12 -190q0 -158 -39 -307q-37 -150 -108 -295q-72 -143 -172 -262q-104 -123 -232 -211q-125 -88 -280 -142q-147 -51 -324 -51q-57 0 -113 6q-27 2 -54 6 t-56 9q-29 4 -57.5 9t-61.5 13l-66.5 15.5l-70.5 15.5q-66 -16 -135.5 -30.5t-141.5 -27.5q-141 -25 -297 -24h-35.5t-50.5 4q-29 0 -62.5 3t-70.5 7q-76 10 -149 25q-39 8 -75 17t-69 24q-66 25 -104 63q-41 37 -41 88q0 39 47 74q45 31 156 31q156 0 301 -25 q72 -12 141.5 -27.5t134.5 -31.5q66 -16 126.5 -33.5t117.5 -38.5q115 -39 199 -61q176 53 309 143q135 94 248 213q57 59 111.5 123.5t107.5 136.5l107.5 144.5l111.5 148.5t119.5 151.5l130.5 153.5q131 156 307 301q-57 141 -151 256q-92 113 -211 193q-121 82 -263 123 q-147 41 -307 41q-135 0 -284 -43q-74 -23 -147 -52.5t-144 -68.5q-72 -39 -138.5 -86t-132.5 -101q-66 -53 -122 -114.5t-105 -126.5q-96 -129 -156 -283q-57 -147 -57 -311q0 -84 33 -152q33 -74 88 -127q57 -53 135 -86q76 -31 172 -30q80 0 178 28q47 14 96.5 32.5 t96.5 45.5q47 25 92 53.5t90 63.5q86 66 156 147q70 82 108 170q41 92 41 180q0 57 -22 109q-10 23 -24.5 44t-33.5 38q-37 35 -88 55q-53 18 -110 19q-90 0 -172 -35q-39 -16 -76 -39t-72 -51q-35 -29 -67.5 -60.5t-65.5 -68.5q-31 -35 -60.5 -73l-58.5 -79q59 96 119 174 q63 80 131 135q66 53 150 88q80 31 176 31q63 0 121 -22q57 -23 96 -62q39 -41 61 -92q23 -55 23 -117q0 -96 -43 -190q-41 -94 -111 -176q-35 -41 -73.5 -79t-85.5 -73q-45 -35 -92.5 -64.5t-96.5 -56.5q-49 -25 -98 -44t-101 -34q-102 -29 -184 -28q-104 0 -203 41 q-94 41 -161 108q-70 68 -109 164q-39 92 -39 205q0 172 60 326q29 76 69.5 144.5t91.5 131.5q100 125 238 221q135 98 283 164q74 33 149.5 58.5t153.5 41.5t151.5 25.5t145.5 9.5q385 0 626 -162q238 -158 359 -458l78.5 63.5l72.5 59.5q70 55 142 104l68.5 49.5 t68.5 46.5l69.5 47zM2834 1274q0 102 -14 180q-12 78 -31 143q-109 -96 -202 -231l-185 -276l-95 -146l-99 -149q-51 -74 -108.5 -144.5t-123.5 -136.5t-139.5 -127t-159.5 -115q-86 -53 -183 -95t-212 -75l96 -24t101 -23q102 -23 229 -22q172 0 320 51q76 27 144.5 60.5 t131.5 78.5q123 88 223 209q96 117 168 258q68 141 105 287q16 76 25 149.5t9 147.5zM1159 94l-94 32.5l-104 35.5q-55 18 -114 35.5t-122 33.5q-61 16 -125.5 29.5t-130.5 24.5q-66 10 -133.5 17t-134.5 5q-39 0 -68 -8t-49 -18q-37 -23 -37 -56q0 -43 39 -75 q39 -33 96 -54q29 -10 63 -18l70 -17q35 -8 70 -13t70 -9t65.5 -6t59.5 -2q29 -4 49 -4h35q68 0 133 5t129 15q63 10 121.5 21.5t111.5 25.5z" />
<glyph unicode="E" horiz-adv-x="1198" d="M1692 2193q0 -104 -60 -211q-61 -109 -162 -200q-53 -47 -114.5 -94.5t-132.5 -92.5q-145 -90 -314 -165l-8 -58q-35 -16 -67 -24q-39 -10 -89 -45q-205 -137 -333 -302q-66 -82 -117 -162.5t-86 -158.5q-41 -92 -59 -168q-16 -82 -17 -143q0 -168 92 -256 q92 -86 258 -86q131 0 265 55q133 53 241 145q106 90 178 213q68 119 68 248q0 90 -53 150q-51 57 -144 57q-94 0 -182 -53t-156 -133q-66 -78 -116 -177q-47 -96 -68 -184q6 80 49 178q39 96 111 187q74 90 162 145q92 57 194 57q98 0 164 -67q63 -66 64 -172 q0 -117 -66 -238t-174 -217q-111 -98 -246 -158q-139 -61 -282 -61q-96 0 -183 29q-86 29 -147 84q-61 53 -101 139q-35 86 -34 192q0 70 14 136q14 70 49 147q49 106 129 203q82 98 174 172q94 76 197 141q96 59 192 107v45q-80 -23 -157 -23q-96 0 -176 37q-78 35 -134 96 q-55 61 -86 146q-29 86 -28 178q0 113 43 223q41 106 127 205q82 92 204 162q117 66 277 94q-123 -41 -234 -113q-109 -72 -198 -170q-88 -96 -139 -207q-51 -109 -52 -225q0 -86 31 -160q27 -72 82 -127t127 -83q76 -29 162 -29q78 0 155 24q29 172 95 328q63 158 166 285 q100 125 231 200q127 76 281 76q66 0 100 -28q33 -27 33 -93zM1669 2193q0 55 -27 76q-27 23 -71 23q-139 0 -252 -78q-109 -76 -193 -197q-80 -119 -135 -268q-27 -74 -47 -146.5t-35 -144.5q162 70 301 166q70 47 130.5 94t111.5 99q100 98 160 196q57 102 57 180z" />
<glyph unicode="F" horiz-adv-x="2039" d="M3129 2259q0 -33 -49 -88l-29.5 -32.5l-35.5 -37.5l-42 -36.5t-46 -34.5q-25 -16 -52.5 -30.5l-58.5 -29.5q-57 -23 -133 -33q-39 -47 -73 -93t-64 -91l-57.5 -88t-55.5 -88l-51.5 -89l-48.5 -91l-50.5 -97.5l-54.5 -103.5q55 2 111 12q55 6 106 25q41 68 90 113t107 63 q20 6 35 6q41 0 41 -31q0 -27 -31 -65q-16 -16 -32.5 -28.5t-33.5 -22.5q-31 -20 -98 -39l-31.5 -69t-31.5 -64q-16 -29 -33 -55.5l-33 -49.5q-33 -43 -76 -71q-20 -14 -43.5 -22.5t-50.5 -12.5q20 20 45 57l25.5 37.5t27.5 42.5l26.5 45.5t27.5 44.5l26.5 43.5t22.5 40.5 q-29 -10 -55.5 -16t-53.5 -11q-27 -4 -54.5 -7t-57.5 -7l-176 -255l-164 -228q-160 -213 -338 -363q-172 -150 -387 -229q-209 -80 -488 -80q-109 0 -219 33q-115 33 -209 98q-94 63 -155 160q-61 94 -62 225q0 156 86 295q82 135 217 240q131 100 289 159q160 59 303 60 q84 0 152 -21q74 -23 127 -63q53 -39 88 -105q31 -61 30 -145q0 -96 -45 -186q-43 -94 -116 -164q-74 -72 -172 -117q-98 -43 -207 -43q-45 0 -90 12q-41 8 -80 35q-37 23 -58 59q-23 39 -22 89q0 49 20 92q18 49 58 92q35 43 94 84q51 37 131 65q-63 -31 -115 -71 q-25 -20 -46 -41t-38 -43q-33 -43 -49 -90q-16 -49 -16 -86q0 -82 59 -117q57 -33 133 -33q102 0 201 41q92 39 168 109q72 66 119 153q43 82 43 172q0 72 -31 127q-31 53 -84 90q-49 35 -123 58q-72 18 -149 18q-84 0 -178 -24q-47 -12 -94.5 -31t-94.5 -41 q-92 -45 -180 -111q-43 -33 -81 -68.5t-73 -76.5q-66 -82 -104 -174q-39 -90 -39 -195q0 -119 57 -207q59 -90 146 -149q88 -59 196 -92q106 -31 209 -31q166 0 322 53q78 27 149.5 60.5t141.5 78.5q135 84 258 201q59 55 115.5 114.5t109.5 121.5l98 122.5t90 125.5 l79 121.5l71 111.5q-23 -2 -49.5 -4t-59.5 -6t-66.5 -9.5t-70.5 -13.5q-70 -14 -149 -47q-39 -14 -76 -33.5t-74 -42.5q29 35 92 70q55 29 137 55q80 27 164 43q88 14 172 25l122 186l128 187q63 92 136 185l155 191q-100 0 -145 33q-45 31 -70 76q-23 43 -43 92 q-23 51 -70 86q-35 27 -98 45q-61 18 -143 19q-104 0 -236 -43q-133 -43 -248 -125q-117 -80 -196 -197q-80 -117 -80 -262q0 -98 55 -162q51 -61 156 -61q74 0 166 35q45 16 88 41.5t88 60.5q45 33 86 74t82 88q80 94 137 213q-23 -66 -54.5 -123.5t-70.5 -108.5 q-76 -100 -164 -170q-45 -35 -90 -60.5t-92 -41.5q-94 -35 -174 -35q-109 0 -178 66q-66 66 -66 170t41 196q18 45 45 86t59 80q31 37 69 69.5t79 61.5t83 52.5t87 43.5q43 18 86 33t86 25q80 20 149 20q84 0 152 -20q70 -18 129 -49q43 -20 78 -70q16 -23 34.5 -46.5 l34.5 -45.5q37 -49 78 -82q45 -35 103 -35q94 113 184 182l83 64t73 49q45 27 80 27q34 0 34 -29zM3107 2251q0 10 -15 10q-27 0 -65 -20q-68 -35 -154 -115l-79.5 -77t-73.5 -79q23 2 48 10.5t52 22.5t52.5 29.5t49.5 33.5q49 33 91 72q37 31 55 53q39 46 39 60zM2697 1384 q0 16 -18 17q-16 0 -37 -12q-37 -23 -66 -66q-29 -41 -41 -70q47 14 82 37l28.5 18.5t20.5 18.5q31 32 31 57z" />
<glyph unicode="G" horiz-adv-x="2123" d="M2984 2154q0 -123 -82 -243q-41 -59 -94 -118.5t-121 -117.5q-133 -115 -307 -215q-88 -51 -177 -95t-184 -83q-190 -78 -370 -129q-184 -51 -342 -68q-23 -35 -42.5 -69.5t-33.5 -67.5q-29 -68 -29 -123q0 -33 12 -63q12 -31 35 -53q20 -20 54 -37q29 -14 67 -15 q57 0 129 31q35 14 70 33.5t69 42.5l72 49.5l74 54.5l69.5 57.5l69.5 57.5l64.5 55.5t60.5 53.5q29 25 54.5 44l47.5 35l-79.5 -91t-73.5 -97l-70 -101.5l-69 -103.5l-142 -203q-68 -94 -153 -186q-80 -82 -179 -156q-96 -72 -213 -110q47 -14 93.5 -23.5t91.5 -17.5 q88 -12 178 -12q160 0 324 49q162 49 337 160q-164 -117 -323 -175q-160 -57 -352 -57q-182 0 -394 55q-66 -20 -133 -37.5t-139 -33.5q-72 -14 -146.5 -21.5t-154.5 -7.5h-70q-23 2 -50 3t-56 5l-59.5 8.5t-63.5 8.5q-59 8 -117 28q-49 18 -86 47q-33 27 -33 68q0 43 41 72 q20 12 45 23t54 20q29 8 56.5 12l55.5 8q29 2 51.5 3t38.5 1q98 0 195 -18l95 -20.5t95 -24.5l93.5 -27.5t93.5 -30.5q88 -27 182 -49q113 55 207 137q92 80 170 170q39 45 72.5 89.5l66.5 89.5l60.5 84t54.5 73q-123 -84 -213 -116q-90 -33 -160 -33q-53 0 -102 22 q-41 20 -74 60q-31 41 -45 86q-14 43 -14 96q0 57 16 119q8 29 18.5 51.5t20.5 38.5q-162 27 -244 119q-78 90 -78 209q0 80 33 159q29 78 90 162q29 39 66 77t82 73q90 74 198 127q-117 -74 -198 -150q-41 -39 -75 -76t-60 -75q-49 -70 -76 -146q-23 -74 -23 -135 q0 -129 82 -213t215 -98l223.5 256l208.5 229q203 215 394 361q188 147 378 227q190 78 392 78q88 0 137 -37q47 -36 47 -99zM2961 2154q0 53 -41 82q-43 27 -112 27q-172 0 -340 -74q-162 -72 -320 -188q-76 -57 -147.5 -118.5t-138.5 -131.5l-126.5 -133.5l-113.5 -128.5 l-98 -119.5l-84 -107.5l-66.5 -85t-46.5 -55q135 8 315 60q88 23 176.5 54.5t180.5 70.5t179 82t175 94q172 98 307 209q68 55 123.5 112.5t95.5 116.5q82 122 82 233zM1073 123q-68 14 -155 43q-41 14 -86.5 26.5l-92.5 26.5q-90 27 -194 45q-102 18 -199 19 q-14 0 -32.5 -1t-45.5 -3q-49 -4 -98 -19q-47 -12 -86 -35q-35 -23 -35 -59q0 -49 64 -76q31 -14 66.5 -23.5t76.5 -17.5q82 -16 160 -18q39 -2 64.5 -3t41.5 -1q172 0 320 30q141 31 231 66z" />
<glyph unicode="H" horiz-adv-x="3565" d="M4243 2120q0 -66 -57 -156q-55 -90 -176 -195l-199 -167q-113 -90 -260 -181q-72 -45 -154.5 -85t-174.5 -76q-186 -72 -412 -109l-119.5 -173l-116.5 -179l-110.5 -180.5l-112.5 -180.5q-16 -27 -27.5 -51.5t-19.5 -48.5q-14 -43 -14 -88q0 -61 30 -100q27 -41 74 -68 q43 -27 100 -39q57 -10 101 -10q90 0 198 30q53 16 105.5 37t105.5 47q104 51 201 127q98 76 172 162q72 86 119 185q43 94 43 196q0 98 -45 144q-47 47 -150 47q-96 0 -184 -41q-86 -39 -158 -109q-72 -68 -129 -153q-29 -43 -54.5 -87.5t-47.5 -89.5q-23 -45 -41 -88 l-35 -86q-31 -86 -49 -153q4 33 12 70.5t23 82.5q29 90 69 181q45 96 105 182q29 45 62.5 86t72.5 76q78 72 168 116q92 43 199 43q102 0 159 -57q55 -55 56 -154q0 -102 -45 -200q-43 -102 -119 -193q-76 -94 -174 -172q-49 -41 -101.5 -75.5t-109.5 -63.5 q-55 -29 -112.5 -53.5t-117.5 -40.5q-113 -33 -227 -33q-70 0 -133 18t-111 58q-23 20 -42 43.5t-33 52.5q-27 55 -27 135q0 70 37 168q10 29 26.5 63.5l36.5 73.5t44 79t53 83l56.5 87l61.5 91q63 88 136 178l-140 -24l-20 -32.5l-21 -35.5q-18 -35 -49 -35q-10 4 -10 15 q0 14 12 37q4 10 11.5 21l15.5 22q-16 -4 -32.5 -6.5t-33.5 -6.5l-32.5 -8l-32.5 -8q-53 -86 -110.5 -168t-121.5 -164q-121 -160 -276 -303q-150 -139 -344 -254q-190 -113 -430 -176q-2 -6 -2 -20v-23q0 -104 51 -188q51 -86 135 -144q86 -57 201 -92q111 -33 239 -33 q47 0 96.5 4t100.5 13q100 16 195 43q47 14 92 31.5t90 37.5q88 39 158 88q-160 -119 -349 -176q-197 -59 -381 -59q-133 0 -251 31q-121 27 -209 92q-90 66 -142 162q-53 96 -53 229q-205 -41 -381 -41q-127 0 -237 39q-117 41 -203 112q-88 70 -141 177q-53 106 -54 233 q0 139 62 260q57 117 166 203q109 88 249 135q145 47 308 47q88 0 170 -28q82 -29 139 -80q61 -55 94 -123q33 -76 33 -162q0 -102 -43 -182t-111 -135q-72 -55 -153 -82q-90 -29 -172 -29q-121 0 -203 53q-78 53 -78 152q0 49 21 98q20 51 63 94q41 43 107 72q63 27 155 31 q-94 -10 -153 -39q-59 -31 -101 -74q-39 -41 -53 -90q-16 -53 -16 -94q0 -43 22 -78q10 -16 24.5 -30.5t30.5 -24.5q33 -20 78 -33q47 -10 88 -10q96 0 185 34q41 16 77.5 39t69.5 52q63 53 100 129q35 74 35 147q0 86 -32 150q-16 33 -39 61.5t-52 50.5q-29 23 -60.5 40 t-70.5 30q-78 25 -164 24q-143 0 -274 -43q-129 -43 -233 -120q-100 -76 -162 -191q-61 -111 -62 -248q0 -115 47 -219q45 -100 127 -172q76 -70 183 -111q98 -39 215 -38q55 0 108.5 4t106.5 12q51 8 98 16.5t90 18.5q8 59 30.5 126.5t57.5 141.5q68 143 211 291 q137 141 361 272q215 127 528 217l68.5 99.5l68.5 95.5l69 92l68 90l71 88l73 88l72.5 88l78.5 93q-55 -16 -98 -17q-80 0 -141 37q-57 35 -76 90q-4 10 -6 24.5t-2 30.5v27q2 8 2 16.5v18.5q0 47 -23 82q-23 33 -55 55q-33 20 -82 31q-51 10 -98 10q-90 0 -195 -33 q-102 -29 -213 -86q-104 -53 -207 -131q-49 -37 -93 -77t-83 -85q-78 -90 -123 -184q-45 -92 -45 -194q0 -63 21 -105q23 -45 57 -72q31 -25 82 -39q45 -12 100 -12q121 0 222 47q96 45 180 123q80 70 151 168l67 94l64 95q-41 -100 -106 -199q-66 -98 -154 -178 q-86 -78 -196 -131q-109 -49 -230 -50q-59 0 -114 17q-55 16 -95 49q-39 33 -63 82q-23 51 -23 117q0 90 43 186q41 92 117 186q68 86 170 172q47 41 99.5 77t107.5 69q106 61 225 98q117 35 224 35q80 0 151 -18q66 -14 119 -56q49 -41 80 -100q27 -61 30 -152 q4 -57 33 -78q29 -23 72 -22q35 0 78 12q23 6 44 15.5l44 19.5q20 23 44.5 47.5l53.5 52.5q57 57 123 111l64.5 47.5t64.5 40.5q68 39 123 39q27 0 27 -18q0 -6 -11 -31q-8 -14 -39 -43q-47 -41 -95 -78t-99 -70q-49 -33 -107.5 -64.5l-124.5 -66.5l-150.5 -194t-129.5 -187 l-117.5 -180l-114.5 -176q12 4 28.5 7l37.5 7l37.5 7.5t32.5 7.5q14 20 32 39q6 8 14.5 15t16.5 15t15.5 14.5l17.5 14.5l19 15.5l20 17.5q-33 -33 -47 -60q-8 -14 -16.5 -30.5t-18.5 -32.5l155 29q170 209 330 375.5t314 297.5q303 260 589 346q25 8 47.5 13.5t42.5 9.5 q39 6 76 6q68 0 103 -29q34 -28 34 -75zM4221 2128q0 80 -105 80q-39 0 -77 -8q-39 -6 -99 -29q-76 -29 -151.5 -72t-153.5 -98q-154 -106 -299 -244q-72 -66 -139.5 -136.5l-130.5 -141.5q-129 -147 -223 -279q201 39 381 109q86 35 163.5 71.5t149.5 77.5t135.5 83 t120.5 87l106.5 86l94.5 80q113 100 170 188q57 85 57 146zM3308 2183q0 4 -7 4q-45 -12 -98 -41q-23 -14 -47.5 -30.5t-46.5 -36.5l-46.5 -41t-45.5 -43l-44.5 -43.5l-43.5 -42.5q33 16 61.5 31.5t54.5 31.5l47.5 30.5t42.5 29.5l39 28.5t35 28.5t33.5 26.5t34.5 26.5 q31 31 31 41zM2191 1036q-113 -35 -216 -79t-201 -95t-182.5 -108.5t-159.5 -120.5q-150 -127 -244 -277q-96 -154 -127 -319q209 70 381 188q86 59 162.5 122t146.5 132q135 133 246 281l102 141z" />
<glyph unicode="I" horiz-adv-x="2203" d="M3643 2279q0 -33 -63 -71q-76 -35 -172 -58q-47 -10 -98.5 -17t-110.5 -11q-147 -123 -262 -252l-110.5 -132.5t-100.5 -135.5l-92 -139.5t-86 -141.5l-82 -144.5l-82 -144.5q102 6 190 64q86 57 164 137q39 41 74 82t67 86l61 81t54 70l-59.5 -101t-63.5 -99 q-66 -98 -141 -178q-80 -84 -168 -134q-92 -51 -207 -61q-27 -49 -60.5 -101.5t-76.5 -107.5t-93 -109.5t-108 -107.5q-115 -109 -250 -205q-141 -100 -290 -172q-150 -72 -322 -119q-166 -43 -338 -43q-160 0 -301 52q-72 27 -136.5 62.5t-121.5 82.5q-113 92 -180 223 q-68 131 -68 291q0 174 74 332t205 276q129 117 309 189q172 70 385 69q111 0 209 -32q102 -31 178 -95q76 -61 123 -157q47 -98 47 -226q0 -102 -51 -204q-53 -102 -141 -189q-92 -86 -218 -137q-129 -53 -274 -53q-55 0 -123 20q-74 23 -131 66q-63 43 -104 112 q-41 72 -41 168q0 51 26 119q27 66 92 131q33 33 77 59.5t100 49.5q109 45 280 45q-158 0 -256 -45q-104 -47 -160 -109q-59 -66 -79 -133q-20 -68 -21 -117q0 -82 31 -145q27 -61 78 -107q51 -45 110 -65q55 -20 121 -21q147 0 268 49q119 49 205 130q88 82 133 178 q47 100 47 196q0 125 -51 213q-51 92 -129 150q-78 59 -174 90q-98 29 -186 29q-203 0 -361 -70q-160 -68 -270 -184q-113 -115 -170 -265q-57 -147 -57 -311q0 -135 49 -254q49 -121 141 -213q88 -92 221 -147q135 -53 297 -54q152 0 305 48q76 23 147.5 52.5t143.5 67.5 q70 37 136.5 80t129.5 92t121 99.5t111 103.5q53 51 98 102.5l86 102.5q82 102 127 188q-51 23 -84 56q-16 16 -31.5 33.5t-25.5 37.5q-20 37 -31 78q-10 45 -10 80t10 80q43 186 164 334q121 145 281 241q164 100 346 152q92 27 182 41t178 18q86 61 166 97q88 39 178 59 q59 0 78 -8q18 -7 18 -19zM3598 2271q0 12 -22 13q-14 0 -29 -7q-37 -6 -69 -20q-18 -8 -37 -15.5t-35 -15.5t-31.5 -15t-32.5 -16l-26.5 -15l-22.5 -13q47 6 88 13t74 15q61 12 121 46q22 18 22 30zM3154 2118q-53 -2 -108.5 -8.5t-112.5 -20.5q-115 -29 -228 -74 q-113 -47 -213 -110q-102 -66 -186 -150q-41 -41 -78 -86t-65 -94q-57 -96 -82 -211q-8 -35 -8 -80q0 -51 16 -94q8 -20 17.5 -37.5t23.5 -34.5q25 -29 59 -47q31 -16 68 -27l82 121l92 135l102.5 141.5l110.5 143.5l117.5 142.5l126.5 140.5l131 132.5t135 117.5z" />
<glyph unicode="J" horiz-adv-x="1918" d="M3351 2200q0 -6 -11 -31q-8 -14 -39 -43q-47 -41 -95 -78t-99 -70q-49 -33 -107.5 -64.5l-124.5 -66.5q-80 -100 -151.5 -199.5t-134.5 -199.5l-123 -192.5l-115 -178.5q-84 -129 -188 -268q-51 -68 -107.5 -133.5t-116.5 -128.5q-59 -63 -124.5 -121.5t-135.5 -112.5 q-70 -53 -144.5 -101t-152.5 -89q-160 -82 -335 -127q-174 -45 -377 -45q-131 0 -244 26q-119 29 -207 86q-90 57 -141 154q-53 96 -53 234q0 143 69 270q72 131 180 227q115 98 250 156q135 57 273 57q88 0 170 -28q41 -14 75.5 -33t63.5 -45q57 -53 92 -123 q33 -76 33 -162q0 -94 -41 -180q-39 -78 -105 -137q-63 -53 -149 -86q-84 -31 -168 -31q-59 0 -109 14q-57 12 -96 39q-43 31 -65 66q-25 39 -25 90q0 47 25 94q23 41 71 84q45 39 109 70q33 14 67.5 25t73.5 22q-70 -23 -127 -56q-55 -33 -100 -73q-43 -43 -66 -86 q-23 -45 -22 -84q0 -43 24 -76q20 -29 60 -51q37 -20 78 -29q47 -10 84 -10q84 0 161 33q74 31 142 84q59 51 100 122q37 70 37 146q0 84 -31 151q-27 66 -82 115q-51 45 -127 74q-74 25 -162 24q-84 0 -172 -24q-88 -25 -167 -70q-41 -23 -79 -49.5t-73 -58.5 q-35 -31 -66.5 -65t-58.5 -73q-55 -76 -84 -159q-31 -86 -31 -179q0 -121 49 -208q23 -45 55 -81t72 -65q82 -57 185 -84q100 -27 217 -26q188 0 354 49q166 47 309 129q147 82 271 186q125 104 233 221l104.5 118.5t98.5 119.5l90 116.5l84 110.5l152.5 202.5l150.5 197.5 l151 193l156 190q-55 -16 -98 -17q-51 0 -98 10q-45 10 -70 35t-41 76q-14 43 -14 123q0 47 -23 82q-23 33 -55 55q-33 20 -82 31q-51 10 -98 10q-82 0 -187 -31q-102 -31 -208 -86l-105.5 -60.5t-103.5 -70.5q-100 -74 -181 -162q-80 -92 -127 -184q-47 -98 -47 -196 q0 -63 21 -105q23 -45 57 -72q31 -25 82 -39q45 -12 100 -12q119 0 224 47q96 45 180 123q82 76 151 170l68 93l66 94q-41 -100 -107 -199q-66 -96 -158 -178q-86 -78 -196 -131q-109 -49 -230 -50q-61 0 -116 17q-51 14 -95 51q-41 35 -61 84q-23 55 -23 119q0 74 41 166 q39 86 113 182q74 92 170 174q47 41 99.5 79t107.5 71t112.5 59.5t116.5 46.5q59 18 117.5 28.5t118.5 10.5q80 0 147 -18q66 -18 117 -60q51 -41 78 -100q25 -57 28 -148q4 -57 33 -78q29 -23 72 -22q35 0 78 12q23 6 44 15.5l44 19.5l92 96t90 84t98.5 73t112.5 62 q45 23 80 23q27 0 27 -18zM3316 2189q0 2 -4 2q-14 0 -56 -20q-92 -45 -176 -113q-78 -63 -151 -149q33 16 61.5 31.5t54.5 31.5l47.5 30.5t42.5 29.5l39 28.5t35 28.5t33.5 26.5t34.5 26.5q39 39 39 47z" />
<glyph unicode="K" horiz-adv-x="2693" d="M3361 2226q0 -141 -90 -260q-88 -115 -246 -217q-154 -98 -363 -184l-214.5 -85t-231.5 -83q-16 -16 -33.5 -36l-38.5 -42q-20 -23 -42.5 -43.5l-47.5 -42.5q-47 -41 -102 -78l-55.5 -31.5t-57.5 -25.5q27 -31 35 -58q10 -31 10 -61q0 -66 -33 -137q-35 -78 -79 -146 l-46.5 -69.5t-50.5 -69.5l-45 -64.5t-37 -58.5q-35 -59 -55 -123q-18 -61 -18 -110q0 -45 20 -72q25 -31 53 -47q31 -14 72 -25q39 -6 78 -6q88 0 190 31q51 14 101.5 34.5t101.5 47.5q98 51 195 125q92 70 166 157q72 84 114 181q43 94 43 190q0 92 -39 133q-37 41 -121 41 q-96 0 -188 -41q-86 -39 -166 -108q-80 -68 -143 -152q-33 -41 -60.5 -84t-52.5 -88q-49 -90 -80 -172q-31 -86 -43 -145q6 57 35 147q27 86 74 178q23 47 51.5 92.5t60.5 90.5q33 45 68 86t76 75q39 35 82 64t90 51q94 43 201 43q100 0 143 -59t43 -148q0 -96 -43 -194 q-39 -94 -113 -187q-35 -45 -78 -86t-90 -80q-96 -78 -202 -135q-53 -29 -108.5 -51t-113.5 -39q-111 -33 -219 -33q-133 0 -209 58q-76 55 -75 192q0 76 36 172q10 27 30 58.5t48 70.5l57.5 79l57.5 81t54.5 81t47.5 81q45 76 45 133q0 37 -24 59l-47.5 -15t-44.5 -13 q-41 -12 -84 -13q-74 0 -74 33q0 23 18 39q10 6 20.5 13.5t24.5 11.5q12 4 25.5 7t28.5 7q14 2 25.5 3t21.5 1q35 0 61 -8q14 -4 28.5 -11.5t29.5 -17.5q49 23 88 56l32.5 29.5t30.5 31.5l25.5 32.5l25.5 32.5l24.5 34t27.5 34l-50 -12l-37.5 -9.5t-46.5 -13.5l-48 -13 l-54 -15q-27 -8 -52.5 -16.5l-49.5 -16.5q-43 -14 -84 -25q-16 -4 -28.5 -8t-16.5 -6l-76 -116.5l-88 -129.5q-45 -68 -95.5 -135.5l-103.5 -136.5q-109 -139 -229 -266q-59 -66 -124 -122.5t-132 -107.5q-131 -98 -281 -160q-147 -59 -301 -59q-84 0 -123 43 q-37 39 -37 111q0 98 56 200q27 51 64.5 100.5t84.5 100.5q94 98 232 197q66 47 139.5 92l152.5 90q80 45 164 85t176 79q180 76 369 135l67.5 87l55.5 75l49.5 66.5l46.5 62.5l99 129l59.5 74.5l73.5 87.5q-59 -16 -103 -17q-72 0 -114 21q-45 23 -66 55q-23 33 -31 80 q-8 41 -8 94q0 45 -22 80q-10 16 -25.5 29.5t-34.5 23.5q-33 20 -82 31q-41 8 -94 8q-82 0 -186 -31q-102 -31 -209 -86l-105.5 -60.5t-103.5 -70.5q-100 -74 -180 -162q-80 -90 -129 -184q-47 -98 -47 -192q0 -63 20 -107q23 -45 57 -72q16 -14 38 -23l46 -18 q45 -12 103 -12q121 0 221 47q96 45 180 123q82 76 152 170l67.5 93l65.5 94l-49.5 -96.5t-59.5 -100.5q-63 -96 -153 -180q-88 -80 -195 -131q-104 -51 -229 -52q-129 0 -217 68q-86 63 -86 203q0 72 41 164q39 88 114 182q35 45 78 89t90 87q98 86 209 152 q55 33 113.5 59.5t118.5 46.5q117 39 235 39q84 0 148 -21q63 -18 118 -59q53 -41 80 -100q29 -63 29 -146q0 -55 29 -78t71 -22q35 0 78 12q23 6 44.5 15.5l43.5 19.5l92 96t90 84t98.5 73t112.5 62q45 23 80 23q27 0 27 -18q0 -6 -10 -31q-8 -14 -39 -43 q-47 -41 -95.5 -78t-99.5 -70q-49 -33 -105.5 -64.5l-121.5 -66.5l-74 -92t-55 -78l-44.5 -67.5t-39.5 -63.5l-37 -62.5t-35 -64.5t-39.5 -69.5l-52.5 -79.5q4 2 15.5 5t29.5 9q18 4 39.5 10t48.5 15q25 8 51.5 15t55.5 17t56.5 17.5t53.5 15.5l49.5 14.5l42.5 12.5 q20 4 32.5 7l21.5 5l97 112.5l89 112.5l85 110.5l83 106.5l81 99.5t81 93.5t83 83t87 73q88 63 190 104q100 37 225 37q74 0 109 -33q37 -31 37 -86zM3322 2216q0 45 -31 74q-27 27 -88 26q-121 0 -221 -41q-92 -39 -178 -108q-80 -68 -150 -156q-35 -45 -66.5 -91 l-64.5 -93l-63.5 -94l-63.5 -95q-31 -47 -63.5 -89t-67.5 -83q129 37 258 86q66 25 126.5 52.5l119.5 56.5q121 61 219 123q51 33 94 67.5t80 69.5q76 74 117 145q43 74 43 150zM2388 2142q41 31 41 45q-4 6 -8 6q-8 0 -49 -22q-96 -55 -177 -117q-41 -31 -79.5 -67.5 t-75.5 -77.5q33 16 61.5 31.5l55.5 31.5t49 30.5l43 29.5q20 14 38.5 28.5t34.5 28.5l33 27.5zM1761 1098q-47 29 -94 28q-6 0 -27 -4q-14 -2 -32 -10q-20 -8 -29 -14q-12 -10 -12 -19q0 -4 8 -10q6 -6 35 -6q41 0 82 12q20 4 36.5 10.5zM1417 1176l-282 -111l-152 -64.5 l-154 -70.5q-147 -70 -292 -158q-72 -41 -134.5 -87t-117.5 -93q-111 -98 -174 -207q-66 -109 -66 -231q0 -59 37 -86q33 -27 82 -31q143 6 278 72q66 33 130.5 73.5t123.5 91.5q119 100 226 226q53 61 101 122.5l95 125.5l86 120.5l80 116.5l71.5 104.5z" />
<glyph unicode="L" horiz-adv-x="2134" d="M3453 1952q2 -41 -6 -83t-23 -89q-14 -45 -32.5 -90t-45.5 -91q-47 -86 -118 -169q-68 -80 -156 -146q-41 -33 -87 -57.5t-93 -42.5q-96 -37 -201 -37q-57 0 -100 31q-43 29 -64 104q-18 -14 -43.5 -30.5l-58.5 -37.5l-68 -36.5t-73 -34.5l-79 -31.5t-81 -28.5 q-86 -23 -164 -22h-31q-8 2 -14 2t-14 2l-55.5 -101.5l-65.5 -113.5t-77 -118.5t-93 -119.5q-98 -119 -230 -229q-131 -113 -299 -195l93.5 -27.5t89.5 -27.5q41 -14 81.5 -26.5l79.5 -24.5l77 -20.5t77 -18.5q70 -14 147 -14q92 0 193 22q47 10 99.5 29.5t107.5 46.5 q-88 -63 -199 -92q-104 -27 -233 -27q-162 0 -332 39q-172 39 -358 105q-35 -14 -71 -26.5l-75 -25.5q-78 -25 -160 -43q-41 -10 -83 -17t-85 -11q-41 -4 -81.5 -7.5t-81.5 -3.5t-105 7q-33 2 -64.5 7t-64.5 13q-31 6 -57.5 17.5t-48.5 27.5q-45 31 -45 82q0 35 30 59 q27 23 76 43q23 8 47.5 15.5t52.5 11.5q29 4 55.5 7t53.5 7q47 2 94 7q23 2 38 2h26q154 0 297 -35q70 -16 141.5 -39l146.5 -49q156 94 267 205q53 53 99 108t87 113q41 57 77 115.5t68 117.5l67 115.5l69 114.5q-61 16 -113 55q-27 20 -48.5 42.5t-41.5 49.5 q-18 27 -33.5 54.5t-26.5 60.5q-20 61 -20 131q0 109 37 205q37 98 100 178q31 41 68 77.5t78 71.5q41 33 85 61.5t91 55.5q96 53 192 86q49 16 97.5 27.5t95.5 19.5q-80 -16 -172 -49q-45 -16 -90 -36.5t-91 -45.5q-90 -49 -172 -117q-41 -33 -76.5 -69.5t-68.5 -77.5 t-57.5 -86t-44.5 -94q-37 -96 -37 -209q0 -125 67 -217q63 -88 201 -129l113.5 190l113.5 174t115.5 159t122.5 142q61 68 128 127.5t138 110.5q141 98 318 170q139 57 262 57q104 0 166 -20q66 -18 104 -58q39 -39 57 -98q8 -29 13.5 -63.5t7.5 -73.5zM3414 1958 q-2 33 -7 61.5t-13 55.5q-14 47 -52 88q-35 35 -90 53q-53 18 -133 18q-63 0 -129 -14q-72 -16 -147 -49q-215 -96 -353 -225q-72 -66 -131 -134.5t-110 -140.5q-49 -72 -92 -144.5t-78 -144.5q-70 -141 -146 -268q88 0 168 21q41 10 82 23t80 30q74 29 143 67l117 68 q-2 8 -2 16.5v16.5q-2 10 -2 33q0 66 31 145q29 82 129 170l37.5 29.5t33.5 21.5q39 14 56 14q51 0 51 -59q0 -10 -1 -20.5t-3 -20.5t-7 -22.5t-12 -24.5q-55 -98 -118 -174q-63 -72 -140 -129q2 -72 39 -109q33 -31 90 -30q90 0 181 37q86 37 168 98q39 31 74.5 65.5 t68.5 75.5q63 78 113 168q23 43 42 86t33 88q14 43 20.5 83t8.5 77zM2828 1696q0 39 -28 39q-10 0 -35 -11q-10 -4 -21.5 -14t-23.5 -22q-51 -51 -80 -95q-14 -23 -25.5 -44t-19.5 -42q-8 -20 -13.5 -38.5t-9.5 -36.5q-2 -16 -3 -34t-1 -34q78 61 133 123q59 63 109 139 q18 39 18 70zM967 168q-68 23 -139.5 43l-147.5 41q-147 39 -309 39q-14 0 -36 -1t-50 -3q-61 -4 -119 -19q-59 -12 -105 -37q-45 -20 -45 -63q0 -41 43 -66q41 -23 101 -34q29 -4 58.5 -8.5t62.5 -4.5q31 -4 55 -4h45q127 0 272 27q146 24 314 90z" />
<glyph unicode="M" horiz-adv-x="3328" d="M3879 1987q0 -18 -12 -39q-10 -25 -37 -52l-48.5 -47l-54.5 -49q-29 -23 -60.5 -45t-66.5 -43q-35 -20 -71.5 -35.5t-77.5 -29.5q-84 -25 -178 -25q-109 -102 -203 -215q-98 -117 -182 -231l-81 -117l-79 -115l-71 -109.5l-64 -101.5q-45 -72 -80 -137q-39 -72 -66 -133 q-27 -63 -43 -127q-16 -61 -16 -111q0 -55 20 -94q18 -39 56 -59q37 -25 82 -33q23 -4 48 -6t54 -2q150 0 272 57q63 29 123 64.5t115 80.5t107.5 93.5t99.5 101.5l90 102.5l84 96.5l-103.5 -123l-97.5 -117q-92 -111 -196 -199q-98 -84 -222 -137q-121 -49 -276 -49 q-72 0 -129 18q-57 14 -102 54q-43 37 -68 94q-25 55 -25 131q0 104 45 227q43 125 129 265q111 184 302 407q94 111 202.5 218.5t237.5 213.5q-45 27 -68 76q-20 43 -20 98q0 49 22 101l7.5 18t7.5 19q4 20 4 32q0 57 -45 78q-45 23 -109 23q-68 0 -125 -19 q-53 -14 -108 -47q-27 -14 -52.5 -31.5t-52.5 -38.5l-55.5 -42.5t-61.5 -45.5q2 -10 3 -26v-27q0 -139 -43 -282q-20 -72 -49 -145t-64 -144q-35 -72 -76 -144.5t-88 -144.5t-97 -141.5t-104 -137.5l-106 -130l-111 -128l-108.5 -118.5l-106.5 -110.5q-86 -86 -162 -131 q-72 -45 -122 -45q-70 0 -70 90q0 45 18 113t62 157q16 35 40.5 79t59.5 97l72 114t86 126l95 134.5l106 140.5q53 72 111.5 143.5l117.5 142.5l119.5 139.5l124.5 133.5q61 66 120.5 122l118.5 107q6 31 6 61q0 98 -59 142q-59 43 -156 43q-115 0 -270 -62 q-156 -61 -324 -200q12 -53 13 -115q0 -158 -76 -352q-78 -199 -211 -408q-135 -209 -324 -422q-94 -106 -197.5 -206.5t-215.5 -196.5q-66 -57 -125 -88q-55 -31 -96 -31q-76 0 -76 88q0 45 28 125q12 37 35 81t53 95l136.5 221.5l132.5 202.5q63 96 128.5 184l131.5 174 t134.5 165l139.5 155q72 76 151 149.5l165 149.5q0 68 -29 131q-14 29 -32.5 56.5t-45.5 50.5t-57.5 40t-65.5 31q-68 27 -153 27q-51 0 -99 -8q-27 -4 -52 -11.5t-52 -17.5q0 -76 -21 -172q-18 -102 -61 -209q49 -16 70 -55q20 -45 20 -101q0 -76 -33 -168 q-16 -47 -38.5 -94t-51.5 -94q-61 -98 -135 -188q-78 -90 -168 -162q-88 -70 -188 -117q-98 -43 -197 -43q-111 0 -176 66q-66 61 -66 186q0 109 37 229q37 117 105 234q35 57 74.5 113.5t87.5 111.5q47 53 98 104.5t108 98.5t117 88t125 76q63 35 129 63.5t135 48.5 q-10 166 -100 246t-227 80q-90 0 -189 -33q-49 -16 -99 -39.5t-102 -56.5q-102 -66 -202 -160q-102 -96 -191 -221q33 55 72 107.5t86 99.5t98 90t105 78q53 35 108.5 63.5t112.5 48.5q117 41 213 41q129 0 225 -77q94 -78 115 -258q106 31 205 30q80 0 157 -22 q76 -23 133 -62q59 -41 101 -96q41 -57 59 -125q47 39 92 69.5l86 57.5t81 46.5t79 35.5q70 29 137 45q63 12 117 12q117 0 186 -53q68 -53 82 -176q55 45 109 84l56.5 35.5l56.5 34.5q53 31 114 49q57 18 119 18q43 0 84 -12q35 -8 70 -33q33 -23 49 -53q18 -35 18 -74 q0 -43 -24 -98q-29 -35 -29 -82q0 -35 16 -64q14 -27 45 -30l58.5 47l60.5 51l61.5 49.5t63.5 46.5q63 45 129 86l63.5 38t63.5 30q45 18 78 18q41 1 41 -30zM3848 1985q0 20 -24 20q-18 0 -56 -18q-53 -27 -108 -62q-61 -39 -119 -82l-61.5 -46l-61.5 -48l-117 -98 q72 0 148 28q74 27 141 68q33 20 63.5 42.5l59.5 45.5t52.5 44.5l43.5 41.5q39 39 39 64zM2523 1790q-27 -25 -59.5 -58.5l-73.5 -74.5l-85 -89l-95 -102l-209 -239l-110.5 -133.5l-110.5 -139.5l-106.5 -146.5l-104.5 -152.5l-97.5 -155.5t-87.5 -155.5l-31.5 -67.5 t-25.5 -65.5q-20 -61 -20 -113q0 -63 41 -63q29 0 86 41q29 20 64.5 51t82.5 78q53 51 103.5 110.5l103.5 124.5q53 66 103.5 136.5l101.5 144.5l96 148.5l92 152.5l84 149.5t76 145.5l64.5 137.5t54.5 126.5q23 61 39 113.5t24 95.5zM942 1692q-86 0 -186 -68 q-100 -66 -187 -227q-14 -27 -14 -54q0 -49 43 -49q53 0 102 43t93 105q45 63 79 131q18 35 36 63.5zM1651 1757q-70 -59 -141.5 -130t-147.5 -157q-152 -168 -299 -354l-142.5 -188t-136.5 -193l-123 -189l-108 -177q-29 -49 -49.5 -90t-34.5 -76q-25 -66 -25 -107 q0 -68 58 -67q41 0 92 32q49 29 111 91q268 279 452 536q92 129 164 246t127 223q53 106 93 197.5t63 169.5t34 136t13 97zM1040 1577q0 43 -16 72t-49 34q-18 -25 -49 -92q-16 -35 -36 -68.5l-42 -68.5q-47 -72 -109 -125q-63 -53 -141 -53q-29 0 -47 18q-18 14 -19 47 q0 20 17 64q45 86 96 147q45 55 98 95q27 16 52.5 29.5t52.5 21.5q27 6 51.5 10t50.5 4q45 109 66 207q20 96 20 162q-100 -33 -221 -103q-57 -33 -113.5 -71.5t-113.5 -83.5q-55 -45 -107.5 -93.5t-103.5 -101.5t-94 -108.5t-82 -114.5t-69 -118.5t-52 -119.5 q-45 -117 -45 -239q0 -100 61 -162q61 -61 164 -61q88 0 180 49q90 45 181 123q82 74 161 172q39 47 72 96t61 98q57 94 93 184q16 45 24 82t8 68z" />
<glyph unicode="N" horiz-adv-x="3301" d="M7324 1948q0 -123 -50 -246q-45 -119 -133 -225q-86 -104 -202 -185q-117 -78 -254 -116q129 57 233 141q51 41 95 86t79 92q70 92 111 205q37 106 37 215q0 174 -105 313q-51 70 -118.5 127.5t-153.5 104.5t-180.5 82.5t-204.5 62.5q-215 49 -443 49q-61 0 -125.5 -3 t-132.5 -7q-66 -4 -138.5 -12.5t-149.5 -22.5q-403 -68 -740 -223q-340 -158 -630 -393q-291 -236 -549 -549q-129 -158 -252 -330t-242 -364q-18 -225 -78 -385q-57 -152 -123 -263q-33 -53 -63 -77q-29 -23 -45 -23q-29 0 -29 55v20.5t4 22.5q0 10 3 23.5t8 28.5 q6 27 15 55.5l19 60.5q10 33 23.5 66l28.5 67l28.5 69l30.5 69t31.5 65.5l31.5 59.5q4 59 7.5 116.5t3.5 112.5q2 53 2 105.5v101.5v95t4 87q0 41 4 78t8 70q-127 -201 -270 -394q-72 -98 -147.5 -188t-157.5 -176l-166 -166t-172 -152t-178.5 -134t-184.5 -116 q-94 -53 -189 -94t-194 -69q-190 -57 -395 -58q-188 0 -356 56q-166 55 -295 157q-127 102 -203 244q-76 139 -76 315q0 147 43 287q23 70 52.5 133.5t68.5 122.5q78 119 180 215q51 47 107.5 89t115.5 77q117 66 252 107q131 37 262 36q133 0 269 -41q66 -20 122 -49.5 t107 -68.5q98 -74 162 -189q61 -111 61 -252q0 -76 -26 -155q-23 -80 -74 -164q-25 -41 -55.5 -80t-65.5 -76q-72 -74 -157 -131q-90 -59 -195 -92q-100 -33 -223 -33q-76 0 -146 19q-70 18 -127 57q-29 20 -51 44t-39 52q-35 59 -35 135q0 82 54 164q49 80 168 133 q-106 -51 -154 -131q-45 -76 -45 -155q0 -80 35 -140q35 -57 88 -90q51 -33 121 -49q63 -14 137 -14q152 0 287 67q135 66 235 172q102 104 160 236q59 135 59 260q0 127 -57 221q-57 98 -148 162q-96 68 -206 100q-57 16 -114.5 24.5t-117.5 8.5q-129 0 -264 -41 q-127 -39 -250 -110q-121 -72 -221 -166t-176 -207q-74 -111 -117 -234q-41 -127 -41 -245q0 -188 74 -326q74 -139 196 -234q125 -94 285 -139q156 -45 334 -45q190 0 385 62q197 61 385 172q195 109 373 258q92 74 177 154.5t169 168.5q168 176 311 373q143 193 262 395 l15.5 71t13.5 71t13 70.5t18 74.5q18 78 51 158q29 78 86 170q43 55 74 80q29 23 49 22q14 0 24 -16q8 -14 9 -39q0 -45 -21 -88q-12 -27 -27.5 -57.5t-31.5 -65.5t-34 -70l-36 -69l-36.5 -69l-37.5 -69q-16 -33 -32.5 -61.5t-30.5 -50.5q-6 -102 -6 -191q0 -82 3 -152.5 t7 -134.5q4 -61 7 -113t3 -97v-31q0 -16 -2 -27l196.5 284l192.5 257t190.5 229.5l188.5 202.5q184 186 381 334q190 141 393 246q205 102 420 172q111 35 223.5 60.5t231.5 45.5q72 12 142.5 21.5t139.5 13.5q70 4 137.5 7t137.5 3q137 0 289 -24q147 -23 288 -68 q139 -43 269 -109q125 -66 221 -147q94 -82 151 -182q56 -102 56 -217zM3318 2163q0 27 -17 26q-29 0 -77 -80q-23 -35 -40.5 -67.5t-31.5 -63.5t-25.5 -59.5t-21.5 -56.5q-10 -29 -16.5 -54.5t-10.5 -52.5t-6 -51.5l-4 -48.5l55.5 101t61.5 106q63 111 108 219 q4 12 9.5 23.5t9.5 21.5q6 21 6 37zM2966 586q-14 -23 -26.5 -49.5t-27.5 -55.5q-14 -29 -26.5 -57.5l-24.5 -56.5l-23.5 -56.5t-21.5 -56.5q-18 -53 -31 -98q-4 -14 -6 -26.5t-4 -23.5q-2 -10 -2 -19v-17q0 -31 10 -31q20 0 64 84q20 41 43 102t37 121q8 31 15 61.5 t11 63.5q11 66 13 115z" />
<glyph unicode="O" horiz-adv-x="1433" d="M2257 1890q0 -63 -12 -133q-12 -66 -41 -139q-14 -35 -34 -70t-42 -69q-47 -74 -113 -136q53 53 94 123q20 33 36 68t30 70q25 70 37 141q12 70 12 139q0 123 -37 209q-39 88 -125 143q-84 53 -207 54q-96 0 -223 -41q-119 -39 -256 -140q-100 -72 -194.5 -150.5 t-186.5 -166.5l-171 -175t-156 -179l-139.5 -177t-122.5 -176q-57 -88 -101.5 -167.5t-79.5 -151.5l-21 -49.5l-24 -57.5q-12 -29 -23.5 -60.5t-21.5 -63.5q-10 -33 -17 -65t-16 -67q-12 -66 -12 -124q0 -129 74 -191q74 -61 211 -61q121 0 243 51q131 51 256 137 q66 45 128.5 96t125.5 111q63 59 122 122.5t116 131.5t109.5 138.5t101.5 143.5q47 72 89 146t77 145q72 147 110 281q41 139 41 248q0 106 -47 159q-45 51 -127 52q-102 0 -245 -84q-141 -84 -287 -234q-125 -125 -213 -250l-86 -125.5l-82 -124.5q29 72 65.5 140.5 t83.5 134.5t96.5 127t102.5 115q160 164 307 247q143 82 254 82q92 0 146 -59q51 -57 51 -174q0 -162 -68 -354q-33 -98 -78 -195.5t-102 -198.5q-111 -197 -268 -387q-76 -94 -156 -177t-166 -155q-168 -143 -348 -233q-176 -88 -346 -88q-102 0 -172 31q-72 31 -117 88 q-43 51 -65 133q-20 74 -21 168q0 100 29 221q29 119 88 231q57 111 122.5 213.5t137.5 200.5q141 193 303 358q80 82 161 156t167 139q84 66 163.5 120t157.5 99q156 90 285 130q135 41 240 40q137 0 227 -59t129 -156q8 -23 15 -46t14 -52q12 -55 12 -121z" />
<glyph unicode="P" horiz-adv-x="1845" d="M2966 2159q-119 -12 -205 -31q-90 -18 -185 -55q16 -41 29.5 -80t22.5 -80q8 -41 12 -80t4 -78q0 -160 -64 -301q-66 -143 -178 -250q-113 -106 -274 -172q-80 -33 -168 -48t-186 -17l-52.5 -85t-60.5 -91l-67.5 -94.5t-73.5 -94.5q82 -57 137 -137q53 -78 53 -164 t-53 -149q-53 -59 -137 -97q-41 -18 -86 -31.5t-97 -21.5q-51 -8 -98 -12t-94 -4q-84 0 -168 14t-174 49q-96 -39 -197 -57q-96 -18 -182 -19q-84 0 -160 19q-80 18 -135 57q-61 43 -96 96q-35 59 -35 136q0 102 76 196q80 94 205 158q-39 125 -68 274q-25 147 -25 305 q0 190 54 375q25 92 62.5 176t84.5 162q94 154 227 285q131 129 289 221q156 88 338 141q178 49 369 49q145 0 295 -34q141 -35 264 -99q121 -63 223 -159q100 -96 164 -222q37 14 77 23.5t81 17.5q78 14 159 15q50 0 93 -6zM2546 1798q0 33 -3 63.5t-8 59.5q-8 53 -28 111 q-121 -80 -215 -203q-92 -117 -178 -262l-80 -141.5l-76 -143.5l-75 -139.5l-77 -130.5q188 2 332 78q141 76 229 188q88 113 136 252q43 137 43 268zM2494 2081q-51 123 -143 221q-90 94 -203 160q-57 31 -119.5 56.5t-127.5 41.5q-66 16 -135.5 24.5t-141.5 8.5 q-182 0 -360 -47q-88 -23 -172 -55.5t-162 -77.5q-152 -84 -287 -209q-131 -125 -225 -277q-96 -154 -148 -334q-51 -174 -51 -379q0 -143 31 -286q14 -72 33.5 -140.5t42.5 -132.5q113 61 260 93q72 14 145.5 21t151.5 7t152.5 -7t150.5 -21t139.5 -40t116.5 -61l53.5 80 l54.5 78q29 39 54.5 80l50.5 82q-102 12 -193 55q-86 39 -153 106q-66 61 -103 150q-37 86 -37 190q0 156 68 283q66 127 174 217q111 90 246 139t276 50q113 0 195 -27q84 -25 125 -66q-43 29 -123 54q-86 23 -180 22q-125 0 -256 -43q-131 -39 -244 -127 q-111 -82 -182 -211q-35 -63 -51.5 -135t-16.5 -156q0 -98 43 -180q41 -80 109 -139q35 -29 72.5 -53.5t82.5 -40.5q43 -16 88 -26.5t93 -12.5l91 154.5t83 152.5t79.5 146.5t86.5 140.5q86 137 196 258q55 59 122.5 112.5t147.5 100.5zM1624 299q0 76 -33 143 q-31 70 -108 123q-59 -72 -123 -141l-68 -70t-73 -67q-78 -66 -164 -119q-84 -53 -187 -94l62 -20.5t71 -18.5q82 -16 166 -17q27 0 60 3.5t73 11.5q39 8 77 19t73 28q72 35 123 88q51 51 51 131zM1417 602q-18 14 -40.5 26.5t-51.5 26.5q-27 14 -58.5 25.5t-66.5 21.5 t-72.5 18.5t-78.5 16.5q-84 12 -175 13q-129 0 -270 -25q-143 -23 -268 -92q14 -45 36.5 -90t51.5 -92q29 -45 62.5 -86l68.5 -80q72 -80 143 -129q70 -51 127 -68q193 76 338 215q72 68 135.5 142.5t118.5 156.5zM770 66q-74 35 -143 90q-74 57 -138 127q-33 35 -61.5 74.5 t-54.5 80.5q-53 82 -86 172q-59 -35 -107.5 -73.5t-87.5 -83.5q-76 -88 -76 -174q0 -72 39 -125q41 -53 99 -91q29 -18 62.5 -32.5t68.5 -24.5q70 -18 137 -18q90 0 186 24q47 12 87 26t75 28z" />
<glyph unicode="Q" horiz-adv-x="2557" d="M3285 2241q-147 -78 -260 -179q-55 -47 -103.5 -97t-89.5 -101q-84 -102 -141 -203l-56.5 -97t-49.5 -89l-41 -79l-52 -98l-59.5 -111.5t-71.5 -121.5l-82 -128l-92 -134q-98 -135 -223 -260q-129 -127 -276 -226q-76 -51 -160 -92t-176 -69q82 -27 158.5 -45.5 t148.5 -30.5q72 -10 139.5 -16.5t132.5 -6.5q186 0 334 45q145 43 264 121q113 76 197 183q41 53 73.5 109t59.5 116h29q-55 -152 -156 -266q-102 -117 -233 -197q-133 -80 -295 -123q-168 -41 -338 -41q-147 0 -301 31q-154 27 -308 92q-74 -27 -154.5 -48.5t-170.5 -39.5 q-90 -16 -181.5 -25.5t-187.5 -9.5h-33.5t-46.5 2t-55.5 3t-60.5 5q-63 6 -127 19q-33 6 -63 14t-56 19q-27 10 -49.5 22t-38.5 29q-33 31 -33 73q0 55 57 93q55 35 131 55q37 10 74 16t76 11q37 4 64.5 6t48.5 2q57 0 114.5 -5.5t114.5 -15.5t112.5 -22.5t108.5 -28.5 l106.5 -32.5l104.5 -32.5l97 -31l89 -29q76 29 141.5 66t123.5 77q55 41 105 87.5t97 95.5t89 100l83 105l82 105l82 106l-72.5 -49.5t-70.5 -51.5q-35 -25 -71 -47t-75 -43q-37 -20 -75.5 -35.5t-79.5 -29.5q-84 -25 -178 -25q-72 0 -123 31q-53 29 -90 77q-35 51 -54 111 q-18 61 -18 125q0 133 45 256q45 125 119 238q70 111 166 211l94 90l94 82q92 72 189 122q88 49 159 68l-85 -70.5l-91 -74.5q-92 -78 -180 -162q-45 -41 -86 -87l-82 -93q-39 -47 -74 -97.5t-65 -103.5q-29 -53 -53.5 -108.5t-40.5 -114.5q-35 -121 -35 -246 q0 -106 55 -168q55 -59 168 -59q117 0 219 38q106 41 201 105q47 33 92 70.5t88 80.5l81 87.5t77 91.5l70.5 93t64.5 93l58.5 91l51.5 85q51 86 80 182q12 47 19.5 94.5t7.5 92.5q0 49 -10 100q-10 49 -31 82q-18 33 -49 55q-27 20 -68 21q-29 0 -51 -8q2 -8 2 -16.5v-16.5 v-31q0 -68 -22 -162q-10 -45 -26.5 -91t-37.5 -93q-20 -47 -43.5 -92t-52.5 -90q-53 -86 -121 -160q-63 -68 -141 -113q-76 -41 -152 -41q-53 0 -86 39t-33 105q0 12 1 25.5t3 27.5q2 23 17 57q53 137 129 248q72 111 162 201q88 90 180 147q92 59 180 80q-8 45 -20.5 84 t-32.5 72q-37 63 -92 104q-57 41 -125 60q-72 18 -148 18q-117 0 -256 -41q-133 -39 -266 -110q-129 -70 -248 -166q-117 -96 -196 -205q41 63 90 120.5t106 108.5q115 102 242 172q123 70 260 111q129 39 256 39q84 0 168 -23q82 -23 139 -65q63 -43 105 -113 q41 -68 55 -162q25 6 45 6q47 0 88 -24q20 -10 35.5 -26.5t30.5 -37.5q23 -37 39 -96q14 -49 14 -115q0 -90 -27 -170q70 117 156 203q43 45 87 84t91 74q96 70 180 117q45 25 84 44.5zM2361 2056v25q0 18 -2 28q-102 -33 -202 -102q-49 -35 -95.5 -73t-87.5 -83 q-41 -43 -78.5 -89t-70.5 -97q-61 -98 -101 -203l-8 -27.5l-8 -27.5q-2 -12 -3 -24.5t-1 -22.5q0 -57 27 -90q25 -33 71 -33q66 0 129 39t123 104q29 33 57.5 70t55.5 80q51 80 92 176q39 86 68 182q14 45 22 87t12 81zM1217 143q-35 10 -76 25.5l-88 32.5l-93.5 32.5 l-99.5 32.5t-104.5 29.5t-110.5 23.5q-55 10 -110.5 16.5t-112.5 6.5q-35 0 -98 -6q-33 -2 -65 -7t-64 -14q-63 -14 -113 -43q-47 -29 -47 -75q0 -51 57 -84q51 -31 137 -54q41 -10 85 -16t92 -10q92 -6 167 -6q66 0 137.5 6t151.5 20q154 24 355 90z" />
<glyph unicode="R" horiz-adv-x="2457" d="M4819 2075q0 -84 -35 -177q-35 -88 -104 -163q-35 -39 -78 -75t-96 -69q-109 -68 -242 -108q-43 -14 -87 -25.5t-89 -19.5q-94 -16 -185 -17q-41 0 -81.5 4.5t-81.5 12.5t-83 19t-85 30q-115 49 -170 135q-53 84 -54 176q0 104 64 199q61 94 180 149q90 41 170 60 q82 18 174 18q-90 -8 -174 -31q-41 -10 -82 -26.5t-84 -40.5q-90 -51 -137 -139q-45 -82 -45 -177q0 -96 45 -178q43 -84 129 -121q90 -41 170 -55q41 -8 80 -11t78 -3q45 0 89 4t87 12q41 8 84 19.5t88 25.5q53 16 101 40t96 56q90 59 161 142q70 84 109 174q39 96 39 184 q0 74 -27 142q-29 72 -84 129q-53 59 -147 112q-88 51 -219 86q-33 8 -70 15.5t-82 11.5t-91 7t-97 3q-41 0 -84 -2t-84 -6t-84 -9t-84 -16q-150 -31 -286 -79t-263 -113q-250 -127 -471 -348q111 -63 170 -168q59 -106 59 -228q0 -98 -43 -202q-41 -102 -133 -199 q-47 -47 -106.5 -91t-130.5 -85q-72 -41 -158 -74t-191 -59q29 0 62 -17q27 -14 55 -45q27 -29 41 -67q16 -43 16 -86q0 -63 -38 -146l-45.5 -91t-49.5 -93q-51 -96 -77 -164q-20 -49 -21 -86q0 -43 21 -78q14 -16 30 -22q14 -6 35 -6q39 0 82 20q90 41 180 109 q92 70 152 141v-21q-61 -74 -146 -139q-84 -66 -186 -110q-47 -20 -107 -21q-27 0 -47 6q-20 2 -34 15q-63 49 -64 153q0 102 64 215l31.5 56.5l31.5 56.5l68 117q51 88 51 155q0 63 -41 101q-43 37 -105 39q-29 -4 -57.5 -8.5t-56.5 -8.5q-29 -2 -59.5 -3t-59.5 -1 l-78 -120.5t-80 -110.5q-80 -104 -155 -187l-74 -76.5t-70 -64.5l-61.5 -54.5t-54.5 -45.5q43 -72 43 -150q0 -68 -27 -123q-29 -61 -74 -106t-115 -74q-66 -27 -149 -27q-72 0 -162 29q-43 14 -88 35.5t-92 54.5q-129 -33 -236 -49q-102 -12 -182 -12q-88 0 -151 12 q-33 4 -60.5 13t-50.5 20q-39 18 -67.5 38.5t-49.5 47.5q-37 51 -37 110q0 86 84 176q49 53 123 101q72 45 140 78t143 55l66.5 19.5t60.5 13.5q6 145 51 274q23 66 53.5 133.5t71.5 132.5q-113 51 -188 119q-78 70 -129 150t-76 172q-25 88 -25 182q0 90 21 172 q10 41 24.5 82t34.5 80q39 80 94 147q29 35 59.5 64.5t65.5 56.5q82 61 161 103t157 69q152 51 293 51q133 0 251 -41q57 -20 108.5 -45.5t96.5 -60.5q45 -33 81 -71t65 -79q59 -84 73 -168q66 27 131.5 46.5t131.5 29.5t126 16.5t119 6.5t114.5 -5.5t102.5 -15.5t87 -23.5 t69 -29.5q117 113 239.5 202t254.5 156q131 66 272 114t295 77q47 10 91 16t85 10t81 7.5t81 3.5q86 0 170 -13q41 -6 83 -14t85 -18q127 -29 229 -84q98 -53 164 -121q61 -63 96 -148q33 -73 33 -161zM2748 1698q0 90 -41 176q-39 80 -131 133q-59 -61 -114.5 -126.5 t-108.5 -135.5l-103 -138.5l-98 -140.5l-92 -141.5l-90 -138.5l-84 -135.5l-80 -128.5q61 0 123 6q61 2 123 18q156 37 283 119q129 82 219 184t143 224q51 114 51 225zM2540 2032q-27 14 -61 25t-79 22q-45 8 -94 12t-104 4q-125 0 -256 -24q-133 -23 -258 -80q2 -8 2 -25 q2 -6 2 -24q0 -94 -66 -207q-66 -109 -209 -195q39 27 80 70l39.5 47t38.5 53q37 57 61 125q23 72 23 143q-35 -16 -73 -35.5l-83 -41.5q-86 -47 -184 -111l-99.5 -67.5t-103.5 -75.5q-102 -78 -203 -172l-96 -96.5t-92 -102.5t-86 -108.5t-78 -114.5q141 -45 299 -45 q131 0 258 30q125 27 242 80q-6 12 -14 41q-2 12 -3.5 25.5t-1.5 27.5q0 33 11 78q6 39 32 82q31 51 68 74q39 23 68 22q35 0 57 -22q20 -25 20 -64q0 -29 -8 -47q-18 -55 -65 -114q-45 -55 -123 -107q33 -59 110 -113q76 -51 164 -71l96.5 145.5l100.5 147.5 q96 141 207 286l108.5 138.5l112.5 134.5t117 128.5t123 121.5zM1554 1378q0 29 -14 43q-12 14 -31 15q-25 0 -51 -19q-25 -16 -45 -53q-16 -29 -29 -70q-12 -41 -12 -80q0 -37 17 -75q53 33 96 82q41 47 59 102q6 18 8 31.5t2 23.5zM1651 2007q-18 94 -76 176 q-57 82 -143 144q-86 61 -197 98q-115 35 -236 35q-141 0 -286 -52q-147 -49 -295 -159q-141 -106 -211 -258q-72 -154 -72 -318q0 -94 25 -186q20 -90 71 -172t123 -146q74 -66 174 -104q59 86 119 162t119 143q115 131 250 246q66 55 137.5 107.5t149.5 99.5t164 93 t184 91zM1659 905q-111 29 -180 80q-70 51 -107 113q-125 -59 -264 -88q-131 -27 -258 -27q-90 0 -166 12q-39 4 -74 13.5t-65 19.5q-23 -33 -41.5 -67.5t-34.5 -71.5q-16 -35 -29.5 -71t-23.5 -70q-10 -35 -18.5 -68t-14.5 -64q-4 -31 -7 -58.5t-3 -49.5q27 6 55.5 11 t56.5 9q57 6 121 7q78 0 158 -13q41 -6 79 -16t77 -25q37 -14 71.5 -33.5t67.5 -41.5q63 -47 117 -111q63 51 122 117l58.5 66.5t58.5 72.5q55 70 119 162l60.5 92zM1151 279q-78 117 -219 174q-72 29 -149.5 43t-166.5 14q-125 0 -239 -27q-2 -8 -2 -16v-18v-37 q0 -29 2 -61t6 -64q6 -70 27 -129q10 -33 24.5 -65t34.5 -64q18 -31 43 -60.5t53 -58.5q147 57 289 147q70 43 144.5 98.5t152.5 123.5zM1217 109q0 61 -29 108q-55 -53 -123 -96q-35 -23 -73 -45.5t-79 -44.5q-84 -45 -161 -80l-80 -34.5l-74 -31.5q80 -57 154 -82 q70 -25 135 -24q76 0 137 31q59 31 104 77q43 47 66 107q23 62 23 115zM528 -98q-33 29 -57.5 60.5t-44.5 66.5q-37 66 -59 137q-10 35 -17.5 72.5t-11.5 76.5q-6 76 -6 160q-29 -4 -58.5 -13l-64.5 -20q-33 -10 -65.5 -23t-67.5 -30q-35 -16 -68 -34.5t-65 -41.5 q-68 -41 -115 -92q-68 -72 -68 -158q0 -57 31 -108q29 -53 94 -78q29 -12 59.5 -20.5t61.5 -12.5t62.5 -6t64.5 -2q96 0 199 19q51 10 100 21.5t96 25.5z" />
<glyph unicode="S" horiz-adv-x="1730" d="M2847 2079q0 -43 -19 -101q-14 -55 -59 -135q-41 -74 -125 -176q-76 -98 -184 -199q-104 -96 -228 -178q-121 -84 -245 -123q-121 -240 -263 -450q-139 -209 -311 -375q-168 -158 -371 -254q-201 -94 -446 -94q-100 0 -209 35q-51 16 -98 39.5t-88 56.5t-76 70.5 t-62 85.5q-51 90 -51 208q0 106 56 209q53 96 141 174q41 39 88 69t100 52q98 45 199 45q86 0 154 -26q68 -25 116 -68q49 -43 76 -100q27 -55 27 -121q0 -55 -21 -105q-23 -53 -63 -90q-43 -43 -103 -69q-66 -29 -143 -41q135 57 209 141q72 82 72 186q0 121 -91 193 q-90 72 -235 72q-92 0 -191 -43q-92 -41 -178 -115q-41 -35 -72.5 -78t-58.5 -90q-51 -94 -51 -201q0 -113 49 -194q23 -41 54.5 -76t70.5 -63q76 -57 176 -87q98 -29 193 -28q160 0 299 51q145 53 264 137q123 82 227 197q102 106 191 231q43 59 82 121t73 123 q68 119 117 227q-49 -16 -110 -24q-31 -4 -63 -6t-64 -2q-90 0 -185 22q-86 20 -157 68q-70 45 -113 123q-43 76 -43 186q0 80 35 166q16 41 39.5 81t52.5 81q29 39 61.5 75.5t71.5 71.5q80 72 160 121q84 53 168 86q80 29 159 33q-127 -31 -256 -103q-63 -35 -118.5 -78 t-106.5 -94q-98 -98 -162 -217q-61 -121 -61 -244q0 -94 37 -157q37 -66 98 -109q59 -41 143 -63q80 -18 168 -19q131 0 271 43l70.5 122t76.5 128q76 125 160 246l81 112.5t81 102.5l77.5 89t71.5 69q78 66 152 104q70 37 125 37q39 0 65 -23q23 -22 23 -71zM2814 2066 q0 76 -68 76q-43 0 -106 -33q-31 -16 -63.5 -40.5t-69.5 -57.5q-70 -63 -135 -156l-66 -98t-65 -106l-64 -111.5l-61 -114.5l-59.5 -111l-57.5 -106q248 119 436 289q190 172 305 358q41 63 58 121q16 55 16 90z" />
<glyph unicode="T" horiz-adv-x="2154" d="M5235 2359q-250 -78 -535 -123q-141 -23 -285.5 -36t-293.5 -17q-29 -2 -55.5 -2t-55.5 -2q-27 -2 -53.5 -2h-53.5q-94 0 -183 3t-177 11q-176 12 -344 31l-338 31q-170 12 -340 12q-90 0 -182 -6q-45 -2 -91 -6l-94 -8q-72 -6 -176 -31q-53 -12 -107 -28.5t-112 -37.5 q-57 -20 -112.5 -44.5t-112.5 -53.5q-55 -29 -105.5 -61.5t-95.5 -71.5q-88 -72 -143 -166q-55 -90 -55 -199q0 -63 22 -118q20 -47 64 -88q37 -35 96 -58q53 -20 121 -20q135 0 268 37q127 35 236 102q106 66 169 154t64 192q0 68 -59 102q-59 35 -146 35q-131 0 -239 -59 q-104 -57 -215 -164q90 121 204 186q115 66 248 66q109 0 178 -51q72 -49 72 -142q0 -117 -53 -200q-51 -82 -131 -137q-76 -53 -172 -89q-47 -16 -90 -27t-84 -20q-41 -8 -74 -13t-62 -7l-40 -3t-15 -1q-176 0 -283 82q-106 82 -106 245q0 109 57 199q55 92 146 170 q92 76 205 137q57 31 114.5 57.5t116.5 49.5q57 23 113.5 40l109.5 32q102 27 184 32q45 4 89.5 7.5t89.5 7.5q45 2 88 3t88 1q94 0 186 -3t187 -12q94 -8 187 -15t189 -15l188.5 -15.5l190.5 -15.5t191.5 -11t193.5 -3h49q14 0 26.5 1t27.5 1q137 6 276 18t283 33 q281 38 551 104zM2937 2089q-82 -18 -174 -90q-45 -35 -88 -79t-86 -97l-83 -110.5t-83 -121.5l-79 -125.5t-73 -126.5l-68.5 -123.5l-64.5 -117.5l-56.5 -106.5l-49.5 -90.5q74 -29 133 -67q63 -41 106 -91q43 -45 72 -110q25 -61 24 -137q0 35 -24 88q-23 51 -68 104 q-49 55 -110 103q-66 47 -150 77l-45 -77.5t-47 -77.5q-49 -78 -111 -154q-55 -70 -135 -143q-78 -74 -166 -133q-197 -133 -405 -209q-203 -76 -453 -76q-133 0 -245 33q-115 31 -205 98q-84 63 -137 166q-51 100 -52 237q0 123 66 250q63 123 172 222q106 98 252 159 q141 61 297 62q82 0 168 -23q41 -10 76.5 -26.5t68.5 -38.5q61 -41 109 -113q43 -63 59 -160q131 55 242 80q55 10 105 16.5t97 6.5q63 0 105 -9q23 -4 44 -9t42 -11l64.5 114.5l72.5 123.5l77 125.5l81 125.5l84 123l88 119t90 110.5t92 98.5q94 90 187 147q94 58 184 64z M1233 803q-12 -8 -27.5 -16.5t-31.5 -18.5q-35 -18 -68 -43l-32.5 -24.5l-33.5 -26.5q-35 -31 -53 -56q-20 -27 -20 -53q0 -33 37 -33q23 0 40 9q90 37 138 108q45 70 51 154zM1896 909l-34.5 8.5t-38.5 8.5q-20 2 -42 3t-44 1q-100 0 -217 -25q-113 -25 -234 -78 q0 -55 -18 -106q-20 -57 -51 -96q-31 -45 -76 -74q-41 -29 -97 -39q-74 0 -94 14t-20 37q0 14 10 39q4 10 10 18.5l13 18.5q45 55 112 111q68 55 154 94q-20 180 -144 264q-123 82 -313 82q-154 0 -283 -64q-133 -66 -233 -159q-100 -94 -160 -211q-57 -113 -57 -217 q0 -113 47 -211q45 -94 127 -160q80 -68 182 -100q109 -35 219 -35q123 0 244 30q123 31 232 80q109 45 206 109l90.5 58.5t79.5 58.5q66 49 131 129q33 37 63 74.5t58 76.5q57 76 105 148l41 62t32 50z" />
<glyph unicode="U" horiz-adv-x="2625" d="M2943 2222q0 -39 -39 -108q-68 -100 -162 -211l-205 -230l-112.5 -118.5l-116.5 -118.5l-117.5 -116.5l-117.5 -115.5l-113.5 -110.5l-110.5 -104.5l-101 -98l-93 -88l-55.5 -77l-51.5 -69q-47 -61 -86 -133q-35 -66 -55 -141q-20 -74 -21 -174q0 -84 44 -135 q43 -53 129 -54q98 0 208 52q117 51 234 131q59 41 116.5 86t114.5 98q57 51 106.5 103.5t94.5 105.5q43 53 78 104.5t61 102.5q53 100 54 172q0 88 -39 127q-37 37 -103 37q-68 0 -160 -41q-88 -39 -174 -123l-71.5 -70l-69.5 -69q-35 -35 -66.5 -73l-64.5 -79 q-66 -80 -123 -178q-29 -49 -56.5 -105.5l-56.5 -121.5q14 47 32 91t40 89q43 86 105 172q29 43 63.5 86l73.5 88q37 43 81 87l93 91q94 88 188 133q100 45 174 45q66 0 111 -41q43 -41 43 -137q0 -86 -49 -192q-47 -102 -133 -218q-84 -109 -195 -213q-104 -98 -231 -184 q-121 -80 -250 -129q-127 -49 -240 -49q-61 0 -104 25q-39 20 -70 63q-27 37 -39 92q-12 51 -12 115q0 51 12 117t45 127l-61.5 -65t-56.5 -56l-57.5 -53.5l-59.5 -53.5t-64.5 -53.5t-72.5 -54.5l-83 -62t-98 -69q-27 -18 -52 -32.5t-52 -23.5q-49 -14 -92 -14 q-90 0 -137 47t-48 127q0 59 25 131q25 70 70 146q39 66 87 135t107 141l120 145.5l128 149.5l132.5 153.5l135.5 157.5q137 156 260 322l32 45t32 49q16 25 30.5 50.5l28.5 51.5q14 27 24.5 53.5t20.5 55.5q16 55 17 102q0 72 -45 129q-47 57 -156 78q-10 2 -22.5 3 t-24.5 1q-12 2 -24.5 2h-26.5q-96 0 -232 -39q-139 -41 -286 -112q-76 -35 -150 -79t-147 -97q-74 -51 -140.5 -108.5t-126.5 -123.5q-117 -127 -190 -276q-74 -152 -74 -316q0 -23 3 -42t7 -40q4 -18 12.5 -34.5t18.5 -30.5q25 -31 53 -47q37 -16 82 -17q106 0 211 48 q104 47 193 120q47 37 90 80t84 90t79 95.5t72 97.5l67 97t60 95q29 47 52.5 89l44.5 77q-16 -76 -62 -170q-23 -47 -51.5 -96t-62.5 -100q-35 -51 -74 -100.5t-84 -98.5q-90 -100 -189 -174q-102 -78 -208 -123q-111 -47 -218 -47q-55 0 -94 18t-63 52q-25 31 -37 73 q-10 47 -10 90q0 137 61 277q57 135 162 268q51 66 111.5 125t130.5 117q139 115 292 198q152 82 318 136q162 51 319 55h37q10 -2 18.5 -2t18.5 -2q72 -12 127 -41q49 -27 84 -68q29 -37 45 -86q12 -47 12 -98q0 -57 -16 -127q-14 -61 -43 -125q-12 -29 -25.5 -57.5 t-29.5 -55.5t-30.5 -49l-29.5 -43q-66 -92 -134.5 -177l-139.5 -167l-143.5 -157.5l-143.5 -155.5l-136.5 -153.5l-129.5 -153.5q-127 -156 -221 -322q-23 -43 -31 -72q-6 -31 -6 -55q0 -106 114 -106q43 0 97 18q47 14 92 47l150.5 112.5t154.5 127.5q156 131 313 313 q66 123 143 238.5t163 230.5l172 220.5l174 203.5l171 187.5t167 166.5l151.5 142.5l128.5 117.5q37 31 67.5 53.5t57.5 33.5q55 23 82 22q41 0 41 -41zM2922 2214q0 27 -28 27q-25 0 -70 -25q-23 -10 -49.5 -29.5t-58.5 -48.5q-41 -35 -83 -76l-87 -88l-185 -202 l-94 -109.5l-94 -116.5l-178 -233l-83 -112.5l-79 -108.5l-70.5 -101.5l-62.5 -93.5q39 35 82 78l94 90l101.5 98l107.5 105l111.5 108.5l113.5 112.5l219 225l195 213l82 96t65 86q51 70 51 105z" />
<glyph unicode="V" horiz-adv-x="1419" d="M2261 2234q0 -37 -4 -77.5t-12 -88.5q-16 -90 -56 -190q-20 -51 -44.5 -103.5t-57.5 -105.5t-72 -108.5t-86 -110.5q-109 -127 -239 -258l-136.5 -133.5t-148.5 -132.5l-155 -133.5t-165 -133.5l-171 -129t-177 -124q-45 -106 -108 -203q-63 -94 -154 -158 q-35 -27 -59 -35q-18 -8 -39 -8q-33 0 -33 37q0 41 37 96q45 68 117 135q74 70 166 127q31 63 49 154l16 93t19 101q8 53 18 109.5t22 116.5q25 117 72 254q23 66 52.5 133t68.5 139q37 70 84 141.5t106 143.5q-74 4 -112 43q-39 37 -39 96q0 33 16 78l8.5 24.5t6.5 22.5 t3 20.5t1 20.5q0 55 -41 84q-39 27 -105 27q-47 0 -104 -13q-61 -12 -117 -39q-207 -94 -364 -227q-78 -66 -140.5 -134.5t-113.5 -137.5q-51 -70 -88 -135.5t-64 -129.5q-49 -127 -49 -206q0 -119 57 -185q55 -66 148 -65q80 0 155 39q72 35 146 98q66 59 129 139 q31 39 58.5 78l53.5 78q25 39 46.5 77l39.5 72l56 123q-18 -49 -44 -104.5t-59 -118.5q-66 -127 -151 -238q-90 -115 -197 -190q-106 -76 -235 -76q-100 0 -164 68q-63 63 -64 205q0 150 76 299q74 147 195 280q59 66 127.5 126.5t144.5 113.5q150 106 305 172 q29 12 59.5 21.5t59.5 17.5q55 14 113 14q84 0 139 -37t55 -117q0 -16 -2 -31.5t-6 -31.5l-8 -35.5l-8 -34.5q-6 -35 -7 -57q0 -31 21 -45q23 -16 88 -16q82 100 182 206q98 102 219 183q57 39 93 39q27 0 26 -25q0 -31 -41 -84q-18 -25 -39.5 -50.5t-46.5 -51.5 q-51 -55 -106 -99q-29 -23 -58.5 -44t-62.5 -40q-66 -37 -129 -55q-90 -141 -148 -276q-57 -133 -98 -263q-20 -63 -35.5 -122.5l-29.5 -118.5l-26.5 -113.5t-25.5 -105.5q-20 -98 -49 -187q-25 -90 -63 -153l130.5 94l139.5 104q141 111 289 240l293 274l145.5 147 l140.5 152q41 47 78 97.5t68 103.5t56.5 105.5t45.5 105.5t34.5 104.5t25.5 102.5q20 94 20 178q0 150 -90 234t-236 83q-121 0 -256 -63q-141 -61 -286 -190q115 137 258 213q147 76 284 75q76 0 144 -24q63 -20 115 -70q49 -47 77 -119q27 -76 27 -168zM1686 2212 q0 10 -11 10q-10 0 -26 -10q-8 -4 -18.5 -10.5t-20.5 -14.5q-27 -16 -50.5 -34.5t-46.5 -38.5q-43 -37 -86 -80l-40.5 -45.5t-40.5 -49.5l-84 -108q23 8 45 19.5t49 27.5q45 29 100 74q27 20 51.5 42.5t48.5 47.5q53 53 91 104q39 52 39 66zM647 344q-41 -27 -73.5 -53.5 t-61.5 -52.5l-53.5 -55.5t-52.5 -63.5q-25 -35 -25 -62q0 -20 18 -20q20 0 60 29q61 59 108 120q45 62 80 158z" />
<glyph unicode="W" horiz-adv-x="2328" d="M6050 2046v-40.5t-4 -43.5q0 -20 -4 -42t-9 -44q2 10 2 22.5v22.5q2 10 2.5 20.5t0.5 20.5q0 190 -87 332q-84 139 -233 235q-147 96 -346 142q-100 23 -205.5 34t-218.5 11q-186 0 -369 -33q-193 -35 -377 -92q-94 -29 -186 -66t-184 -80t-178 -91l-172 -101 q-147 -92 -320 -250l-174 -163l-180 -181l-381 -406l-397 -434l-406 -430q-205 -209 -407 -389q45 111 97 222.5t113 228.5q59 117 125 233.5l136 235.5l139 231.5l145 228.5l144.5 221.5l140.5 208.5l-215 -231.5l-221 -239.5l-222.5 -242.5l-220.5 -238.5l-215 -233.5 l-209 -225.5l-197 -209l-179 -190q16 35 34 70l16.5 34.5l16.5 34.5l113.5 228.5l109.5 222.5q106 217 234 436l130.5 220.5l141.5 221.5q147 223 338 474q-20 -16 -40.5 -30t-43.5 -28q-20 -14 -42.5 -24.5l-45.5 -20.5q-53 -18 -96 -18q-66 0 -103 39q-35 41 -34 106 q0 39 8 66q0 23 18 59l20.5 38.5t20.5 43.5q20 43 39 96q18 51 19 101q0 61 -31 104q-29 43 -78 72q-45 27 -106 43q-59 12 -115 12q-74 0 -164 -23q-82 -20 -176 -71q-70 -37 -135.5 -88.5t-130.5 -114.5q-66 -63 -122.5 -135t-105.5 -150q-100 -160 -157 -331 q-59 -178 -60 -347q0 -41 4 -80.5t13 -80.5q16 -82 55 -146q41 -68 102 -104q63 -39 158 -39q96 0 201 45q104 41 219 141q68 57 117 119q27 31 50 63.5l46 67.5t42 71t40 72q20 37 38.5 75t39.5 77q-59 -172 -136 -305q-76 -137 -184 -244q-119 -115 -240 -168 q-121 -49 -223 -49q-104 0 -174 43q-35 20 -63.5 47t-51.5 62q-41 66 -63 153q-18 86 -18 176q0 154 45 316q45 166 135 325q88 160 227 301q137 143 320 244q104 57 192 78q47 10 89 15t81 5q174 0 274 -88q98 -86 99 -249q0 -88 -27 -168q-25 -84 -61 -142 q-14 -25 -17 -37q-4 -20 -4 -30q0 -63 76 -64q41 0 88 21l37.5 18t44.5 27q45 31 96 71l49.5 41t47.5 43l42 42.5t35 39.5l-142.5 -243.5l-139.5 -243.5l-139.5 -245l-141.5 -245l-289 -485q-145 -244 -307 -479l1876 2040l-162 -266.5l-157 -266.5l-157 -266l-157 -266 l-158.5 -264.5l-164.5 -266.5l-168 -264l-178 -262l187 183l185 194l183.5 197.5l183.5 203.5l180 202.5l180 201.5l178.5 195l178.5 188q88 92 176 175l178 160q178 156 352 267q100 63 199.5 117.5t202.5 101.5q100 47 199.5 85t199.5 70q197 61 387 93q190 31 365 30 q223 0 411 -49q186 -47 326 -141q137 -96 215 -234q76 -141 76 -317z" />
<glyph unicode="X" horiz-adv-x="2613" d="M3260 1989q0 -125 -57 -254q-59 -135 -156 -246q-98 -109 -231 -184q-133 -72 -285 -72q-86 0 -123 43q-35 45 -34 106q0 78 36 156q35 72 97 137q61 63 129 109q72 47 137 67q-33 -20 -63.5 -41.5t-63.5 -48.5q-33 -25 -60.5 -52.5t-54.5 -57.5q-25 -29 -45 -60.5 t-37 -66.5q-31 -68 -30 -144q0 -53 30 -90q31 -35 97 -35q94 0 178 33q86 35 162 88q74 55 135 129q31 35 57.5 73t48.5 79q43 78 68 164q25 82 24 159q0 43 -12 84t-39 68q-14 14 -31.5 25.5t-39.5 19.5q-45 16 -109 16q-176 0 -344 -88q-172 -90 -326 -235 q-160 -150 -301 -340l-139.5 -193.5t-130.5 -201.5l-67.5 -105.5l-65.5 -103.5q-33 -49 -62.5 -98.5t-56.5 -100.5q-27 -49 -47.5 -99t-36.5 -104q-31 -104 -31 -221q0 -154 70 -223q68 -70 190 -70q92 0 195 37q98 33 203 96q102 61 192 144q92 86 160 174q70 90 109 188 q41 98 41 187q0 41 -9 75q-6 37 -24 72q-16 29 -49 51q-31 18 -78 19q-80 0 -160 -35q-72 -33 -143 -92q-70 -57 -127 -129q-29 -35 -56.5 -73l-54.5 -77t-49.5 -75.5l-44.5 -73.5l-74 -136q14 23 30.5 53.5l35.5 67.5q16 35 37.5 73l44.5 79t48 80t54 80q55 76 129 143 q72 66 156 104q84 39 190 39q47 0 82 -22q37 -25 57 -55q10 -16 19.5 -37t13.5 -43q10 -47 10 -86q0 -88 -32 -185q-31 -96 -90 -192q-29 -47 -66 -92t-78 -90q-82 -84 -188 -154q-100 -63 -226 -105q-117 -39 -256 -38q-96 0 -159 32q-66 31 -109 90q-43 61 -59 140 q-18 80 -19 178q0 23 1 42t3 40q2 20 4.5 38.5t6.5 35.5q-29 -72 -92 -142q-33 -35 -71 -69.5t-83 -67.5q-90 -66 -197 -123q-109 -55 -221 -98q-113 -43 -231 -68q-119 -23 -219 -22q-96 0 -170 20q-39 10 -74 26.5t-64 39.5q-55 45 -90 119q-33 68 -32 174q0 68 28 153 q14 41 32.5 80t43.5 78q47 80 115 149q63 70 143 127q76 51 164 86q86 31 174 31q63 0 119 -22q57 -23 90 -60q35 -37 57 -88q18 -49 19 -108q0 -74 -35 -148q-16 -35 -41 -66.5t-53 -60.5q-57 -53 -138 -94q-80 -39 -166 -47q197 84 297 207q98 119 99 231q0 104 -70 168 q-74 63 -186 64q-86 0 -166 -33q-76 -29 -154 -84q-76 -53 -137 -121q-31 -35 -58.5 -69.5t-49.5 -73.5q-23 -37 -40.5 -74t-31.5 -76q-25 -74 -25 -139q0 -88 31 -158q31 -66 86 -113q53 -45 131 -69q80 -23 166 -23q141 0 270 45q66 23 129.5 52.5t122.5 68.5 q119 76 234 178q55 51 107 105.5l104 111.5q49 57 95 117l91 121l83 118.5l77 117.5q27 41 52.5 84l51.5 86l92 165q20 41 40 78t36 72l28.5 63.5t22.5 53.5q14 35 24.5 69.5t14.5 67.5t7 63.5t3 59.5q0 61 -24 117q-25 53 -72 94q-43 39 -110 63q-68 23 -150 23 q-119 0 -248 -62q-125 -59 -235 -170q-102 -104 -174 -252q-68 -145 -68 -313q0 -84 43 -133q41 -47 123 -47q113 0 221 61q100 59 193 152q86 88 153 196q33 53 58.5 100.5t44.5 90.5q-16 -63 -40 -122.5t-57 -117.5q-66 -115 -151 -200q-86 -84 -197 -138 q-104 -51 -227 -51q-94 0 -148 53q-51 51 -51 144q0 156 62 307q29 76 69.5 142.5t94.5 125.5q104 119 241 193t291 74q119 0 199 -33q82 -35 135 -92q53 -61 78 -138q25 -80 24 -174q0 -96 -24 -202l143.5 135l134.5 123q66 59 130.5 109t127.5 91t125 74t125 55 q63 23 128 34t132 11q49 0 103 -16q45 -14 84 -47q37 -33 57 -78q20 -51 20 -104z" />
<glyph unicode="Y" horiz-adv-x="1607" d="M2402 1976q0 -31 -12 -69q-4 -20 -14.5 -43t-24.5 -45l-70.5 -119l-74.5 -121q-78 -123 -172 -252t-219 -262q-59 -66 -130 -132.5l-149 -133.5l-120.5 -211l-121.5 -209l-120.5 -207.5l-120.5 -208.5q63 14 129 25q33 4 64.5 6t64.5 2q143 0 278 -35q133 -35 232 -102 q102 -72 161 -176q59 -106 60 -248q0 -158 -64 -305q-66 -152 -174 -285q-113 -135 -260 -246q-152 -115 -321 -196q-174 -84 -359 -129q-180 -45 -368 -46h-43h-21.5t-21.5 3q88 4 177 17t183 36q186 47 360 123t332 184q158 109 273 238q115 131 186 284q68 150 68 322 q0 129 -52 225q-51 98 -141 162q-88 61 -221 96q-123 33 -285 33q-31 0 -62.5 -2t-64.5 -6q-66 -10 -135 -25q-76 -131 -162 -256t-184 -248q-195 -244 -412 -448q-221 -209 -444 -369q-113 -82 -221.5 -148.5t-214.5 -119.5q-51 -27 -95.5 -45.5t-82.5 -30.5 q-80 -23 -132 -22q-78 0 -114 38q-35 39 -35 103q0 66 33 139q35 82 94 166q184 264 407 469q111 102 225.5 190.5t235.5 163.5q121 76 241 138.5t243 115.5q123 51 238.5 93t228.5 75l344 533l-68 -69l-78 -75t-83 -74.5l-83 -68.5q-109 -84 -194 -121q-86 -35 -148 -35 q-158 0 -157 205q0 84 53 201q27 55 61.5 113.5t77.5 121.5l88 125t101 129l102 128.5l102 123.5l97.5 119.5l91.5 114.5q86 111 135 196q20 35 35.5 68t27.5 65q23 68 23 127q0 129 -76 187q-78 59 -211 59q-76 0 -178 -39q-106 -37 -219 -104q-57 -35 -114.5 -75 t-114.5 -87t-107.5 -98.5t-95.5 -108.5q-90 -115 -148 -242q-55 -127 -55 -264q0 -80 37 -135t110 -55q94 0 185 43q82 37 162 108q76 68 141 154q33 41 62.5 84t56.5 88t49 87l43 83l67 141q-33 -129 -104 -272q-70 -139 -172 -260t-227 -197t-271 -76q-45 0 -78 19 q-16 8 -28.5 19.5t-22.5 25.5q-16 25 -26 67q-8 33 -9 78q0 117 45 234q47 121 125 235q76 113 183 219q104 104 219 181q59 39 118.5 70.5t120.5 54.5t121 34t117 11q166 0 256 -90q88 -92 88 -242q0 -61 -14 -113q-10 -51 -35 -104q-25 -57 -55.5 -112.5t-65.5 -113.5 q-35 -57 -75 -112l-83 -113l-178 -227l-178 -227q-45 -57 -85 -113.5l-79 -114.5q-39 -57 -70.5 -113.5l-60.5 -113.5q-14 -29 -14 -64q0 -47 31 -73q27 -27 86 -27q57 0 135 33q78 31 180 110q162 129 295 283q66 76 125 152.5t112 154.5l102.5 154l94.5 151 q88 150 172 277l91 139.5l97 140.5q49 72 105.5 143.5l120.5 145.5q47 55 90 82q39 25 61 25q43 -1 43 -60zM2380 1974q0 39 -25 39q-16 0 -49 -24q-33 -23 -78 -80q-39 -47 -79 -101.5t-81 -117.5l-81.5 -128l-81.5 -132l-81 -136.5l-81 -138.5l-79 -136.5l-75 -129.5 q82 63 162 143q78 82 152 170l71.5 89t67.5 91l63.5 89.5l59.5 84.5q29 41 53.5 81l46.5 75q23 35 39 65.5t31 53.5l19 38.5t16 39.5q10 40 10 65zM840 -131q-137 -47 -263 -95t-245 -102q-117 -51 -227.5 -111.5t-217.5 -129.5q-106 -70 -207.5 -152t-201.5 -176 q-98 -94 -196.5 -207t-199.5 -244q-68 -90 -94 -157q-27 -68 -26 -121q0 -57 34 -88q33 -31 95 -31q106 0 274 94q188 106 350 236l162 132t150 138q72 70 138 141.5l130 143.5l117.5 141.5l107.5 136.5q104 135 182 250l75 107.5z" />
<glyph unicode="Z" horiz-adv-x="2355" d="M3125 2195q0 -20 -22 -59q-20 -37 -76 -88q-23 -23 -50.5 -45.5t-60.5 -44.5l-67.5 -45.5t-75.5 -42.5q-84 -41 -176 -72q-47 -16 -98.5 -26.5t-106.5 -14.5q-113 -127 -209 -266l-190 -289l-94.5 -147.5l-94.5 -147.5t-97 -144.5l-103 -139.5q-53 -70 -109.5 -133.5 t-116.5 -122.5q-59 -59 -126.5 -111.5t-141.5 -99.5q92 -16 173 -31.5t153 -26.5q72 -10 137 -16t125 -6q102 0 203 22q100 23 194 70q98 45 207 127q106 80 233 197l-97 -102.5l-95 -94.5t-98.5 -83t-108.5 -71q-111 -63 -250 -98q-70 -16 -149.5 -25.5t-173.5 -9.5 q-129 0 -283 19q-152 18 -338 55q-53 -27 -110.5 -50.5t-122.5 -45.5q-127 -43 -281 -43h-21.5t-33.5 2q-18 2 -40 4t-46 6q-47 6 -99 18q-45 8 -92 29q-41 18 -67 45q-27 25 -27 59q0 27 35 50q16 10 38.5 18t51.5 16q27 6 56.5 11.5t62.5 9.5t64.5 6t62.5 2q29 4 56.5 4 h49.5q23 2 39.5 2h26.5q61 0 121.5 -3t119.5 -11q59 -6 117 -15.5t113 -19.5q63 35 123.5 79t120.5 97q59 53 115.5 113.5l113.5 126.5l110.5 136.5t108.5 145.5l106.5 151l106.5 153l215 301q53 76 108.5 144.5l110.5 133.5q-29 0 -74 12q-23 4 -47 13.5l-47 19.5 q-43 20 -80 58q-35 35 -34 79q0 25 4 35q0 8 2 15.5t2 15.5q4 8 4 16.5t2 18.5t2 23.5v29.5q0 25 -6 53q-6 29 -27 52q-18 23 -53 40q-33 14 -90 25q0 -129 -35 -274q-35 -141 -98 -277q-66 -139 -156 -258q-90 -121 -207 -213q-121 -92 -256 -143q-141 -53 -297 -54 q-113 0 -184 60q-70 57 -70 172q0 147 58 276q57 131 155 244q100 113 228 201q63 45 129.5 82t138.5 69q139 63 287 99q72 16 140.5 25t133.5 9q0 78 -31 144q-27 59 -84 104q-53 45 -127 66q-37 10 -76.5 15t-84.5 5q-92 0 -193 -24q-100 -20 -211 -72q-109 -49 -217 -125 q-111 -80 -213 -178q82 100 184 176q102 78 217 133q57 27 113.5 47.5t116.5 34.5q121 29 223 29q88 0 162 -21q80 -23 131 -65q53 -41 88 -111q16 -33 24.5 -71.5t10.5 -86.5q61 -4 112 -18q55 -16 93 -47q41 -31 61 -82q23 -51 23 -123v-26q0 -16 -2 -27q0 -100 47 -137 q47 -35 133 -35q35 41 70.5 76.5l70.5 68.5l67.5 58.5t65.5 52.5t66 46l65 40l66 34.5l65 32.5q18 8 37 15.5t39 13.5q39 12 72 12q29 0 45 -10q16 -11 16 -31zM3092 2191q0 27 -38 27q-49 0 -125 -39q-121 -61 -256 -158q-66 -47 -131.5 -105t-128.5 -130q106 18 196 49 q84 27 158 66q35 18 68.5 38.5t62.5 42.5l57.5 45.5l55.5 45.5q45 39 63 69q18 31 18 49zM1880 2261q-66 0 -190 -23q-121 -23 -258 -73q-70 -25 -140.5 -56.5t-142.5 -70.5t-136.5 -86t-123.5 -101q-115 -109 -189 -252q-72 -143 -71 -321q0 -104 65 -160q66 -53 170 -53 q182 0 326 76q147 78 258 192q111 113 194 260q82 139 136 275q27 66 45 126t32 113q25 107 25 154zM889 94q-14 10 -72 23q-29 6 -64.5 12t-78.5 10q-41 4 -87 9.5t-95 9.5t-96.5 6t-92.5 2q-29 0 -54.5 -1t-49.5 -3q-49 -4 -86 -12q-39 -10 -58 -23q-20 -12 -20 -33 q0 -41 53 -65q27 -12 56.5 -21.5t64.5 -17.5q68 -16 129 -19q31 -2 50.5 -3t29.5 -1q125 0 239 37q57 16 115 38.5t117 51.5z" />
<glyph unicode="[" horiz-adv-x="1630" d="M1636 768q0 -150 -49 -287q-23 -70 -56.5 -130t-74.5 -113q-80 -102 -201 -168q-115 -63 -256 -64q-166 0 -297 78q-129 78 -215 201q-45 61 -77.5 131.5t-55.5 148.5q-45 154 -45 318q0 123 25 252q23 131 76 249q49 111 92 222l38.5 106t34.5 107q31 106 50 204 q18 98 18 191q0 141 -49 262q-45 119 -160 211v-27.5t-4 -27.5q0 -20 -10 -52q-4 -12 -9 -25l-12 -30q-12 -29 -30 -67q53 -51 94 -129q37 -74 37 -179q0 -47 -17 -86q-8 -16 -17 -31.5t-24 -27.5q-29 -27 -59 -37q-35 -12 -68 -12q-82 0 -139 49q-59 49 -98 123 q-20 37 -34.5 77t-25.5 83q-18 86 -18 159q0 57 16 119q8 29 19.5 55.5t27.5 49.5q33 47 80 77q51 29 115 29q45 0 80 -12q31 -8 43 -17q-6 35 -15.5 71l-19.5 75q-10 37 -23.5 70.5t-29.5 64.5q-35 63 -80 102t-107 39q-31 0 -53 -20q-25 -23 -24 -51q0 -18 12 -37 q12 -18 41 -19q-16 16 -16 33q0 16 12 29q10 10 26 10t27 -12q10 -10 10 -29q0 -25 -20 -39q-18 -12 -41 -12q-31 0 -53 22q-18 20 -19 54q0 43 33 67q31 25 68 25q111 0 200 -127q43 -63 75 -149.5t50 -198.5q133 -96 193 -240q57 -139 57 -311q0 -188 -59 -410 q-29 -111 -65 -219.5t-77 -220.5q-51 -139 -71 -268q-10 -66 -15.5 -130.5t-5.5 -123.5q0 -150 39 -285q41 -139 115 -244q80 -106 186 -170q106 -63 252 -63q147 0 264 61q113 57 195 162q78 104 121 233q41 135 41 277q0 117 -25 244q-25 125 -80 229q-53 102 -141 170 q-90 66 -215 66q-94 0 -166 -48q-68 -43 -119 -125q-47 -80 -72 -178q-25 -102 -24 -207q0 -70 16 -145q6 -35 19.5 -68.5t29.5 -66.5q35 -66 88 -117q27 -27 60 -47t74 -37q-78 18 -140 70q-66 53 -110 125q-45 74 -74 164q-27 86 -27 180q0 86 33 176q31 90 90 168 q29 39 66 69.5t78 57.5q82 49 186 49q131 0 221 -63q92 -68 150 -166q29 -51 51 -109.5t37 -124.5q12 -66 19 -131t7 -131zM336 2458q-12 10 -41 20q-23 6 -45 6q-18 0 -31 -6q-12 -6 -14 -20q0 -18 16 -35q14 -12 39 -13q18 0 41 13q19 8 35 35zM483 2163q0 96 -41 168 q-41 70 -86 110q-14 -27 -43 -39q-25 -12 -51 -12q-35 0 -61 18q-25 18 -25 50q2 23 27 36q25 10 49 11q20 0 51 -11q23 -8 45 -24q20 37 29 86q4 25 6 49.5t2 48.5v31q0 10 -4 31q-10 8 -24.5 15t-30.5 11t-34 6t-38 2q-59 0 -104 -26q-45 -25 -72 -68q-29 -43 -43 -100 q-12 -55 -12 -115q0 -33 4 -67.5t12 -75.5q16 -84 51 -152q33 -68 94 -116q59 -47 142 -48q29 0 57 13q25 8 49 33q20 20 37 57q14 31 14 78z" />
<glyph unicode="\" horiz-adv-x="1740" d="M1659 -279l-90 -4l-1573 2306l90 5z" />
<glyph unicode="]" horiz-adv-x="1630" d="M-2 768q0 137 27 262q14 66 36.5 124t51.5 110q57 98 149 166q90 63 221 63q102 0 187 -49q41 -27 77.5 -57.5t65.5 -69.5q59 -78 90 -168q33 -90 33 -176q0 -94 -27 -180q-29 -90 -73 -164q-45 -72 -111 -125q-61 -51 -139 -70q41 16 73.5 37t59.5 47q53 51 88 117 q33 63 49 135q16 76 16 145q0 104 -24 207q-25 98 -72 178q-51 82 -119 125q-72 47 -165 48q-125 0 -216 -66q-88 -68 -141 -170q-55 -104 -80 -229q-25 -127 -24 -244q0 -141 41 -277q43 -129 121 -233q82 -104 194 -162q117 -61 264 -61q145 0 254 63t185 170 q74 104 114 244q39 135 39 285q0 59 -5 123.5t-15 130.5q-20 129 -72 268l-77 221.5t-64 218.5q-59 221 -60 410q0 172 58 311q59 143 192 240q37 223 125 348q90 127 201 127q37 0 67 -25q33 -25 33 -67q0 -33 -18 -54q-23 -23 -54 -22q-23 0 -41 12q-20 14 -20 39 q0 18 10 29q8 12 27 12q16 0 26 -10q12 -12 13 -29q0 -16 -17 -33q29 0 41 19q12 18 13 37q0 29 -25 51q-23 20 -53 20q-61 0 -107 -39q-45 -39 -80 -102q-16 -31 -29.5 -64.5t-23.5 -70.5l-19 -75t-16 -71q12 8 43 17q33 12 80 12q63 0 115 -29q47 -31 80 -77 q16 -23 27.5 -49.5t19.5 -55.5q16 -61 16 -119q0 -74 -18 -159q-10 -43 -24.5 -83t-35.5 -77q-41 -74 -98 -123q-59 -49 -139 -49q-35 0 -68 12q-31 10 -59 37q-14 12 -23.5 27.5t-17.5 31.5q-16 39 -16 86q0 104 36 179q41 78 95 129l-31 67l-11 29.5t-10 25.5 q-10 31 -10 52q-4 14 -4 27.5v27.5q-115 -92 -160 -211q-49 -121 -49 -262q0 -92 19 -191q18 -98 49 -204q16 -53 34.5 -106.5t39.5 -106.5q43 -111 92 -222q53 -119 75 -249q25 -129 25 -252q0 -164 -45 -318q-47 -162 -131 -280q-88 -123 -217 -201q-131 -78 -297 -78 q-139 0 -254 64q-121 66 -203 168q-41 53 -74.5 113.5t-56.5 129.5q-49 137 -49 287zM1298 2458q16 -27 35 -35q20 -12 41 -13q23 0 39 13q16 16 17 35q-2 14 -15 20q-12 6 -31 6q-25 0 -45 -6q-29 -10 -41 -20zM1151 2163q0 -47 14 -78q16 -37 37 -57q23 -25 51 -33 q27 -12 56 -13q82 0 141 48q61 49 94 116q35 68 51 152q8 41 12.5 75.5t4.5 67.5q0 59 -13 115q-14 57 -43 100q-27 43 -71 68q-45 27 -105 26q-20 0 -37.5 -2t-33.5 -6t-30.5 -11t-25.5 -15q-4 -20 -4 -31v-31q0 -25 2 -49.5t6 -48.5q8 -49 29 -86q23 16 45 24q31 10 51 11 q25 0 50 -11q25 -14 26 -36q0 -31 -24 -50q-29 -18 -62 -18q-27 0 -51 12q-29 12 -43 39q-47 -41 -86 -110q-41 -72 -41 -168z" />
<glyph unicode="^" d="M1270 1540q-76 -82 -109 -143q-31 -59 -31 -113q0 -39 13 -76h-8q-27 33 -37 70q-8 31 -8 74q-16 -14 -41 -27.5l-54 -30.5q-57 -31 -121 -57q-33 -14 -63.5 -25.5l-58.5 -21.5q-29 -10 -54.5 -16.5t-46.5 -10.5h-24l88 28.5t84 31.5q84 35 157 80q74 45 152 106 q37 29 74 63.5t75 75.5z" />
<glyph unicode="_" horiz-adv-x="2662" d="M2568 -193l-67.5 -37.5t-65.5 -31.5q-31 -14 -61.5 -25.5l-59.5 -21.5t-59.5 -16.5t-61.5 -10.5q-29 -4 -60.5 -6t-64.5 -2q-78 0 -165 12q-45 4 -93.5 13.5l-101.5 19.5t-110.5 22.5t-120.5 28.5l-133 32.5l-148 35.5q-23 4 -47.5 6l-50.5 4q-25 2 -50.5 3t-52.5 1 q-211 0 -458 -55q-250 -55 -541 -172l118.5 60.5l123.5 58.5q125 57 260 98q137 39 288 67q150 25 322 25h51q14 -2 26.5 -2h26.5q106 0 228 -29l116.5 -28.5l120.5 -30.5t125 -30.5l129 -28.5q125 -27 267 -27q45 0 90 4t92 12q45 6 92 19.5t96 31.5z" />
<glyph unicode="`" d="M3930 2193l-16 -12l-250 410q23 0 35 -6q14 -4 22 -13q4 -4 10.5 -7l14.5 -7q6 -4 15 -8t22 -8z" />
<glyph unicode="a" horiz-adv-x="921" d="M1294 696l-129 -166l-71.5 -86l-75.5 -88q-78 -86 -164 -170q-43 -41 -89 -78.5l-93 -74.5q-49 -37 -99 -37q-35 0 -63 22q-27 20 -27 76q0 61 23 135q20 68 55 123q-68 -86 -158 -170q-92 -86 -223 -162q-47 -20 -80 -20q-18 0 -32 6q-6 2 -11.5 6l-11.5 8 q-47 43 -47 132q0 45 14 81q10 29 23.5 61t34.5 66l42.5 73t51.5 77q27 39 56.5 77l62.5 77l65.5 75.5t67.5 71.5q70 68 141 123q35 27 68.5 47t66.5 35q14 6 28.5 11t29.5 9q25 8 53 8q43 0 65 -28q2 -6 4 -13.5t7 -17.5q4 -8 5 -18.5t3 -20.5q0 -25 -6 -57l94 155h82 l-402 -679l-32.5 -60t-32.5 -65q-16 -35 -27.5 -70l-21.5 -68q-6 -18 -6 -32q0 -45 47 -45q37 0 82 32q23 16 55.5 45t73.5 70l84 83l90 93l91 99.5l89 103.5q88 104 147 190v-45zM866 944q0 43 -14 60q-12 20 -53 20q-23 0 -49 -6q-25 -6 -50 -19q-61 -33 -122 -88 q-61 -59 -123 -129q-29 -35 -57.5 -73.5l-57.5 -79.5l-52.5 -80t-47.5 -78l-44.5 -74t-39.5 -69q-16 -35 -31.5 -63.5t-26.5 -51.5q-8 -16 -15 -34.5t-11 -35.5q-10 -37 -11 -63q0 -25 9 -39q8 -18 41 -18q31 0 57 14q74 41 134 85t108 89q94 92 163 203l258 409 q16 29 27 64q8 26 8 57z" />
<glyph unicode="b" horiz-adv-x="819" d="M1270 786q-27 -14 -78 -30q-53 -16 -107 -17q-39 0 -88 17q-41 14 -79 59q-6 -16 -13.5 -30.5t-15.5 -26.5l-57.5 -92.5t-61.5 -94.5l-64.5 -94t-70.5 -94q-35 -45 -74 -87l-80 -83t-84 -76t-90 -63l-51.5 -29.5t-46.5 -24.5q-43 -20 -84 -20q-57 0 -84 45q-20 33 -21 82 q0 49 29 129q12 39 36 85t58 101l992 1586h82l-988 -1586q-66 -102 -104 -190q-39 -86 -39 -158q2 -31 20 -49q14 -12 39 -12q33 0 82 22q23 10 39.5 21.5t32.5 21.5q80 53 166 140q78 82 156 174l71.5 93l67.5 93l59.5 90l52.5 82q14 20 19 39q4 20 4 33q0 8 -1 15t-1 15 q-4 8 -4 29v57q2 14 4 26.5t8 23.5q18 37 43 36q27 0 31 -36q0 -61 -17 -105q-16 -43 -32 -67q39 -45 80 -60q43 -16 81 -16q55 0 105 18q45 14 78 29v-21z" />
<glyph unicode="c" horiz-adv-x="614" d="M946 614l-54.5 -57.5l-60.5 -60.5l-131 -125l-70.5 -64l-74.5 -63l-74 -59.5l-75 -57.5q-86 -61 -164 -96q-74 -31 -127 -31t-84 31t-31 92q0 78 27 176q27 100 92 217q23 41 50.5 80t61.5 78q68 80 142 145q76 70 151 121q39 27 73 47.5t67 36.5q16 8 34.5 15.5 t34.5 11.5q37 10 66 10q49 0 78 -29q14 -14 14 -47q0 -25 -6 -45q-6 -23 -13 -31q-10 -16 -22 -26.5t-23 -18.5q-23 -12 -36 -12q-31 0 -31 29q0 16 14 32q12 16 41 37q6 4 19 8q8 2 18 13q10 10 10 26t-10 27q-12 20 -57 20q-27 0 -64 -10q-16 -4 -32.5 -12t-30.5 -18 q-39 -27 -73 -54.5l-67 -56.5t-61.5 -60.5t-54.5 -64.5l-52.5 -64.5t-48.5 -64.5l-45 -65.5l-45 -65.5q-66 -98 -104 -197l-33.5 -92t-26.5 -80l-6 -24q-2 -6 -2 -21q0 -70 78 -69q45 0 111 26q68 27 159 92q70 49 148 111l73.5 62.5t71.5 66.5l70 65.5t67 67.5l63 64.5 t56 62.5v-29z" />
<glyph unicode="d" horiz-adv-x="1024" d="M1716 2028l-1003 -1610l-21.5 -34.5l-23.5 -39.5q-10 -20 -22.5 -39.5t-22.5 -40.5q-23 -41 -37 -74q-8 -16 -12.5 -31.5t-8.5 -27.5q-6 -25 -6 -41q0 -39 19 -53q16 -14 45 -14q16 0 32 6q12 2 29 12q45 27 107 74l57.5 47t56.5 53l59.5 57.5t59.5 59.5l57.5 57.5 l55.5 56.5l51 54.5l47 48.5l41 41t35 33l4 -25q-14 -16 -33.5 -35.5l-42.5 -44.5l-47.5 -51.5l-52.5 -54.5l-57.5 -57.5l-59.5 -57.5l-59.5 -57.5l-59.5 -57.5q-59 -53 -115 -96q-29 -23 -53 -39t-47 -27l-20.5 -8t-20.5 -6t-18 -3t-19 -1q-47 0 -78 35q-33 37 -32 110 q0 55 26 111l26.5 55.5l25.5 51.5l-75 -84l-77 -82q-39 -39 -84 -74t-96 -68q-37 -25 -68 -34q-31 -12 -59 -13q-51 0 -82 35q-29 35 -29 96q0 33 8 66q6 37 25 76q18 45 39.5 86t44.5 80t50.5 76.5l55.5 76.5q59 74 131 150q35 39 76 77.5l86 79.5q47 43 89 74t81 51 q76 37 129 37q90 0 90 -98q0 -49 -20 -105l741 1160h82zM885 987q0 63 -51 64q-45 0 -115 -45q-35 -23 -72 -52.5t-78 -68.5l-68.5 -71l-68.5 -77q-33 -41 -63.5 -83l-59.5 -85l-55.5 -85t-48.5 -83l-44.5 -77.5t-37.5 -69.5q-23 -41 -37 -86q-14 -41 -14 -78q0 -25 10 -41 q8 -14 35 -14q16 0 47 10q27 8 65 33q98 57 172 135l148 160q27 29 52.5 62.5l53.5 72.5l52.5 76l48.5 73q23 37 41 71l34 67q29 59 33 90q21 59 21 102z" />
<glyph unicode="e" horiz-adv-x="696" d="M1032 635q-29 -33 -61.5 -64.5l-71.5 -66.5q-37 -35 -76 -68l-80 -65l-81.5 -65l-81.5 -64l-81 -64t-81 -59q-45 -35 -84 -57.5t-74 -36.5q-66 -27 -117 -27q-78 0 -110 49q-33 45 -33 107v22q2 4 2 10.5t2 10.5q18 94 68 186q25 47 53.5 91l60.5 89q68 90 142 164 q37 39 73.5 73l73.5 66q35 31 70 56.5l67 48.5q63 43 105 61q14 6 27.5 12.5t27.5 10.5q25 8 49 8q47 0 56 -39q0 -57 -50 -133q-25 -39 -58.5 -76t-74.5 -76q-80 -72 -196 -137q-111 -66 -236 -98l-28.5 -45.5l-28.5 -44.5l-27.5 -46.5l-25.5 -45.5q-10 -23 -20.5 -43.5 l-20.5 -40.5q-16 -37 -25 -62q-14 -41 -14 -76q0 -43 20 -57q23 -16 55 -16q29 0 64 12q16 4 33.5 11t34.5 16l31.5 16t31.5 18l28.5 18.5t22.5 16.5l77 58.5l83 62.5l84 62.5t86 66.5l83 69.5l83 69.5t75.5 70l67.5 70v-29zM860 1016q0 33 -39 33q-18 0 -49 -11 q-14 -4 -25.5 -10t-21.5 -12q-68 -41 -131 -103l-64.5 -63.5t-60.5 -67.5l-56.5 -68.5t-52.5 -68.5q-49 -63 -77 -113q127 39 235 105q53 31 98.5 63.5t83.5 67.5q74 66 119 135q41 66 41 113z" />
<glyph unicode="f" horiz-adv-x="706" d="M1839 2284q0 -27 -16 -80q-16 -51 -49 -110.5t-84 -129.5t-112.5 -144.5t-133.5 -152.5l-152 -157.5l-170 -161.5l-179 -160l-185 -152l-246 -393q10 -2 31 -2h35q113 0 247 39q139 41 285 156l-78 -74q-145 -96 -287 -135q-147 -41 -278 -41l-264 -424l-141.5 -228.5 l-143.5 -234.5l-142.5 -237.5l-142.5 -239.5l-138 -233.5l-130 -225.5h-41l85 167l91 177l96.5 179l100.5 182l100 181l97 177l90 172l84 162q78 160 133 291q27 66 44 122t25 103q-4 4 -4 6l-2 2q-2 2 -18 16q-25 25 -25 48q0 16 12 26q14 10 29 10q27 0 45 -18 q18 -35 53 -68q37 -31 82 -39l149 234l142 221l137.5 210l135.5 200q66 98 133 188l135 178l137.5 170l140.5 160q70 76 127 109q53 33 95 32q65 1 65 -77zM1819 2286q0 53 -47 53q-33 0 -91 -35q-57 -35 -112 -96l-98.5 -113.5l-104.5 -128.5l-104.5 -136.5l-104.5 -141.5 l-101 -145l-100 -148l-92 -144.5l-86 -136.5l159 126l163 138q162 143 303 291q135 141 246 287q106 137 153 252q4 12 8.5 22.5t4.5 20.5q2 10 3 18.5t1 16.5zM401 602l-90 41q-25 -74 -50 -140.5t-52 -125.5l-54.5 -116.5l-58.5 -117.5l-64.5 -117.5l-68.5 -125.5 l-75 -138.5l-85 -158.5l72 121l59 100l50.5 83l44.5 73l73 122l74 123l44 74l50 84l59.5 99z" />
<glyph unicode="g" horiz-adv-x="972" d="M1270 610l-101.5 -101l-113.5 -110l-120 -112.5l-124 -112.5l-124.5 -108.5l-125.5 -104.5q-127 -102 -233 -178l-102.5 -156l-112.5 -166l-120 -169l-124 -169l-127 -161.5l-129 -153.5q-66 -74 -129.5 -136.5t-126.5 -113.5q-109 -86 -176 -86q-41 0 -64 29t-22 76 q0 33 12 80q10 41 41 94q78 133 209 272q129 135 276 264l147 124l150 118l143.5 109.5l131.5 99.5l381 586q-18 -23 -39 -45.5l-43 -45.5q-43 -45 -94 -88q-27 -23 -53.5 -42t-55.5 -37q-51 -31 -117 -58q-31 -12 -59 -12q-57 0 -90 39q-35 41 -35 100q0 18 3 40t13 46 q41 121 121 242q39 57 81 110.5t89 104.5q92 100 197 184q98 80 201 142q70 41 124 40q84 0 84 -98q0 -61 -32 -139l159 237h82l-729 -1171l120.5 92t123.5 101l118.5 104l116.5 104l111.5 103.5l106.5 97.5l96 90l84 82v-37zM883 940q0 37 -17 59q-14 20 -47 21 q-20 0 -43 -8q-25 -6 -55 -25q-45 -27 -91 -65.5t-93 -90.5q-47 -51 -92.5 -106l-90.5 -115q-88 -121 -157 -231q-72 -115 -111 -191q-27 -51 -27 -98q0 -29 17 -51q14 -20 47 -21q31 0 61 15q92 37 158 92q63 51 125 113q41 41 79 84t72 88q35 43 65 86t56 86 q27 41 48.5 82t39.5 81q33 74 50 144q6 26 6 51zM152 -344l-131 -100.5l-140 -110.5l-142.5 -116.5l-139.5 -121.5q-70 -59 -132.5 -120.5l-119.5 -120.5q-115 -121 -178 -228q-31 -49 -41 -86l-7.5 -36.5t-3.5 -32.5q0 -80 68 -80q29 0 70 18q20 8 41.5 22.5t44.5 35.5 q117 98 229 233l106.5 136.5l104.5 142.5l99 145.5l95 147.5l91.5 140.5z" />
<glyph unicode="h" horiz-adv-x="870" d="M1196 2019l-868 -1401q111 123 217 218q111 98 217 172q51 37 94 36q29 0 47 -12q16 -8 27 -24q12 -31 12 -62q0 -39 -14 -80q-8 -23 -17.5 -46t-25.5 -50l-47.5 -74l-51.5 -75l-51 -76t-51 -74l-48.5 -74l-45.5 -73q-23 -35 -43.5 -70t-38.5 -70q-35 -66 -35 -108 q0 -53 45 -53q29 0 88 38q84 59 159 124t140 137l246 276v-25q-53 -70 -112.5 -138l-123.5 -136q-127 -133 -292 -250q-70 -47 -117 -47q-43 0 -64 33q-20 33 -20 82q0 37 16 92q16 49 58 117q41 66 100 151l57.5 83l59.5 85l56.5 83t49.5 79q33 51 49 94q16 49 17 94 q-8 27 -33 27q-14 0 -29 -6q-12 -2 -41 -21q-16 -10 -37.5 -26.5l-48.5 -36.5t-53.5 -43l-54.5 -49l-56.5 -50.5l-56.5 -54.5l-104 -104l-44.5 -46.5t-37.5 -41.5l-28.5 -34.5t-18.5 -25.5l-299 -483h-78l1249 2019h82z" />
<glyph unicode="i" horiz-adv-x="563" d="M942 1479q0 -31 -20 -54q-23 -25 -58 -24q-37 0 -59 20q-23 23 -23 62q0 29 25 51q23 23 57 22q29 0 56 -22q22 -22 22 -55zM877 655l-33 -69l-64.5 -70l-66.5 -72l-70 -73.5l-74 -73.5q-74 -74 -161 -143q-86 -72 -191 -129q-55 -25 -94 -25q-37 0 -57 18t-37 48 q-8 27 -9 59q0 39 17 82q8 20 19.5 40.5l25.5 43.5l491 753h82l-483 -761q-37 -59 -68 -117q-31 -55 -30 -84q0 -33 16 -45q16 -10 37 -10q23 0 47 6q23 6 39 16q100 57 199 135l92 80l86 82l80 82l75 82q35 41 69 76.5z" />
<glyph unicode="j" horiz-adv-x="409" d="M885 1483q0 -31 -21 -53q-23 -25 -57 -25q-37 0 -59 20q-23 23 -23 62q0 29 25 51q23 23 57 23q29 0 55 -23q23 -22 23 -55zM745 610l-86 -78.5l-79 -72.5l-76 -70l-72 -67l-141 -129l-70 -64l-71 -63l-76 -65l-80 -64l-84 -68l-90 -70l-61.5 -95l-51.5 -79l-44 -69.5 t-44 -67.5q-20 -33 -42.5 -66.5l-45.5 -68.5l-52.5 -79l-64.5 -97q-123 -186 -256 -355q-133 -164 -305 -280q-74 -49 -125 -49t-71 37q-23 39 -23 86q0 23 6 45q4 25 12 45q55 152 174 290q59 72 125 139.5t138 133.5t148.5 127l154.5 121l152.5 115.5l144.5 109.5 l823 1290h82l-81 -126.5l-89 -143.5l-95 -151.5l-98 -153.5l-97 -154l-95 -151l-88 -140.5l-78 -126.5l240 191q53 43 103 88l99 90l99.5 90l103.5 92l107.5 98.5l119.5 108.5v-33zM-365 -348l-143.5 -112.5l-142.5 -108.5q-145 -104 -273 -217q-131 -113 -233 -236 q-106 -127 -166 -281q-10 -25 -14 -53q-2 -10 -3 -21.5t-1 -21.5q0 -84 67 -84q18 0 55 10q16 4 33 14.5t35 24.5q131 102 242 228q106 125 194 262l89 141.5t85 147.5l85 152.5z" />
<glyph unicode="k" horiz-adv-x="843" d="M1217 2019l-820 -1298l95.5 91l91.5 85q90 80 186 123q55 27 113 27q45 0 78 -23q31 -23 30 -68q0 -51 -45 -120q-57 -90 -147 -162q-84 -70 -209 -88q31 -16 45 -41q16 -27 16 -58q0 -20 -6 -45q-4 -10 -8 -22t-14 -27l-148 -225q-47 -72 -47 -109q0 -25 14 -32 q16 -10 37 -11q37 0 66 17q94 41 180 117q45 37 88 78.5t84 86.5l78 89.5l72 89.5l61.5 81.5t46.5 67.5v-33q-55 -80 -129 -172q-35 -45 -73 -89t-79 -85q-80 -84 -163 -151q-41 -33 -80 -56.5t-78 -40.5l-20.5 -8t-20.5 -4q-10 -4 -18.5 -4h-16.5q-55 0 -80 37 q-25 33 -24 80q0 27 7 47t17 37l160 237l15.5 23.5t11.5 23.5q4 10 6 20.5t2 20.5q0 16 -10 31q-10 12 -31 12q-2 0 -23 -4l-49 -12l-24.5 -4l-24.5 -4l-4 20q72 14 137 37q31 10 59.5 23.5t55.5 29.5q57 33 102 82q45 47 92 127q10 16 17.5 32.5t11.5 33.5q8 25 8 51 q0 45 -47 45q-27 0 -88 -22q-35 -14 -80 -46q-23 -16 -50.5 -37.5t-55.5 -48.5l-58.5 -52l-60.5 -58l-61.5 -59.5t-59.5 -63.5l-98 -160l-100 -160l-203 -319h-82l1270 2019h82z" />
<glyph unicode="l" horiz-adv-x="563" d="M1274 2028l-1102 -1745q-37 -59 -68 -117q-31 -55 -30 -84q0 -29 18 -41q20 -10 43 -10q16 0 39 6q20 4 35 12q53 29 100 61.5t92 67.5q43 35 84 73l82 79l79 82l77 82l75 80.5l79 80.5l-33 -69l-70 -71l-69 -73q-68 -74 -142 -147q-37 -37 -77 -73l-80 -70 q-84 -70 -189 -127q-43 -25 -82 -25t-65 18q-23 16 -41 48q-8 25 -9 55q0 41 19 82q10 18 20.5 39.5t26.5 44.5l1106 1741h82z" />
<glyph unicode="m" horiz-adv-x="1433" d="M1753 664q-51 -61 -108 -140q-29 -39 -63 -80l-71 -82l-77.5 -83.5t-87.5 -85.5q-86 -80 -203 -156q-55 -37 -101 -37q-43 0 -69 31q-27 27 -27 88q6 41 29 90q10 23 23.5 47.5t29.5 50.5l48.5 75t58.5 85l61.5 90l60.5 90l58.5 87l52.5 83q23 41 38 73t19 56l3.5 17.5 t1.5 11.5q0 27 -15 41q-12 12 -35 12q-39 0 -94 -37q-31 -18 -78 -59l-49 -44l-55 -52l-58.5 -56.5l-62.5 -62.5l-61.5 -68l-61.5 -69l-57.5 -71l-57.5 -71q-27 -35 -50 -68.5l-44 -66.5l-188 -303h-82q23 41 50.5 85l55.5 91l60 95l61 98l61.5 96l59.5 96l105 178 q45 80 73 152q27 61 27 104q0 35 -41 35q-39 0 -98 -39q-43 -29 -99 -73q-29 -23 -57.5 -50.5l-58.5 -56.5l-62 -60.5l-63 -66.5l-60.5 -67.5l-58.5 -67.5l-55.5 -64.5t-49.5 -62.5q-47 -61 -79 -111l-205 -311h-82l655 1044h82l-291 -475l56.5 65t54.5 60l52.5 56.5 t53.5 54.5l57.5 52.5t61.5 51.5q63 53 139 103q25 16 56 26q14 4 27.5 6.5t25.5 2.5q53 0 72 -31q12 -25 12 -55q0 -74 -55 -181q-55 -104 -129 -227l127 139.5t120 126.5t115.5 106.5t112.5 82.5q33 20 65 30q27 6 54 6q43 0 69 -22q25 -23 25 -51q0 -16 -3 -38l-7 -50 q-8 -51 -52 -117l-86 -129.5l-84 -126.5l-166 -252q-16 -23 -27 -42t-22 -34q-18 -31 -28 -59q-10 -31 -11 -43q0 -27 19 -39q16 -10 39 -10q37 0 71 22q51 35 96.5 70t86.5 72q41 35 79.5 72.5t75.5 78.5q72 78 144 168l70.5 91l74.5 95v-36z" />
<glyph unicode="n" horiz-adv-x="901" d="M1229 664l-52.5 -64l-56.5 -74q-57 -76 -133 -164l-78 -83.5t-88 -83.5q-92 -86 -203 -158q-27 -18 -53 -27q-27 -10 -47 -10q-43 0 -69 31q-27 27 -27 88q6 39 29 88l21 47.5t28 52.5q20 39 45.5 79t54.5 81l59.5 83l61.5 83l56.5 82l53.5 82q47 78 70 149q6 18 6 35 q0 47 -49 47q-23 0 -45 -8q-12 -4 -24.5 -11.5t-26.5 -17.5q-23 -16 -53.5 -42.5t-71.5 -65.5l-81 -80l-87 -90q-90 -96 -178 -203q-86 -104 -152 -207l-192 -303h-82l655 1044h82l-254 -393l99.5 101.5l95.5 95.5q92 88 202 160q33 20 66 30q27 6 53 6q43 0 70 -22 q25 -23 24 -51q0 -16 -3 -38l-7 -50q-8 -51 -51 -117l-86 -129.5l-86 -126.5l-84 -125.5l-84 -126.5q-31 -45 -47 -76q-8 -14 -14.5 -28.5t-12.5 -30.5q-8 -18 -8 -43q0 -27 17 -39q16 -10 38 -10q37 0 72 22q51 35 96 70t86 72q41 35 80 72.5t76 78.5q72 78 143 168l71 91 l75 95v-36z" />
<glyph unicode="o" horiz-adv-x="819" d="M1257 811q-98 -117 -202 -174q-106 -59 -256 -59q-66 -102 -131 -187q-33 -43 -68 -83t-70 -75q-70 -70 -149 -124q-78 -55 -168 -97q-35 -16 -76 -16q-53 0 -94 35t-41 112q0 29 10 80q4 23 13.5 46.5l19.5 49.5q33 80 90 166q49 80 121 160q68 78 145 152 q76 72 156 137q70 57 135 86q68 29 113 29q51 0 82 -37q29 -37 26 -123q0 -29 -8 -60q-4 -16 -9 -33.5t-13 -37.5q-14 -41 -31 -78q-16 -41 -37 -74q129 0 238 62q53 29 104 74.5t100 105.5v-37zM885 889q0 74 -19 104q-18 29 -53 29q-37 0 -98 -29q-29 -14 -61.5 -37.5 t-67.5 -54.5l-70 -64.5t-70 -72.5l-64.5 -79l-62.5 -81l-57.5 -83t-54.5 -87q-27 -43 -50.5 -86l-45.5 -86q-25 -53 -37 -92q-10 -45 -11 -72q0 -84 72 -84q27 0 66 15q70 27 145 82q74 55 148 129t141 159q35 43 64.5 86t56.5 88q27 43 49 85t39 83q35 87 41 148z" />
<glyph unicode="p" horiz-adv-x="931" d="M1221 598l-29.5 -39.5l-40.5 -52.5l-49.5 -59.5l-54.5 -65.5q-59 -66 -127 -133q-61 -63 -134 -123l-66.5 -49.5t-64.5 -38.5q-63 -35 -110 -35q-43 0 -74 31q-10 10 -20 41q-8 25 -9 65q0 39 9 72q8 31 28 68l336 557q16 29 27 63q8 31 8 62q0 59 -37 59q-18 0 -39 -12 q-57 -37 -139 -109q-41 -35 -82 -76l-82 -86l-81 -93l-81 -99l-73.5 -100.5t-63.5 -96.5l-897 -1462h-82l1544 2564h82l-438 -766l52.5 58.5l47.5 52.5l44.5 47l43.5 43l43.5 39.5t42.5 36.5l45.5 31.5t49.5 31.5q33 20 69 20q47 0 76 -34q29 -35 29 -88q0 -33 -9 -60 q-4 -14 -10 -28.5t-16 -30.5l-328 -557l-26.5 -47.5t-22.5 -42.5q-18 -41 -18 -70q0 -16 6 -29q18 -33 55 -32q39 0 96 32q59 37 121 86q63 51 131 119l127 133q57 63 111 129q25 31 44 57.5l36 49.5v-33z" />
<glyph unicode="q" horiz-adv-x="880" d="M1225 774q-61 -72 -117 -110q-53 -39 -109 -62q-51 -18 -106 -24q-27 -2 -54.5 -3.5t-56.5 -1.5l-1024 -1683h-82l885 1462q-68 -86 -158 -170q-92 -86 -223 -162q-47 -20 -80 -20q-18 0 -32 6q-10 2 -23 14q-20 16 -29 50q-8 27 -8 71v24.5t4 27.5q0 14 4 26l9 27 q20 59 57 129l42.5 72.5t49.5 76.5l56.5 78l62.5 80q31 39 63.5 76t67.5 71q35 35 69.5 64t69.5 55q70 51 133 76l24.5 8l24.5 8q10 2 22.5 3t23.5 1q59 0 77 -28q2 -6 4 -13.5t7 -17.5q4 -8 5 -18.5t3 -20.5q0 -25 -6 -57l94 155h82l-258 -438q106 0 223 47q113 45 203 170 v-49zM862 928q0 43 -18 71q-10 23 -60 23q-41 0 -84 -23q-86 -45 -184 -149q-47 -51 -91 -106.5t-85 -114.5t-77 -117.5t-68 -116.5q-33 -57 -56.5 -102l-40.5 -80q-8 -16 -15 -34.5t-11 -35.5q-10 -37 -11 -63q0 -25 9 -39q8 -18 41 -18q31 0 57 14q145 82 240 176 q47 45 87 95t74 106l262 409q10 14 15.5 27.5t9.5 28.5q6 26 6 49z" />
<glyph unicode="r" horiz-adv-x="573" d="M1143 995q-92 -106 -189 -161q-90 -51 -163 -52q-55 0 -91 35q-33 33 -32 109l-46 -44l-55 -53l-59.5 -58.5l-63.5 -61.5q-66 -66 -122 -136l-54.5 -68.5t-46.5 -66.5l-274 -438h-82l639 1044h82l-254 -409l97 98l101 105q49 53 99.5 100l99.5 90q20 16 39 16 q14 0 14 -10t-16 -26q-41 -41 -53 -82q0 -51 20 -74q23 -27 37 -29q10 -2 18.5 -3t12.5 -1q43 0 90 21q23 10 47.5 23.5t46.5 29.5q45 31 90 72q43 43 68 75v-45z" />
<glyph unicode="s" horiz-adv-x="610" d="M952 651v2q-45 -68 -100 -106q-51 -39 -115 -62q-55 -20 -129 -26q-68 -6 -141 -6q-57 -137 -143 -236q-88 -100 -230 -174q-41 -20 -92 -35q-49 -14 -108 -14q-61 0 -113 24q-47 25 -64 91q0 61 27 90q25 31 53 30q27 0 43 -30q4 -16 4 -17q0 -23 -28 -39 q-27 -14 -70 -14q0 -59 45 -84q45 -23 103 -22q49 0 98 14q51 12 86 39q63 47 113.5 91t84.5 89q70 88 105 184q-35 4 -35 21q0 23 51 28l21.5 60l21.5 59l19.5 57.5t19.5 55.5q8 27 16.5 51.5l16.5 46.5l14 39t15 29q-10 -14 -24.5 -32.5l-33.5 -41.5q-16 -23 -34.5 -46.5 l-38.5 -47.5l-38 -45.5l-34 -42.5l-27.5 -33.5t-17.5 -22.5l-17 15l99.5 129l101.5 129l99.5 123.5l99.5 120.5l-4 -41l-29 -37q-45 -74 -68 -140l-20 -68.5t-18 -68.5t-14.5 -66.5t-12.5 -64.5q-10 -66 -31 -117q35 0 68 2.5t65 6.5q70 10 127 32q57 20 119 66 q57 45 105 113z" />
<glyph unicode="t" horiz-adv-x="563" d="M1151 1188h-426l-582 -938q-29 -47 -43 -78q-12 -27 -18 -57q0 -53 14 -70q14 -18 41 -18q29 0 70 18q39 14 84 53l88 73l84 71l79 69.5l76 69.5q74 70 144 143q66 72 131 156l12 -12q-147 -178 -305 -320l-148.5 -134l-144.5 -124q-57 -47 -106 -70q-43 -20 -86 -20 q-47 0 -76 23t-31 47q-2 6 -2 18q-2 6 -2 18q0 51 25 111q12 29 27.5 57.5t33.5 57.5l541 856h-393v20h405l160 258h82l-148 -258h414v-20z" />
<glyph unicode="u" horiz-adv-x="942" d="M1217 590q-41 -51 -101 -119l-62.5 -70.5l-66.5 -72.5l-66.5 -72l-64.5 -70l-60.5 -62.5l-50.5 -49.5q-25 -25 -75 -51q-53 -25 -99 -25q-31 0 -51 14q-25 14 -33 45q-6 18 -6 43q0 41 23 103q10 29 24.5 59.5l32.5 65.5q-23 -25 -53.5 -53.5l-65.5 -63.5l-68.5 -62.5 l-66.5 -58.5q-57 -47 -106 -70q-43 -20 -86 -20q-47 0 -76 23t-31 47q-2 6 -2 18q-2 6 -2 18q0 51 25 111q12 29 27.5 57.5t33.5 57.5l459 700h82l-488 -749q-16 -25 -28.5 -47.5t-20.5 -42.5q-14 -39 -24 -78q0 -51 14 -68q16 -16 43 -16q70 0 164 75q104 86 198 181 q92 90 162 196l357 549h82l-459 -729l-19.5 -32.5l-19.5 -32.5t-19.5 -33t-17.5 -33q-16 -35 -25 -61q-10 -31 -10 -50q6 -45 60 -45q37 0 79 21q45 20 78 53l53.5 54.5l61.5 64.5l129 141l64.5 73l62.5 71l104 116z" />
<glyph unicode="v" horiz-adv-x="778" d="M1266 782q-18 -4 -40 -10t-48 -14q-55 -16 -105 -17q-39 0 -82 17q-37 14 -73 57q-6 -16 -13.5 -30.5t-15.5 -26.5l-57.5 -92.5t-61.5 -94.5l-64.5 -94t-70.5 -94q-35 -45 -74 -87l-80 -83t-84 -76t-90 -63q-47 -33 -94 -51q-43 -18 -78 -19q-63 0 -90 49q-20 33 -20 82 t24 127q25 76 94 180l394 607h77l-385 -607q-29 -45 -53 -91l-47 -93q-43 -96 -43 -164q2 -31 20 -49q14 -12 39 -12q33 0 82 22q23 10 39.5 21.5t32.5 21.5q80 53 166 140q78 82 156 174l71.5 93l67.5 93l59.5 90l52.5 82q14 20 19 39q4 20 4 33q0 20 -2 30q-2 6 -2 13.5 t-2 15.5v57q2 14 4 26.5t8 23.5q18 37 43 36q27 0 31 -36q0 -61 -17 -105q-16 -43 -32 -67q37 -43 73 -58q43 -16 80 -16q53 0 103 18q25 8 46 15.5t38 11.5v-25z" />
<glyph unicode="w" horiz-adv-x="1269" d="M1749 782q-111 -41 -186 -41q-59 0 -99 21q-39 18 -63 49q-16 -37 -55 -96q-18 -31 -40 -65t-49 -70q-49 -74 -110 -154t-129 -154l-65.5 -68.5t-67.5 -62.5q-70 -59 -131 -92q-10 -8 -25.5 -16l-34.5 -17q-35 -14 -76 -14q-29 0 -53 12q-27 12 -41 43q-4 10 -6 21.5 t-4 21.5t-3 21.5t-1 23.5q0 37 12 84q4 23 14.5 47.5t24.5 51.5q-23 -25 -53.5 -53.5l-65.5 -63.5l-68.5 -62.5l-66.5 -58.5q-57 -47 -106 -70q-43 -20 -86 -20q-47 0 -76 23t-31 47q-2 6 -2 18q-2 6 -2 18q0 51 25 111q12 29 27.5 57.5t33.5 57.5l459 700h82l-488 -749 q-16 -25 -28.5 -47.5t-20.5 -42.5q-14 -39 -24 -78q0 -51 14 -68q16 -16 43 -16q70 0 164 75q104 86 198 181q92 90 162 196l357 549h86l-463 -729q-43 -66 -51 -121l-7.5 -54.5t-3.5 -45.5q4 -29 23 -41q16 -10 39 -10q27 0 55 12q27 8 51 27q29 16 59.5 37.5t63.5 50.5 q33 27 63.5 56.5l63.5 64.5q33 33 63.5 67.5l61.5 71.5l56.5 73.5l54.5 71.5t48 68l42 63q43 66 59 105q10 20 10 45q0 27 -6 57q-2 14 -3 31.5t-1 38.5q10 35 21 49q8 12 22 12q16 0 31 -20q12 -23 12 -45q0 -37 -14 -68l-15.5 -31.5l-15.5 -31.5q33 -43 70 -58 q35 -14 80 -14q43 0 90 12q49 12 96 31v-25z" />
<glyph unicode="x" horiz-adv-x="1157" d="M1466 659l-79.5 -95l-73.5 -91l-69 -84l-66 -80q-33 -39 -66 -73.5t-68 -67.5t-70.5 -62.5t-76.5 -56.5q-8 -4 -22.5 -10t-34.5 -16q-43 -16 -88 -17q-25 0 -60 10q-29 10 -53 37q-14 14 -25 41q-8 23 -8 66v26q2 8 2 15.5t2 15.5q-66 -68 -151 -121q-80 -49 -176 -76 q-47 -12 -97 -12h-24t-27 4q-12 0 -24.5 4t-24.5 9q-29 12 -43 34q-12 20 -12 52q0 20 10 45t29 37q12 8 22 12q6 2 21 2q23 0 30 -14q10 -14 11 -29q0 -14 -11 -29q-10 -12 -28 -12l-21 4q-20 0 -31 -10q-8 -8 -8 -21q0 -16 11 -33q10 -16 24 -22q33 -12 74 -12 q14 0 26.5 1t26.5 3t26.5 4t26.5 4q35 6 78 29q20 10 41 24.5l43 30.5q41 29 84 76q41 45 78 90l83 110.5l79 110.5t72.5 114.5l68.5 123.5l20.5 40.5t18.5 43.5q8 20 15 40.5t12 43.5q6 25 6 43q0 35 -19 53q-18 18 -49 18q-39 0 -92 -28q-53 -29 -117 -86q-35 -33 -67 -82 q-16 -27 -34 -51.5l-36 -51.5q-37 -49 -80 -86q-41 -35 -92 -35q-23 0 -43 6q-16 10 -27 33q-8 18 -8 45q0 33 19 68q14 29 49 39q29 -4 39 -17q10 -14 10 -30q0 -27 -19 -60q-14 -29 -38 -53q57 0 98 35t76 82l33.5 47t33.5 49q37 53 70 78q35 37 67.5 60.5t61.5 37.5 q63 27 98 27q43 0 70 -21q27 -25 35 -47q2 -10 4 -21.5t6 -23.5q2 -10 3 -22.5t3 -22.5v-20q-2 -4 -2 -10.5t-2 -10.5q61 55 123 105q55 43 119 63l27.5 8t23.5 4q10 2 20 3t21 1q33 0 55 -16q45 -31 45 -86q0 -59 -45 -98q-27 -23 -45 -23q-29 0 -29 31q0 20 21 45 q20 20 33 23q8 2 15 4t17 6q0 55 -22 78q-23 18 -51 18q-18 0 -39 -6q-20 -2 -39 -12q-76 -33 -162 -127q-78 -86 -166 -226l-63.5 -102l-63.5 -102t-61.5 -105.5l-57.5 -112.5q-33 -68 -32 -116q0 -12 4 -29q2 -4 4 -9t4 -9q12 -20 35 -31q18 -8 47 -8q35 0 69 12 q35 10 58 23q39 29 73.5 58.5t67.5 61.5q33 33 63.5 67l63.5 71l63.5 76.5l67.5 82.5l154 185z" />
<glyph unicode="y" horiz-adv-x="942" d="M1217 590l-41 -46t-68 -71l-89 -90l-104 -104l-113.5 -114l-121.5 -120l-121.5 -117.5l-116.5 -111.5l-104 -102.5l-92 -90.5l-70 -68.5t-45 -41.5q-160 -252 -342 -476l-183 -224l-184 -226q-20 -35 -61 -76q-39 -39 -82 -67q-41 -29 -88 -52q-47 -18 -78 -18 q-27 0 -47 16q-18 14 -18 58q0 27 6 63q6 31 28 80q94 188 222 334q63 72 127.5 134t132.5 118l131 102t131 90l119.5 79t103.5 73l508 807l-117 -117l-133 -121q-57 -47 -106 -70q-43 -20 -86 -20q-47 0 -76 23t-31 47q-2 6 -2 18q-2 6 -2 18q0 51 25 111q12 29 27.5 57.5 t33.5 57.5l455 700h86l-488 -749q-16 -25 -28.5 -47.5t-20.5 -42.5q-14 -39 -24 -78q0 -51 14 -68q16 -16 43 -16q70 0 164 75q53 43 103 88.5l98 92.5q47 47 85.5 95t73.5 101l353 549h86l-922 -1450l45 43l70 68l88 86l100 98l109.5 105.5l115.5 113.5l114.5 111.5 l109.5 107.5l98 96.5l86 86.5l67.5 68.5t40.5 43.5zM12 -528l-133 -92.5l-129 -92.5q-63 -45 -122.5 -93t-116.5 -99q-111 -98 -216 -225q-102 -125 -184 -279q-10 -23 -19.5 -42t-13.5 -36q-8 -31 -8 -55q0 -59 53 -60q47 0 125 54q39 27 75 62.5t71 80.5l168 221.5 t151 218.5l146.5 218.5z" />
<glyph unicode="z" horiz-adv-x="849" d="M1167 606l-77.5 -72.5l-96.5 -87.5l-107.5 -98l-119.5 -106l-126 -111.5l-134 -116.5l-138.5 -114.5l-138.5 -108.5q-45 -63 -88 -132l-86 -144q-41 -76 -88 -153t-100 -155l-111.5 -157.5l-124.5 -161.5t-143.5 -159t-167.5 -154q-59 -49 -100 -66q-49 -16 -80 -16 q-45 0 -66 30q-23 29 -22 82q0 16 2 36t6 40q8 39 31 86q84 168 204 301q59 68 125 130.5t136 121.5l139 110.5l141 104.5l139.5 100.5l130.5 98.5l164 262q10 14 17.5 27.5t15.5 23.5t14.5 22.5t12.5 22.5q4 10 10 20.5t10 20.5t9.5 21.5t9.5 25.5q0 33 -7 43q-2 8 -16 8 t-39 -10q-18 -8 -45 -24q-29 -18 -56.5 -40t-49.5 -48l-47.5 -54.5l-51.5 -58.5h-32l593 807q-35 -6 -69 -6q-23 0 -43 6q-23 6 -31 24q-18 -29 -36.5 -55.5l-37.5 -52.5q-18 -27 -39.5 -53.5l-46.5 -55.5h-12q2 2 -16 4q51 57 86 117q29 53 78 121q-6 18 -7 35q0 39 25 67 q23 29 47 29q12 -6 12 -22q0 -25 -20 -58q-18 -35 -33 -43q33 -37 96 -37h29q10 0 31 4q57 94 123 154q63 57 123 80q14 8 32 8q23 0 23 -18q0 -12 -23 -47t-51.5 -64t-60.5 -53q-68 -51 -154 -84l-67.5 -94l-61.5 -86l-56.5 -80l-54.5 -76t-51 -74t-51 -71 q-27 -35 -53.5 -73l-54.5 -77l61 37l34.5 19.5t33.5 15.5q27 12 51 12q61 0 61 -68q0 -23 -6 -49q-2 -25 -22 -57l-107 -184l222.5 176l217.5 188l215.5 194.5l212.5 194.5v-45zM901 1038q0 6 -6 6q-4 0 -23 -8q-59 -29 -114 -86q-59 -61 -90 -110q160 84 221 176 q12 18 12 22zM45 -356l-123.5 -95.5l-130.5 -95.5t-129 -99l-127 -106q-127 -109 -233 -227q-109 -121 -183 -262l-19 -42.5t-13 -39.5q-8 -35 -9 -68q0 -90 74 -90q27 0 68 19q20 8 40.5 22.5t43.5 34.5q78 72 144.5 142.5t119.5 136.5l100 130t88 130q41 63 77 125.5 t69 126.5l68.5 127.5z" />
<glyph unicode="{" horiz-adv-x="2048" d="M1409 2458q0 -31 -2 -64t-6 -67q-10 -72 -25 -148q-12 -68 -39 -145l-29.5 -83t-35.5 -87q-39 -88 -88 -176q-45 -84 -103 -164q18 -27 39 -53.5l43 -53.5q43 -53 103 -90l-61.5 -55.5t-53.5 -54.5l-47.5 -61t-46.5 -66l33.5 -50.5t35.5 -60.5l37 -66.5t37 -72.5 l35.5 -79l34.5 -81q16 -41 29.5 -84t23.5 -88q4 -23 10 -51.5t10 -63.5t6.5 -70.5t2.5 -74.5q0 -33 -2 -64.5t-7 -66.5q-4 -33 -11 -66t-17 -67q-10 -33 -23.5 -65t-29.5 -64q-35 -63 -82 -117q-49 -51 -121 -92q-76 -41 -166 -41q-76 0 -162 41q-84 39 -166 141 q-66 98 -98 227q-35 129 -35 283q0 49 3 101.5t11 105.5q14 102 50 225q16 53 36.5 107.5t47.5 113.5q53 117 116 201l-33.5 39.5t-37.5 48.5q-20 25 -40 44.5l-36 35.5q-66 -53 -146 -82q-78 -25 -143 -25q-37 0 -70 7q-29 6 -55 22q-31 20 -55 57q-20 33 -21 72 q0 35 19 70q16 29 61 55q12 6 24.5 11t26.5 7q12 2 24.5 3.5t27.5 1.5q82 0 159 -48q39 -23 73 -48t63 -54q23 23 43 45.5t43 44.5l40.5 46.5l41.5 47.5q-59 88 -117 201q-57 113 -96 246q-31 100 -31 246q0 88 18 178q18 92 70 166q45 68 104 94q63 29 121 29 q8 29 19.5 56.5t27.5 51.5q33 49 72 82q41 35 90 53t100 19q63 0 129 -35q61 -33 107 -113q23 -43 41 -87t29 -89q20 -83 20 -192zM1382 2445q0 98 -20 187q-18 88 -59 178q-35 72 -97 108q-59 37 -129 37q-88 0 -164 -61q-76 -57 -110 -187q98 -16 158 -127 q57 -115 57 -284q0 -113 -27 -234q-12 -63 -31.5 -127.5t-46.5 -132.5q25 -49 62 -110q16 -31 32.5 -59.5l32.5 -55.5q49 61 97 133l45 75l45 79l38.5 81t34.5 80q16 41 28.5 79t23.5 75q30 125 30 266zM985 2308q0 29 -2 57.5t-6 57.5q-6 55 -19 100q-4 8 -8 17.5t-8 21.5 q-4 10 -10 22.5t-17 24.5q-14 23 -45 47q-27 20 -75 31l-8.5 -59.5t-8.5 -61.5q-2 -31 -3 -61.5t-1 -61.5q0 -172 33 -323q33 -158 86 -265q23 53 41 109.5t29 116.5q10 59 16 115.5t6 111.5zM868 1815q-59 115 -98 268q-39 150 -39 319q0 37 3 74t7 74q4 35 11.5 70.5 t17.5 70.5q-43 0 -96 -20q-55 -23 -101 -86q-43 -61 -63 -144q-18 -78 -18 -157q0 -80 12 -154q4 -37 9 -68.5t11 -58.5q8 -37 31 -94l20.5 -57.5t24.5 -57.5l28.5 -58.5t30.5 -58.5t33 -55.5t33 -48.5q45 57 78 115l32.5 60.5t32.5 66.5zM1020 1552q-14 25 -30.5 49.5 l-33.5 51.5q-35 49 -55 104q-29 -63 -67 -121q-18 -29 -38 -57.5t-42 -54.5l114 -156zM1212 1323q-43 39 -77 86q-16 23 -35 45.5t-35 44.5l-147 -201q33 -47 59 -90l59 -90q18 27 38 53.5l42 53.5q41 49 96 98zM848 1339l-111 160q-37 -47 -80 -86l-40.5 -36.5l-43.5 -37.5 l37 -38.5t37 -43.5l34.5 -44t31.5 -42q16 23 33.5 43.5l33.5 40.5l34 40.5t34 43.5zM1020 1094q-33 47 -59 90q-27 43 -60 90l-67 -92l-32 -44.5l-32 -43.5l29.5 -46.5t31.5 -50.5q31 -49 62 -108q23 45 61 106q16 29 33 54t33 45zM516 1348q-61 59 -137 106q-72 45 -146 45 q-47 0 -86 -20q-29 -16 -45 -45t-16 -58q0 -31 14 -57q16 -31 43 -49q43 -31 111 -31q63 0 137 29t125 80zM1006 242q0 84 -13 174q-12 86 -30 168q-16 80 -37 139q-20 66 -33 92q-66 -133 -92 -258q-25 -127 -25 -235q0 -55 6 -105q4 -51 13 -90q12 -61 43 -96 q27 -33 63 -33q35 0 64 37q25 31 34 108q7 46 7 99zM1319 242q0 39 -3 73.5t-7 67.5t-8.5 61.5t-10.5 55.5q-16 76 -41.5 150.5t-58.5 146.5t-71 139.5t-79 128.5l-34.5 -52.5l-32.5 -49.5q-31 -47 -60 -107q12 -23 24.5 -50.5t27.5 -57.5q14 -31 26.5 -65l24.5 -69 q23 -72 37 -149q14 -72 14 -160q0 -47 -6 -96q-2 -25 -7 -49.5t-14 -48.5q-25 -72 -61 -107q-37 -31 -74 -31q-43 0 -84 41q-37 39 -55 109q-6 23 -11 48.5l-10 51.5q-4 27 -6 53.5t-2 55.5q0 127 37 262q33 131 103 262q-10 27 -24.5 53.5t-31.5 53.5q-16 27 -33.5 53 t-33.5 53l-56.5 -88t-50.5 -84t-43 -87t-39 -97q-41 -115 -61 -230q-10 -57 -15.5 -113.5t-5.5 -111.5q0 -131 29 -250q25 -109 82 -196q66 -96 147 -140q86 -41 162 -41q80 0 148 33q72 35 116 94q45 57 76 119q14 31 25.5 61.5t19.5 63.5q14 61 25 123q6 58 6 117z" />
<glyph unicode="|" horiz-adv-x="819" d="M426 123l-90 -123v1917l90 111v-1905z" />
<glyph unicode="}" horiz-adv-x="1366" d="M1769 1376q0 -35 -22 -69q-23 -35 -59 -58q-59 -37 -154 -37q-66 0 -133 21q-63 16 -131 65q-16 -14 -34.5 -32.5l-41.5 -40.5q-47 -47 -68 -86q61 -96 121 -207q29 -57 52.5 -110.5t39.5 -104.5q18 -57 29.5 -110.5t20.5 -104.5q12 -102 12 -197q0 -162 -39 -291 q-41 -131 -105 -231q-84 -98 -170 -139q-84 -39 -163 -39q-94 0 -172 41q-78 39 -117 92q-102 106 -143 242q-37 131 -37 258q0 39 3 74.5t7 70.5q8 61 22 113q20 88 56 172q16 41 33.5 80.5l35.5 78.5q37 76 76 140q39 63 70 106l-49.5 66.5t-49.5 60.5q-47 53 -114 115 q53 33 102 88q45 51 82 100q-55 76 -104 166q-25 43 -47.5 86t-42.5 88q-41 88 -68 168q-14 41 -22.5 76t-14.5 67l-12 75t-10 71q-6 63 -7 125q0 55 5.5 105t15.5 96q20 86 65 172q43 82 109 116q66 35 133 35q49 0 102 -18q47 -18 93 -54q43 -33 75 -81q29 -43 45 -105 q51 0 113 -27q63 -27 113 -100q53 -80 71 -166t19 -172q0 -35 -3 -68.5t-7 -66.5q-4 -31 -9.5 -58.5t-9.5 -54.5q-23 -68 -48.5 -129t-51.5 -114q-27 -53 -55.5 -102.5l-57.5 -96.5q39 -55 82 -98l86 -86q31 31 64 55q16 14 35.5 26.5t39.5 22.5q39 20 86 37q41 14 88 14 q55 0 105 -24q35 -23 51 -51q14 -33 14 -56zM1335 2261q0 80 -18 160q-18 78 -68 139q-16 35 -47 57q-25 18 -55 33q-14 4 -26.5 8t-24.5 4q-12 4 -22.5 4h-20.5q10 -33 17 -67.5t11 -69.5t6.5 -70.5t2.5 -70.5q0 -41 -3.5 -82t-7.5 -82t-11 -80t-17 -78q-18 -78 -45 -145 q-25 -68 -56 -123q16 -35 32.5 -66.5t33.5 -60.5q33 -57 78 -115q33 45 67 105l30.5 57.5l29.5 57.5q14 29 25 56.5l22 53.5q20 51 30 92q8 27 14.5 58.5t12.5 68.5q4 37 7 76t3 80zM1047 2419q0 63 -7 125q-2 55 -16 118q-45 -12 -78 -34q-14 -10 -25.5 -21.5t-21.5 -23.5 q-20 -27 -29 -48q-10 -23 -18 -36q-16 -47 -25 -99q-4 -27 -6 -55.5t-2 -56.5q0 -117 29 -244q27 -123 74 -209q57 111 90 264q35 158 35 320zM1016 2683q-35 127 -115 186q-82 59 -168 60q-68 0 -131 -37q-63 -33 -98 -107q-43 -86 -62 -178q-16 -94 -16 -184q0 -35 2 -69 t6 -68q10 -70 25 -132q14 -66 47 -147q14 -39 31.5 -78t37.5 -78t42 -76.5l47 -76.5q43 -74 102 -142q33 55 74 117l34.5 56.5l30.5 52.5q-29 70 -49 135t-35 129q-27 121 -26 233q0 172 59 281q58 107 162 123zM1749 1372q0 59 -61 90q-23 10 -43.5 14.5t-42.5 4.5 q-78 0 -154 -45q-78 -43 -141 -105q53 -47 120 -71q68 -23 132 -23q84 0 129 33q61 45 61 102zM1065 1503q-23 29 -43.5 57.5t-40.5 59.5q-39 57 -68 121q-10 -29 -25.5 -54.5l-31.5 -52.5q-35 -49 -61 -98l155 -184zM1257 1323l-47 33.5t-47 40.5l-43 43t-39 43l-110 -148 l139 -180q27 43 68 86l39.5 41zM897 1286l-147 197l-37 -45.5l-39 -44.5l-39 -44.5l-37 -41.5q29 -23 53.5 -46.5t46.5 -50.5q45 -55 84 -108l56 92q22 45 59 92zM1053 1081q-16 23 -35 44.5t-35 43.5q-16 23 -33.5 45.5l-36.5 47.5l-28.5 -45.5l-28.5 -45.5t-29.5 -45 l-31.5 -45l34.5 -44.5t34.5 -53.5l30.5 -55.5l27.5 -50.5l30.5 55l30.5 53q27 49 70 96zM1042 303q0 115 -26 240q-14 63 -37 128.5t-57 131.5q-8 -16 -15.5 -39t-17.5 -51q-18 -59 -37 -135l-15.5 -79t-13.5 -83q-4 -43 -7 -86t-3 -84q0 -59 6 -111q10 -74 37 -106 q29 -35 62 -35q35 0 65 31q29 33 41 90q4 20 7 42.5t7 45.5q2 23 3 48t1 52zM1339 250q0 55 -5 111.5t-15 113.5q-18 115 -62 225q-39 94 -86 181l-49 84t-57 88q-18 -23 -35.5 -48.5t-34.5 -54.5q-33 -55 -53 -102q68 -133 105 -266q37 -135 36 -260q0 -29 -2 -55.5 t-6 -53.5t-9 -51.5t-13 -46.5q-23 -68 -60 -105q-39 -39 -84 -39q-37 0 -73 31q-37 27 -62 100q-16 49 -22 95q-2 23 -3 47t-1 47q0 41 4 81t12 81q8 39 17.5 76.5t21.5 72.5q10 35 23.5 69l27.5 66q12 31 25.5 58.5l25.5 52.5q-29 59 -61 102l-33.5 48.5l-36.5 54.5 q-84 -123 -153 -271q-72 -147 -105 -295q-6 -25 -11 -53t-9 -61t-6.5 -68t-2.5 -72q0 -119 33 -241q31 -123 123 -238q49 -59 121 -90q70 -31 147 -31q84 0 168 43q82 39 150 136q55 78 84 192q12 57 19 118.5t7 127.5z" />
<glyph unicode="~" d="M1159 1208q-51 -49 -102 -67q-47 -18 -94 -19q-41 0 -74 8q-16 4 -34.5 9.5t-35.5 9.5l-33.5 8l-33.5 8q-35 6 -66 6q-29 0 -63 -10q-27 -8 -62 -39v4q59 59 109 80q47 20 96 21q37 0 68 -8q16 -4 31.5 -8.5t31.5 -8.5l31.5 -8l32.5 -8q33 -6 65 -6q33 0 64 8 q16 4 32.5 11t32.5 18z" />
<glyph unicode="&#xa1;" horiz-adv-x="921" d="M315 66l562 921h61l-500 -921h-123zM954 1245q0 31 21 53q20 25 57 25t60 -20q23 -23 22 -62q0 -31 -24 -51q-23 -23 -58 -23q-29 0 -55 23q-23 22 -23 55z" />
<glyph unicode="&#xa2;" horiz-adv-x="614" d="M946 614l-54.5 -57.5l-60.5 -60.5l-133 -127l-70.5 -64t-74.5 -61l-147 -117q-16 -10 -33 -22.5t-33 -22.5l-33.5 -20.5t-38.5 -20.5q-39 -18 -82 -31q-47 -10 -96 -10l-115 -168h-36l127 180q-23 10 -46 41q-20 31 -20 78v25q0 16 1 34.5t3 34.5q2 31 16 78q14 45 37 94 q20 49 62 119q41 74 119 170q39 47 80.5 92t89.5 86q88 80 198 140q106 57 213 57l99 143h28l-98 -147q23 -2 37 -27q12 -23 12 -47q0 -18 -6 -39q-6 -20 -19 -35q-10 -16 -22 -26.5t-23 -18.5q-23 -12 -36 -12q-31 0 -31 29q0 16 14 32q12 16 41 37q6 4 19 8q8 2 18 13 q8 8 8 24q0 10 -6 23q-4 12 -18 14l-725 -1003q8 -4 24 -4q18 0 55 10q16 4 34 11t36 17q16 8 34.5 18.5l37.5 20.5l32.5 20.5l32.5 20.5l72 53.5l74 59.5l145 127q70 63 139 133l63 64.5t56 62.5v-29zM803 1032q-70 0 -154 -59q-41 -29 -83 -64t-83 -75q-41 -41 -77.5 -84 l-71.5 -88l-62.5 -83l-50.5 -71q-66 -98 -106 -199q-20 -47 -34.5 -90t-23.5 -80q0 -51 9 -69q6 -20 20 -29z" />
<glyph unicode="&#xa3;" horiz-adv-x="3584" d="M4231 1946q0 -90 -33 -177q-29 -84 -90 -167q-90 -125 -217 -222q-129 -96 -282 -147q-31 -10 -63 -18.5t-64 -14.5q-33 -4 -66 -7t-65 -3q-27 0 -51.5 2t-49.5 6q-49 6 -92 27q-63 27 -104 102q-37 74 -37 162q0 82 41 168q39 80 133 137q-78 -66 -113 -141 q-31 -74 -31 -142q0 -45 13 -88q8 -37 28 -73q14 -31 39 -56t43 -32q78 -33 168 -33q80 0 148 20q35 10 64.5 19.5t53.5 21.5q129 59 252 158q121 92 195 194q31 43 56.5 86.5t41.5 86.5q35 88 35 172q0 63 -22 124q-23 63 -70 113q-49 53 -137 80q-86 25 -193 25 q-115 0 -233 -27q-123 -29 -240 -86q-106 -53 -199.5 -114.5t-179.5 -131.5q-84 -68 -157.5 -138.5t-139.5 -141.5q-66 -72 -123 -146t-106 -147l-90 -143.5t-78 -135.5h672l-33 -33h-655q-25 -47 -57 -98l-70 -108q-78 -111 -179 -222l-106 -105t-115 -101 q-121 -98 -260 -164q82 -35 163 -57.5t165 -32.5q23 -4 42 -5.5t40 -3.5q20 -2 38.5 -2h34.5q131 0 242 41q100 39 217 133q-47 -53 -104 -104q-29 -27 -60.5 -49.5t-66.5 -42.5t-72 -36.5t-78 -29.5q-80 -25 -168 -24h-22t-27 2l-49 6q-59 8 -117 31q-29 10 -54.5 21 t-49.5 24l-92 49q-20 10 -38 20.5t-34 18.5l-59.5 -21.5t-65.5 -21.5l-67.5 -19.5l-69.5 -19.5l-70 -15.5t-69 -13.5l-69 -8l-67 -8q-98 -6 -192 -6q-53 0 -105.5 3t-105.5 11q-104 12 -227 49q-20 6 -47 21q-12 8 -24.5 15t-23.5 17q-10 10 -18 20.5t-16 22.5 q-14 20 -15 47q0 37 37 78q37 39 135 74q47 16 93.5 27.5t93.5 17.5q88 12 182 12q193 0 385 -57q98 -29 205.5 -70t228.5 -94q123 57 244 156q121 98 219 203q51 53 96 107t86 110q41 55 74 105t59 97h-778v33h799q39 76 85 154t99 158q53 78 114.5 155.5t131.5 153.5 q137 150 309 284q172 137 375 238q106 53 227 82q113 27 224 27q121 0 221 -35q98 -33 155 -94q57 -59 88 -138q31 -73 31 -157zM1286 266q-117 63 -220 106.5t-200 69.5q-184 51 -348 52q-186 0 -334 -56q-35 -14 -60.5 -28.5t-39.5 -30.5q-27 -29 -27 -60q0 -37 35 -71 q35 -33 80 -47q53 -18 107.5 -29.5t113.5 -17.5q57 -4 114.5 -7.5t115.5 -3.5h82q20 2 40.5 3t40.5 1q131 6 258 39q129 33 242 80z" />
<glyph unicode="&#xa5;" horiz-adv-x="1843" d="M2417 1741l-69 -77l-67 -75t-63.5 -76.5l-60.5 -80.5q-31 -41 -62 -86.5t-59 -94.5q-29 -47 -59.5 -103t-59.5 -120q-68 -143 -150 -280q-84 -139 -202 -252q39 -16 88 -27q39 -8 86 -8q57 0 112 12q29 4 54.5 11.5l52.5 15.5q51 14 98 37q23 10 44.5 17t41.5 15 q-33 -23 -84 -49q-41 -23 -100 -45q-29 -10 -57.5 -18t-59.5 -15q-59 -12 -123 -12q-100 0 -186 33q-104 -111 -221 -176q-59 -33 -120 -61.5t-122 -53.5q-47 -18 -99 -33.5t-106 -29.5q-104 -27 -217 -27q-82 0 -168 22q-84 20 -160 68q-76 45 -114 113q-35 66 -35 133 q0 47 14 90q12 43 35 86q10 20 22.5 39.5t28.5 38.5q27 33 62 61q68 57 141 82q68 25 129 25q57 0 100 -15l44.5 -16t39.5 -18q33 -18 60 -41t35 -37q41 -4 78.5 -9.5t72.5 -13.5l68 -16t65 -19l67 -21t68 -26l74 -29.5t80 -33.5l41 49l35 41l55 74q14 16 27.5 35.5 l27.5 39.5q27 39 68 105q-43 -43 -98 -84l-54.5 -37.5l-48.5 -34.5q-78 -49 -164 -49q-45 0 -83 18q-39 16 -60 56q-8 14 -14 35q-6 18 -6 45q0 49 30 116q29 70 101 152q23 25 44 50.5l44 51.5l43 52.5l41 54.5l37.5 55.5t35.5 56.5q16 29 29.5 59t24.5 62q4 10 6 21.5 t4 21.5t2 18.5v16.5q0 92 -63 135q-61 43 -158 43q-55 0 -127 -16q-68 -16 -135 -49q-35 -16 -68 -37t-65 -45q-66 -47 -121 -109q-45 -51 -80 -102t-57 -105q-45 -104 -46 -186q0 -61 29 -102q27 -37 80 -37q43 0 86 20q-72 -31 -117 -30q-57 0 -82 36q-25 37 -24 95 q0 51 14 102q8 27 17.5 54.5t23.5 56.5q25 53 59 108q16 27 36 49.5l40 44.5q137 141 277 209q141 66 250 66q121 0 198 -72q78 -72 78 -213v-14q0 -66 -35 -135q-31 -66 -78 -131q-47 -66 -98 -123q-53 -59 -92 -111q-61 -80 -98 -139q-33 -53 -33 -98q0 -4 4 -25 q10 -29 37 -41t67 -12q39 0 82 12t80 37l79 56.5l77 55.5q74 59 106 109l69 106.5l77 110.5l80 109.5l84 107.5q41 53 84 102.5l88 96.5t87 86t83 72v-33zM1417 504q-61 27 -117 55l-55 25.5t-57 25.5t-62.5 23.5t-68.5 21.5q-66 20 -164 33q20 -39 20 -80q0 -70 -43 -127 q-45 -61 -100 -84q-55 -25 -115 -24q-53 0 -96 14q-45 12 -67 35q-43 39 -43 92q0 41 26 76q14 18 31.5 34.5t40.5 30.5q45 29 104 47q61 16 127 17h25q18 0 28 -2q-23 31 -81 61q-63 29 -146 29q-57 0 -125 -23q-63 -20 -131 -75q-66 -53 -102 -129q-37 -74 -37 -152 q0 -66 27 -125q29 -61 88 -102q68 -47 151 -70q80 -18 162 -18q29 0 59.5 3t59.5 7t56.5 10t55.5 14q27 8 52.5 16.5t50.5 18.5l44 19.5l42 19.5q96 51 188 121q45 33 88 74t84 88zM881 596q0 43 -29 96q-6 2 -23 2q-8 2 -24 2q-51 0 -113 -16q-29 -8 -55.5 -17.5 t-50.5 -23.5q-49 -27 -78 -57q-29 -35 -29 -70q0 -45 49 -82q8 -6 20.5 -11t29.5 -11q31 -12 73 -13q55 0 111 27q45 20 84 70q35 47 35 104z" />
<glyph unicode="&#xa7;" horiz-adv-x="1550" d="M2175 1581l-74 -74q0 49 -24 72q-27 20 -66 20q-37 0 -78 -14q-41 -12 -90 -41q-61 -39 -118.5 -82t-110.5 -94t-102.5 -103.5t-96.5 -109.5l-87 -111.5l-81 -113.5l-73.5 -111.5l-67.5 -105.5l-71 -109.5l-79 -118.5q-84 -123 -182 -219q-51 -49 -129 -100 q-35 -23 -74 -44.5t-79 -39.5q-84 -39 -166 -59q-86 -23 -166 -23q-59 0 -88 29t-29 65q0 33 20 66q16 31 60 57l37 -53q-37 -14 -62 -45q-20 -27 -20 -49q0 -20 18 -33q18 -12 72 -12q80 12 156 34q68 20 131 56q61 31 116 73q29 23 54.5 46.5l54.5 52.5q90 90 151 172 l61 87l58 89l-40.5 -32.5t-41.5 -31.5q-37 -27 -102 -39q-123 0 -123 119q0 18 3 41t13 49q31 96 91 181q29 41 58.5 78.5t61.5 72.5q31 35 64 64.5l65 58.5l60.5 49.5t54.5 40.5q10 8 25.5 16.5t36.5 18.5q39 20 79 20q33 0 54 -26q23 -27 22 -103q-12 -68 -33 -110 l-20 -45.5t-21 -44.5q129 182 281 329q76 72 149.5 132.5t147.5 107.5q23 16 47.5 25.5l46.5 17.5q43 14 86 14q51 0 96 -16q41 -16 64 -41zM1278 1229q0 39 -6 55q-2 14 -21 14q-33 0 -104 -53q-78 -55 -141 -123q-66 -66 -117 -135q-27 -35 -48.5 -69.5l-41.5 -69.5 t-35.5 -67.5l-30.5 -63.5l-12 -27.5t-10 -27.5q-8 -23 -9 -48q0 -23 11 -39q8 -14 32 -14h8.5t16.5 4q61 14 98 49l35 32l31 30l51.5 57.5l54.5 65.5q29 35 55.5 72.5l53.5 76.5q51 80 86 150q35 74 43 131z" />
<glyph unicode="&#xa8;" horiz-adv-x="1024" d="M4221 2288q0 -16 -14 -41q-16 -27 -41 -52q-23 -18 -58 -18q-16 0 -28 14q-12 12 -13 35q0 18 9 33l4 8t6 10t9 12.5t13 12.5q14 14 31 22q10 4 19.5 6.5t19.5 2.5q18 0 31 -13q12 -12 12 -32zM3895 2288q0 -27 -16 -45q-4 -6 -13.5 -15.5t-21.5 -23.5q-20 -27 -59 -27 q-23 0 -31 14t-8 33q0 18 6 35q8 18 35 49q25 25 67 25q23 0 31 -15q10 -14 10 -30z" />
<glyph unicode="&#xa9;" horiz-adv-x="1536" d="M1499 702q-2 -111 -41 -239q-37 -121 -98 -242q-31 -59 -68 -115.5t-78 -109.5t-86 -98t-96 -86q-102 -82 -211 -127t-229 -45q-127 0 -230 45q-100 43 -176 114q-37 35 -65.5 74t-48.5 84q-39 84 -39 174q0 106 39 215q37 106 102 213q33 51 70 99.5t82 93.5 q86 88 184 159q96 66 205 107q102 39 207 39q154 0 247 -70q94 -68 95 -203q0 -63 -23 -153q-23 -84 -61 -172q-41 -90 -99 -172q-55 -84 -127 -152q-35 -33 -72.5 -59.5t-78.5 -46.5q-80 -39 -172 -39q-55 0 -86 14q-35 16 -56 39q-16 18 -26 53q-8 27 -8 62q0 45 12 92 q12 43 25 69q20 41 42.5 80t49.5 78q49 70 110 137q55 61 123 113q33 25 63.5 44.5t61.5 31.5q20 10 37.5 15t34.5 9q31 6 53 7q51 0 70 -29q18 -25 18 -53q0 -10 -4 -31q-6 -23 -31 -47l-25.5 -24.5t-29.5 -22.5l-8 20q23 14 39 28.5t26 29.5q18 27 19 51q0 29 -21 43 q-23 14 -51 14q-23 0 -53 -10q-14 -4 -29.5 -13.5l-32.5 -19.5q-29 -20 -58.5 -47t-61.5 -61l-61 -71t-58 -77l-55.5 -82t-49.5 -82t-42 -82t-31 -80q-8 -25 -9 -59q0 -45 25 -78q20 -33 82 -33q90 0 168 39q82 37 147 101q70 63 123 143q51 80 92 166q18 41 32.5 84 t25.5 84q20 80 20 151q0 123 -82 187q-84 61 -239 61q-100 0 -205 -41q-51 -20 -98.5 -46.5t-94.5 -61.5q-45 -35 -87 -73t-81 -83q-76 -84 -131 -180q-55 -94 -88 -189q-31 -92 -31 -172q0 -100 39 -184q37 -82 103 -147q66 -63 151 -99q86 -37 187 -37q199 0 360 95 q162 92 283 239q119 147 182 326q66 180 66 350v40t-4 40q0 18 -2.5 36.5t-4.5 37.5h21q6 -41 10 -86.5t2 -96.5z" />
<glyph unicode="&#xaa;" horiz-adv-x="3198" d="M2 -184q0 49 29 102q27 51 86 94q29 23 66.5 41.5t82.5 34.5t98.5 29.5t114.5 21.5q98 135 238 191q141 55 311 55q195 0 410 -57q111 -29 219 -64t219 -76q131 -49 256 -67q121 -20 242 -21q154 0 290 33q143 35 250 105q113 72 176 184q68 113 68 272q0 160 -63 273 q-66 117 -168 188q-104 76 -240 111q-135 37 -281 37q-57 0 -115.5 -6.5t-119.5 -16.5q-119 -25 -223 -78q-104 -57 -168 -139q-66 -88 -66 -209q0 -96 47 -168q45 -72 125 -123q80 -49 182 -74q100 -25 211 -24q78 0 144 14q70 14 135 49q33 16 60.5 39t54.5 51 q49 51 84 136q-18 -74 -70 -138q-27 -33 -57.5 -61.5t-65.5 -50.5q-74 -47 -162 -74q-86 -27 -184 -27q-86 0 -176 33t-168 92q-76 57 -127 144q-51 82 -51 186q0 125 59 215q61 90 162 148q51 29 107.5 49t121.5 35q133 29 264 28q154 0 289 -39q141 -39 250 -120 q113 -82 176 -197q68 -121 68 -272q0 -170 -80 -299q-82 -129 -211 -220q-66 -45 -138.5 -78.5t-154.5 -56.5q-166 -47 -328 -47q-119 0 -237 25q-123 29 -234 82q-109 53 -214 96t-210 76q-209 68 -395 67q-147 0 -270 -49q-125 -49 -217 -162q29 0 58.5 -3t58.5 -7 q57 -8 112 -51q57 55 135 92q76 39 176 39t156 -45q53 -47 53 -111q0 -76 -49 -139q-27 -33 -57.5 -60.5t-67.5 -50.5q-39 -23 -78.5 -41t-85.5 -30q-86 -27 -163 -27q-57 0 -113 14q-57 14 -113 48q-49 31 -84 79q-35 51 -34 115q0 49 14 80q16 37 24 45q-35 -4 -71.5 -11 t-73.5 -18q-39 -10 -72.5 -23.5t-64.5 -29.5t-55.5 -37.5t-45.5 -44.5q-39 -45 -38 -110q0 -29 18 -54t47 -24q23 0 37 14q16 16 16 39q-10 -12 -28 -12q-16 0 -25 12q-10 14 -10 27q0 12 10 22q8 12 27 12q23 0 35 -14q14 -14 14 -39q0 -27 -23 -53q-20 -27 -53 -27 q-37 0 -61 31q-27 29 -27 70zM709 -35q0 -25 8 -39q10 -16 33 -16q12 0 22 12q8 14 8 33q0 18 -10 43q-12 25 -37 43q-24 -29 -24 -76zM432 -43q0 -55 31 -102q31 -43 76 -70q49 -29 100 -41q55 -14 113 -14q63 0 139 20q82 20 153 62q37 20 68 45.5t57 54.5q51 59 52 143 q0 49 -39 88q-20 20 -55 32.5t-87 12.5h-10q-20 0 -38.5 -3t-39.5 -7q-20 -6 -39.5 -13t-38.5 -15q-33 -16 -67 -41q-16 -10 -29.5 -22.5t-23.5 -25.5q31 -27 41 -51q12 -29 12 -53q0 -29 -16 -51q-14 -20 -41 -21q-37 0 -52 25q-16 27 -16 59q0 23 6 47q10 27 25 41 q-20 12 -70 23q-51 10 -92 10h-37q-14 0 -35 -4q-23 -23 -35 -55q-12 -35 -12 -74z" />
<glyph unicode="&#xab;" horiz-adv-x="1126" d="M1069 156l-606 336l168 83q80 41 157 91q35 23 68 48t62 52q55 51 86 115h20q-53 -117 -172 -217q-59 -51 -126 -96.5t-144 -84.5l487 -282v-45zM741 156l-606 336l168 83q80 41 158 91q35 23 67.5 48t61.5 52q55 51 86 115h20q-53 -117 -172 -217q-59 -51 -125.5 -96.5 t-144.5 -84.5l487 -282v-45z" />
<glyph unicode="&#xac;" horiz-adv-x="602" d="M952 688q-41 -39 -100 -76l-57.5 -32.5t-61.5 -32.5q-61 -31 -129 -55l-65.5 -19.5t-65.5 -13.5q-57 -137 -143 -236q-88 -100 -230 -174q-41 -20 -92 -35q-49 -14 -108 -14q-61 0 -113 25q-47 25 -63 90q0 61 26 90q25 31 53 31q27 0 43 -31q4 -16 4 -17q0 -23 -28 -38 q-27 -14 -70 -15q0 -59 45 -84q45 -23 103 -22q49 0 98 14q51 12 86 39q63 47 113.5 91t85.5 89q70 88 104 184q-35 4 -35 21q0 23 51 29l21.5 59.5l21.5 58.5l19.5 57.5t19.5 55.5q8 27 16.5 51.5l16.5 46.5q8 23 14.5 39.5t14.5 28.5q-10 -10 -18.5 -16.5t-12.5 -10.5 q-8 -8 -31 -22l-14 14q27 23 45.5 41.5l28.5 28.5t18 19l17 20l16 21l18 26q10 14 26.5 34.5l41.5 49.5l-4 -41l-29 -37q-45 -74 -67 -139l-20.5 -69t-18.5 -69t-14.5 -66.5t-12.5 -64.5q-10 -66 -31 -116q63 10 125 32q61 20 125 56q31 16 59.5 33.5t57.5 37.5 q29 18 53.5 37l46.5 37v-41z" />
<glyph unicode="&#xad;" d="M1167 684l-49 -82h-692l57 82h684z" />
<glyph unicode="&#xae;" horiz-adv-x="1331" d="M1497 725q0 -35 -2 -72t-6 -75q-4 -39 -11.5 -77t-17.5 -77t-23.5 -77t-29.5 -77t-36.5 -75.5t-47.5 -71.5l-61.5 -83t-57.5 -71l-57.5 -62.5t-59.5 -56.5q-59 -53 -129 -92l-72.5 -39.5t-82.5 -37.5q-90 -39 -203 -39q-27 0 -54.5 2t-56.5 6t-58.5 11t-61.5 20 q-51 18 -93.5 41.5t-74.5 50.5q-68 55 -103 112q-35 55 -51 123q-14 59 -14 123v41q2 10 2 18.5t2 18.5q8 59 23.5 115.5t41.5 109.5q49 104 123 197q70 88 160 166q43 39 86 72.5l86 64.5q47 33 93 56.5t93 37.5q96 29 179 29q104 0 188 -37q80 -33 119 -94q16 -25 26 -66 q8 -31 9 -76q0 -94 -39 -209q-39 -119 -119 -243l-32.5 -48.5t-37.5 -52.5q-43 -55 -88 -98q-51 -47 -108 -84q-57 -33 -131 -49q-41 0 -68 8q-31 6 -51 25q-6 6 -15 22q-10 20 -10 47t8 45l35 74t33 64q29 61 29 100q0 29 -23 45q-25 18 -74 21l-270 -451h-74l410 700 q43 76 106 105t115 29q57 0 96 -27q43 -29 52 -70q2 -6 2 -18q2 -6 2 -17q0 -47 -25 -90q-20 -37 -63 -73q-41 -31 -95 -50q-55 -18 -120 -18q27 -6 36 -25q10 -16 11 -40q0 -29 -13 -66q-4 -16 -11 -34.5t-15 -37.5l-16.5 -36.5l-16.5 -34.5t-15 -31.5l-14 -30.5 q-16 -35 -16 -61q0 -37 25 -45q20 -8 41 -13q76 12 131 52q61 39 106 84q49 49 84 98q18 27 33.5 48l30.5 42l32.5 54.5t30.5 56.5q27 57 49 116q23 59 31 115q4 29 7 54.5t3 49.5q0 84 -35 136q-16 23 -41.5 43t-62.5 36q-76 35 -178 35q-39 0 -79 -6t-85 -16t-91 -33 t-93 -55q-111 -76 -197 -168q-43 -47 -80 -95.5t-68 -99.5q-29 -51 -53 -100t-41 -98q-33 -96 -33 -177v-6q0 -143 80 -260t224 -168q27 -10 50 -16t46 -10q39 -6 82 -7q41 0 98 11q51 8 117 30q174 59 284 156q57 49 108.5 105.5t98.5 119.5q100 133 140 293q41 164 41 312 v34.5t-2 34.5l-7 68h21q2 -16 4 -36t2 -40q2 -20 3 -40.5t1 -43.5zM975 721q-2 41 -39 70q-33 27 -74 26q-27 0 -59 -16q-33 -16 -53 -51l-152 -254q16 -2 29.5 -3t27.5 -4q12 -2 24.5 -2h22.5h27.5t24.5 2q10 2 19 2.5t18 4.5q109 33 147 94q37 57 37 131z" />
<glyph unicode="&#xaf;" horiz-adv-x="3198" d="M3193 -180q0 -41 -27 -70q-25 -31 -61 -31q-33 0 -53 27q-23 27 -23 53q0 25 14 39q12 14 35 15q16 0 27 -13q10 -10 10 -22t-10 -27q-10 -12 -25 -12q-20 0 -28 12q0 -23 16 -39q14 -14 37 -14q29 0 47 24q18 25 18 54q0 66 -39 110q-20 23 -44.5 44.5t-55.5 37.5 t-64.5 29.5t-72.5 23.5q-37 10 -74 17.5t-72 11.5q8 -8 25 -45q14 -31 14 -80q0 -63 -34 -115q-35 -49 -84 -79q-55 -33 -113 -47q-55 -14 -113 -15q-78 0 -164 27q-45 12 -85 30.5t-78 40.5q-37 23 -68 50.5t-57 60.5q-49 63 -49 139q0 63 53 111q55 45 155 45t177 -39 q76 -37 135 -92q55 43 112 51q29 4 58.5 7t58.5 3q-92 113 -217 162q-123 49 -270 49q-186 0 -396 -67q-104 -33 -209.5 -76t-214.5 -96q-111 -53 -233 -82q-121 -25 -238 -25q-162 0 -327 47q-82 23 -155 56.5t-138 78.5q-129 90 -211 220q-80 129 -80 299q0 152 68 272 q63 115 176 197q109 82 250 120q135 39 288 39q131 0 265 -28q66 -14 122 -35t107 -49q100 -57 162 -148q59 -90 59 -215q0 -104 -51 -186q-51 -86 -127 -144q-78 -59 -168 -92t-176 -32q-98 0 -184 26q-88 27 -162 74q-35 23 -65.5 51.5t-57.5 61.5q-51 63 -70 137 q35 -84 84 -135q27 -29 54.5 -51.5t60.5 -39.5q63 -35 135 -49q66 -14 143 -14q109 0 211 25t183 73q80 51 125 123q47 72 47 168q0 121 -66 209q-63 82 -168 139q-104 53 -223 78q-61 10 -119.5 16.5t-116.5 6.5q-145 0 -280 -37q-135 -35 -240 -111q-102 -72 -168 -188 q-63 -113 -63 -273t67 -272q63 -113 177 -184q106 -70 249 -105q137 -33 291 -33q121 0 242 21q125 18 256 68q111 41 219.5 75.5t218.5 63.5q215 57 410 57q170 0 311 -55q139 -55 238 -191q61 -8 114.5 -21t98.5 -30q45 -16 82.5 -34.5t66.5 -41.5q59 -43 86 -94 q29 -53 29 -102zM2486 -31q0 47 -24 76q-25 -18 -37 -43q-10 -25 -10 -43t8 -33q8 -12 22 -12q23 0 33 16q8 21 8 39zM2763 -39q0 39 -13 74q-12 33 -34 55q-20 4 -35 4h-37q-41 0 -92 -10q-49 -10 -70 -23q14 -14 25 -41q6 -25 6 -47q0 -33 -16 -59q-16 -25 -52 -25 q-27 0 -41 21q-16 23 -16 51q0 25 12 53q10 25 41 52q-25 29 -51 47l-32.5 20l-35.5 21q-18 8 -37.5 15t-39.5 13q-45 10 -80 11h-11q-51 0 -85.5 -12.5t-55.5 -33.5q-39 -39 -39 -88q0 -84 51 -143q27 -29 58 -54.5t67 -45.5q70 -41 154 -62q76 -20 139 -20q57 0 113 14 q51 12 100 41q45 27 76 70q31 47 31 102z" />
<glyph unicode="&#x2c9;" horiz-adv-x="3198" d="M3193 -180q0 -41 -27 -70q-25 -31 -61 -31q-33 0 -53 27q-23 27 -23 53q0 25 14 39q12 14 35 15q16 0 27 -13q10 -10 10 -22t-10 -27q-10 -12 -25 -12q-20 0 -28 12q0 -23 16 -39q14 -14 37 -14q29 0 47 24q18 25 18 54q0 66 -39 110q-20 23 -44.5 44.5t-55.5 37.5 t-64.5 29.5t-72.5 23.5q-37 10 -74 17.5t-72 11.5q8 -8 25 -45q14 -31 14 -80q0 -63 -34 -115q-35 -49 -84 -79q-55 -33 -113 -47q-55 -14 -113 -15q-78 0 -164 27q-45 12 -85 30.5t-78 40.5q-37 23 -68 50.5t-57 60.5q-49 63 -49 139q0 63 53 111q55 45 155 45t177 -39 q76 -37 135 -92q55 43 112 51q29 4 58.5 7t58.5 3q-92 113 -217 162q-123 49 -270 49q-186 0 -396 -67q-104 -33 -209.5 -76t-214.5 -96q-111 -53 -233 -82q-121 -25 -238 -25q-162 0 -327 47q-82 23 -155 56.5t-138 78.5q-129 90 -211 220q-80 129 -80 299q0 152 68 272 q63 115 176 197q109 82 250 120q135 39 288 39q131 0 265 -28q66 -14 122 -35t107 -49q100 -57 162 -148q59 -90 59 -215q0 -104 -51 -186q-51 -86 -127 -144q-78 -59 -168 -92t-176 -32q-98 0 -184 26q-88 27 -162 74q-35 23 -65.5 51.5t-57.5 61.5q-51 63 -70 137 q35 -84 84 -135q27 -29 54.5 -51.5t60.5 -39.5q63 -35 135 -49q66 -14 143 -14q109 0 211 25t183 73q80 51 125 123q47 72 47 168q0 121 -66 209q-63 82 -168 139q-104 53 -223 78q-61 10 -119.5 16.5t-116.5 6.5q-145 0 -280 -37q-135 -35 -240 -111q-102 -72 -168 -188 q-63 -113 -63 -273t67 -272q63 -113 177 -184q106 -70 249 -105q137 -33 291 -33q121 0 242 21q125 18 256 68q111 41 219.5 75.5t218.5 63.5q215 57 410 57q170 0 311 -55q139 -55 238 -191q61 -8 114.5 -21t98.5 -30q45 -16 82.5 -34.5t66.5 -41.5q59 -43 86 -94 q29 -53 29 -102zM2486 -31q0 47 -24 76q-25 -18 -37 -43q-10 -25 -10 -43t8 -33q8 -12 22 -12q23 0 33 16q8 21 8 39zM2763 -39q0 39 -13 74q-12 33 -34 55q-20 4 -35 4h-37q-41 0 -92 -10q-49 -10 -70 -23q14 -14 25 -41q6 -25 6 -47q0 -33 -16 -59q-16 -25 -52 -25 q-27 0 -41 21q-16 23 -16 51q0 25 12 53q10 25 41 52q-25 29 -51 47l-32.5 20l-35.5 21q-18 8 -37.5 15t-39.5 13q-45 10 -80 11h-11q-51 0 -85.5 -12.5t-55.5 -33.5q-39 -39 -39 -88q0 -84 51 -143q27 -29 58 -54.5t67 -45.5q70 -41 154 -62q76 -20 139 -20q57 0 113 14 q51 12 100 41q45 27 76 70q31 47 31 102z" />
<glyph unicode="&#xb0;" horiz-adv-x="614" d="M1192 1536q0 -49 -31 -96q-14 -20 -32.5 -43t-43.5 -45q-27 -25 -71 -43q-41 -18 -78 -19q-29 0 -49 15q-18 12 -19 47v6q0 98 107 186l41 28.5t39 20.5q35 14 65 15q31 0 54 -17q18 -16 18 -51v-4zM1163 1536q0 33 -37 33q-16 0 -43 -10q-23 -8 -47 -27q-37 -27 -57 -51 q-10 -12 -18.5 -24.5t-14.5 -22.5l-8 -19.5l-8 -19.5q-2 -10 -4 -18.5l-4 -16.5q10 -41 43 -41q43 0 92 41q23 16 40 35.5t33 40.5q31 43 33 100z" />
<glyph unicode="&#xb1;" d="M1266 848l-49 -82h-291l-123 -254h-90l127 254h-316l58 82h295l127 258h90l-127 -258h299zM1053 389l-49 -82h-693l58 82h684z" />
<glyph unicode="&#xb4;" d="M4372 2595l-344 -410l-12 13l225 356q10 0 29 6q8 4 16.5 7t18.5 7l18.5 7.5l18.5 7.5q18 6 30 6z" />
<glyph unicode="&#xb5;" horiz-adv-x="942" d="M1217 590q-41 -51 -101 -119l-62.5 -70.5l-66.5 -72.5l-66.5 -72l-64.5 -70l-60.5 -62.5l-50.5 -49.5q-25 -25 -75 -51q-53 -25 -99 -25q-31 0 -51 14q-25 14 -33 45q-6 20 -6 45q0 49 21 103q18 55 55 123l-117 -117l-133 -121q-57 -47 -106 -70q-47 -20 -90 -20 q-47 0 -78 25q-31 20 -37 57l-238 -352h-102l893 1302h82l-488 -749q-14 -20 -24 -41t-21 -41q-20 -43 -28 -86q0 -51 14 -68q16 -16 43 -16q70 0 164 75q53 43 103 88.5l98 92.5q47 47 85.5 95t73.5 101l353 549h86l-459 -729l-19.5 -32.5l-19.5 -32.5t-19.5 -33t-17.5 -33 q-16 -35 -25 -61q-10 -31 -10 -50q6 -45 60 -45q37 0 79 21q45 20 78 53l53.5 54.5l61.5 64.5l129 141l64.5 73l62.5 71l104 116z" />
<glyph unicode="&#x3bc;" horiz-adv-x="942" d="M1217 590q-41 -51 -101 -119l-62.5 -70.5l-66.5 -72.5l-66.5 -72l-64.5 -70l-60.5 -62.5l-50.5 -49.5q-25 -25 -75 -51q-53 -25 -99 -25q-31 0 -51 14q-25 14 -33 45q-6 20 -6 45q0 49 21 103q18 55 55 123l-117 -117l-133 -121q-57 -47 -106 -70q-47 -20 -90 -20 q-47 0 -78 25q-31 20 -37 57l-238 -352h-102l893 1302h82l-488 -749q-14 -20 -24 -41t-21 -41q-20 -43 -28 -86q0 -51 14 -68q16 -16 43 -16q70 0 164 75q53 43 103 88.5l98 92.5q47 47 85.5 95t73.5 101l353 549h86l-459 -729l-19.5 -32.5l-19.5 -32.5t-19.5 -33t-17.5 -33 q-16 -35 -25 -61q-10 -31 -10 -50q6 -45 60 -45q37 0 79 21q45 20 78 53l53.5 54.5l61.5 64.5l129 141l64.5 73l62.5 71l104 116z" />
<glyph unicode="&#xb6;" horiz-adv-x="1177" d="M1692 1454l-29 -20q-2 104 -51 149q-47 45 -121 45q-49 0 -105 -18q-53 -18 -106 -54q-27 -16 -52.5 -36.5t-47.5 -42.5q-23 -23 -44.5 -49.5t-37.5 -55.5l-83 -138.5l-69 -117.5l-56.5 -100l-47.5 -88q-23 -41 -41.5 -78l-34.5 -70l-31.5 -65.5l-32.5 -65.5l-33.5 -66.5 l-37.5 -70.5l-99 -172l-43 -67.5l-40 -65.5q-20 -31 -44 -58.5t-53 -50.5q-55 -43 -139 -71q-80 -27 -209 -27l69 119.5l77 132.5l79.5 139.5l81.5 140.5l81 140.5l81 136.5l77 127l68 113l-36.5 -27.5l-46.5 -36.5q-27 -20 -55.5 -37.5l-57.5 -34.5q-90 -49 -137 -49 t-70 35q-20 33 -20 80q0 29 10 70q8 39 37 86q25 43 67 94q20 23 43 47l49 49l54.5 45.5t56.5 42.5q57 39 111 62q49 18 88 18q47 0 73 -27q25 -25 25 -67q0 -18 -6 -43l82 4q-14 -27 -34 -60.5t-42 -74.5l-50.5 -87l-60.5 -100l-64.5 -109.5l-68.5 -115.5l-70.5 -120.5 l-74.5 -125.5l-148 -252l-71.5 -122.5l-69.5 -118.5q76 8 166 80q92 72 154 182l64.5 114.5l53.5 98.5l44.5 85t39.5 77l36 71.5l34 67.5t34.5 66.5l39.5 72.5l94 170l62.5 103.5l74.5 121.5q49 78 100 127q53 53 113 88q61 37 117 54q61 16 108 16q96 0 162 -55 q64 -51 64 -160zM784 1378q0 37 -16 54q-16 16 -43 16q-31 0 -61 -14q-37 -14 -68 -33l-33.5 -21.5t-34.5 -25.5q-16 -12 -30.5 -25.5l-26.5 -25.5l-69.5 -72t-61.5 -70q-55 -68 -61 -121q0 -4 -1.5 -9t-1.5 -9q-2 -6 -2 -16q0 -43 21 -58q23 -16 51 -16q23 0 57 10 q31 10 60 25q14 6 27.5 14t25.5 18q27 20 41 37l42 44.5t34 33.5q12 14 25.5 27.5t23.5 27.5q10 12 20.5 26.5t20.5 31.5q20 29 51 88q10 45 10 63z" />
<glyph unicode="&#xb7;" horiz-adv-x="901" d="M848 737l-12 -49h-242l-90 -237l-148 -181l156 418h-365l-35.5 -14t-29.5 -10q-25 -6 -41 -7q-29 0 -29 17q0 18 37 43q33 20 90 24l631 598l25 -36l-586 -566h323l27.5 71t24.5 66q10 33 22 68t29 74l131 123l-40.5 -103.5l-41.5 -101.5l-39.5 -98.5l-38.5 -98.5h242z " />
<glyph unicode="&#x2219;" horiz-adv-x="901" d="M848 737l-12 -49h-242l-90 -237l-148 -181l156 418h-365l-35.5 -14t-29.5 -10q-25 -6 -41 -7q-29 0 -29 17q0 18 37 43q33 20 90 24l631 598l25 -36l-586 -566h323l27.5 71t24.5 66q10 33 22 68t29 74l131 123l-40.5 -103.5l-41.5 -101.5l-39.5 -98.5l-38.5 -98.5h242z " />
<glyph unicode="&#xb8;" horiz-adv-x="3198" d="M3195 1511q0 -104 -117 -192q-121 -92 -354 -131q-100 -137 -244 -195q-141 -55 -313 -55q-195 0 -410 57q-109 29 -217 64t-221 76q-66 25 -130.5 42t-125.5 27q-123 18 -240 19q-240 0 -426 -68q-92 -35 -161 -88q-68 -55 -113 -125q-47 -68 -68 -147q-23 -84 -22 -162 q0 -156 61 -268q29 -57 70 -103.5t92 -85.5q100 -74 233 -110q135 -35 281 -35q59 0 118.5 6t123.5 16q61 10 117.5 27.5t109.5 44.5q104 51 168 135q66 84 66 213q0 96 -48 172q-47 74 -120 125q-74 47 -175 76q-98 25 -204 24q-70 0 -148 -16q-35 -8 -69.5 -21.5 t-67.5 -29.5q-66 -35 -117 -92q-53 -59 -86 -138q18 70 72 138q53 68 127 110q37 23 78 40.5t86 31.5q86 27 182 27q90 0 184 -35t164 -94q74 -61 119 -146q45 -86 45 -186q0 -125 -63 -213q-61 -86 -164 -142q-102 -55 -232 -79q-129 -25 -266 -25q-147 0 -289 41 q-137 39 -243 119q-106 76 -172 194q-63 115 -64 269q0 86 25 172q25 88 73 163q51 78 125 142q76 66 172 108q102 47 234 76q63 14 127.5 21.5t134.5 7.5q123 0 252 -25q63 -10 125.5 -29.5t122.5 -46.5q221 -98 430 -165q209 -68 395 -68q143 0 264 49q119 45 209 160 q-29 0 -58.5 3t-58.5 7q-53 6 -114 51q-59 -70 -136 -102q-74 -33 -165 -33q-104 0 -156 51q-49 51 -49 121q0 61 43 129q41 68 133 125q55 35 141 64q80 25 166 24q80 0 154 -26q74 -25 133 -86q33 -37 41 -72q4 -20 7 -39t3 -39q0 -43 -10 -80q-4 -16 -8 -28.5t-9 -20.5 q35 6 72 15.5l76 19.5t72.5 24.5t64.5 30.5q61 33 100 82q39 45 39 111q0 31 -14 53q-16 23 -49 22q-18 0 -39 -16q-18 -16 -18 -39q10 16 28 16q16 0 29 -12q10 -10 10 -26q0 -12 -10 -27q-10 -12 -29 -12q-23 0 -37 18q-14 14 -14 39q0 29 23 55q23 23 55 23q47 0 69 -35 q19 -35 19 -68zM2488 1368q0 18 -12 35q-8 12 -31 16q-14 0 -22 -14t-8 -35q0 -18 12 -45q8 -27 33 -43q28 41 28 86zM2755 1372q0 35 -9 66q-8 33 -30 57q-47 53 -123 84q-74 31 -164 31q-68 0 -145 -23q-72 -20 -150 -67q-29 -16 -55 -43q-14 -14 -26.5 -28.5t-22.5 -31.5 q-10 -16 -18.5 -32.5l-16.5 -32.5q-12 -35 -13 -70q0 -55 39 -94q41 -41 138 -53q88 0 165 41q76 39 117 86q-29 29 -41 57q-10 31 -10 51q0 31 14 51t41 21q31 0 47 -23q14 -20 15 -51q0 -53 -31 -98q29 -23 82 -29q51 -6 106 -6h31q18 0 29 2q14 25 22 59q4 16 6.5 36 t2.5 40z" />
<glyph unicode="&#xba;" horiz-adv-x="3198" d="M0 1511q0 33 18 68q23 35 70 35q33 0 55 -23q23 -27 23 -55q0 -25 -14 -39q-16 -18 -37 -18q-20 0 -29 12q-10 14 -10 27q0 16 10 26q12 12 29 12q18 0 28 -16q0 23 -18 39q-20 16 -39 16q-33 0 -49 -22q-14 -23 -14 -53q0 -66 38 -111q39 -49 101 -82q31 -16 64.5 -30.5 t72.5 -24.5l76 -19.5t71 -15.5q-4 8 -8 20.5t-8 28.5q-10 37 -10 80q0 20 3 38.5t7 39.5q8 35 41 72q59 61 133 86q74 27 154 26q86 0 166 -24q86 -29 141 -64q92 -57 133 -125q43 -68 43 -129q0 -70 -49 -121q-51 -51 -156 -51q-92 0 -166 33q-76 33 -135 102 q-61 -45 -114 -51q-29 -4 -59 -7t-58 -3q88 -115 209 -160q119 -49 264 -49q186 0 395 68t430 165q59 27 122 46.5t126 29.5q129 25 252 25q70 0 134.5 -7.5t127.5 -21.5q131 -29 234 -76q96 -43 172 -108q74 -63 125 -142q49 -76 73 -163q25 -86 25 -172q0 -147 -64 -269 q-66 -119 -172 -194q-106 -80 -243 -119q-141 -41 -289 -41q-137 0 -266 25t-232 79q-102 55 -164 142q-63 88 -63 213q0 104 45 186q45 84 119 146q70 59 164 94t184 35q96 0 182 -27q45 -14 86 -31.5t78 -40.5q74 -43 127 -110q53 -68 72 -138q-33 78 -86 138 q-53 57 -117 92q-33 16 -68 29.5t-69 21.5q-78 16 -148 16q-106 0 -205 -24q-100 -29 -174 -76q-74 -51 -121 -125q-47 -76 -47 -172q0 -129 66 -213q63 -84 168 -135q53 -27 109.5 -44.5t117.5 -27.5q63 -10 122.5 -16t119.5 -6q145 0 280 35q133 37 236 110q51 39 92 85 t70 104q59 115 59 268q0 78 -22 162q-23 80 -68 147q-45 70 -113 125q-70 53 -161 88q-188 68 -426 68q-117 0 -240 -19q-61 -10 -125.5 -27.5t-130.5 -41.5q-113 -41 -221.5 -76t-216.5 -64q-215 -57 -410 -57q-172 0 -313 55q-143 57 -244 195q-231 39 -352 131 q-119 88 -119 192zM707 1368q0 -45 28 -86q25 16 33 43q12 27 12 45q0 20 -8 35q-8 14 -22 14q-23 -4 -31 -16q-12 -17 -12 -35zM440 1372q0 -45 9 -76q8 -35 22 -59q10 -2 29 -2h30q53 0 107 6q53 6 82 29q-31 45 -31 98q0 31 14 51q16 23 48 23q27 0 41 -21q14 -20 14 -51 q0 -20 -10 -51q-12 -29 -41 -57q39 -47 116 -86q78 -41 166 -41q96 12 138 53q39 39 38 94q0 35 -12 70l-16 32.5t-19 32.5q-10 16 -22.5 30.5l-26.5 29.5q-14 14 -27.5 23t-27.5 20q-78 47 -150 67q-78 23 -145 23q-90 0 -164 -31q-76 -31 -123 -84q-23 -25 -30 -57 q-9 -31 -9 -66z" />
<glyph unicode="&#xbb;" d="M1143 492l-615 -336v49l500 270q-94 29 -162 70q-72 43 -123 98q-55 55 -94 115q-20 31 -37.5 61.5t-33.5 61.5h20q39 -78 104 -144q33 -31 67 -58.5t73 -49.5l74.5 -44.5t78.5 -37.5q76 -35 148 -55zM750 492l-615 -336v49l500 270q-94 29 -162 70q-72 43 -123 98 q-55 55 -94 115q-20 31 -37.5 61.5l-34.5 61.5h21q39 -78 104 -144q33 -31 67 -58.5t73 -49.5l74.5 -44.5t78.5 -37.5q76 -35 148 -55z" />
<glyph unicode="&#xbf;" horiz-adv-x="993" d="M987 1393q0 -27 -16 -64q-16 -35 -49 -59q-29 -18 -50 -19q-37 0 -36 45v13q2 4 2 7t2 7q14 45 30 74q12 25 43 49q20 12 37 12q37 1 37 -65zM823 1098q-45 -133 -102 -232q-53 -92 -117 -161q-61 -68 -131 -113q-66 -45 -145 -80q-63 -47 -108.5 -87t-72.5 -73 q-51 -63 -51 -116q0 -31 15 -58l16 -27.5t20 -27.5q23 -29 64 -45q31 -14 74 -15q57 0 104 27q49 29 66 78l61 -4q-18 -39 -49 -70q-29 -31 -66 -53q-33 -20 -79 -33q-45 -10 -84 -10q-45 0 -95 16q-41 14 -77 52q-37 47 -54 88q-16 43 -16 82q0 61 37 114q16 27 40.5 51.5 t53.5 47.5t61.5 45t71.5 45l154 79q137 88 233 222q94 127 131 270z" />
<glyph unicode="&#xf7;" d="M958 905q0 -31 -20 -53q-23 -25 -57 -25q-37 0 -60 21q-23 23 -22 61q0 29 24 52q23 23 58 22q29 0 55 -22q22 -23 22 -56zM1167 684l-49 -82h-692l57 82h684zM795 348q0 -31 -21 -53q-23 -25 -57 -25q-37 0 -60 21q-23 23 -22 61q0 29 24 51q23 23 58 23q29 0 55 -23 q23 -22 23 -55z" />
<glyph unicode="&#x192;" horiz-adv-x="706" d="M1839 2284q0 -27 -16 -80q-33 -98 -135 -238q-102 -139 -248 -291q-147 -154 -328 -315l-181 -157l-186 -150l-274 -426q8 -2 25 -2h26q29 0 61.5 3t67.5 7q66 8 148 35q39 12 76.5 28.5t78.5 36.5q41 18 79 44t77 57l-78 -74q-143 -94 -280 -127q-143 -35 -250 -35h-23 q-6 2 -20 2l-90 -143q-20 -88 -42 -176l-46 -181q-25 -92 -51.5 -179l-55.5 -175l-59.5 -170t-65.5 -166l-69.5 -157.5t-71.5 -147.5t-76 -138.5t-80 -125.5q-84 -121 -170 -207q-29 -29 -55 -47l-31.5 -20.5t-32.5 -18.5l-31.5 -15.5t-31.5 -11.5q-35 -10 -57 -10 q-41 0 -68 25q-25 25 -25 82q0 35 9.5 79t31.5 97q59 154 179 364l124.5 214l137.5 227l148.5 233.5l156.5 237.5l156.5 233.5l150.5 222.5q0 47 -16 74t-58 29l49 53q10 -10 37 -27q23 -12 70 -22l148.5 234.5l144.5 224.5l139.5 214l138.5 203l137.5 193.5l137.5 183.5 l139.5 171l140.5 161q70 76 127 109q53 33 95 32q65 1 65 -77zM1819 2286q0 53 -47 53q-33 0 -91 -35q-57 -35 -112 -96l-98.5 -113.5l-104.5 -128.5l-104.5 -136.5l-104.5 -141.5l-101 -145l-100 -148l-92 -144.5l-86 -136.5l159 126l163 138q162 143 303 291 q135 141 246 287q106 137 153 252q4 12 8.5 22.5t4.5 20.5q2 10 3 18.5t1 16.5zM332 410l-246 -394l-122.5 -196.5l-121.5 -200.5l-120.5 -203.5l-120.5 -210.5l-117.5 -215.5l-118.5 -226.5q-51 -100 -51 -156q0 -66 57 -65q37 0 84 26q47 23 107 80q123 121 229 299 q53 92 105.5 193.5t99.5 218.5l93 239.5t87 258.5l81 272.5t75 280.5z" />
<glyph unicode="&#x2c6;" d="M4258 2519q-76 -82 -109 -143q-31 -59 -30 -113q0 -39 12 -76h-8q-27 33 -37 70q-8 31 -8 74q-16 -14 -41 -27.5l-54 -30.5q-57 -31 -120 -57q-33 -14 -64 -25.5l-59 -21.5q-29 -10 -54.5 -16.5t-46.5 -10.5h-24l88 28.5t84 31.5q84 35 157 79q74 45 152 107 q37 29 74 63.5t76 75.5z" />
<glyph unicode="&#x2c7;" horiz-adv-x="1894" d="M1102 1540q-14 -37 -15 -80q0 -47 23 -86q23 -35 59 -59q37 -25 84 -37q51 -10 97 -10q98 0 202 26q53 14 105.5 31.5t105.5 40.5q111 47 211 107l100.5 63.5t96.5 67.5l-77 -57.5t-81 -65.5t-88 -67t-98 -62q-51 -29 -106.5 -54.5t-114.5 -46.5q-123 -41 -269 -41 q-49 0 -98 19q-49 18 -86 51q-37 31 -61 74q-23 41 -23 86q0 55 33 100z" />
<glyph unicode="&#x2d8;" horiz-adv-x="1894" d="M2566 2613q-14 -37 -14 -80q0 -47 22 -86q23 -35 60 -59q37 -25 84 -37q51 -10 96 -10q98 0 203 26q53 14 105 32t106 40q111 47 211 107l100 63.5t96 67.5l-77 -57.5t-80 -65.5q-41 -35 -88.5 -66.5l-98.5 -62.5q-51 -29 -106.5 -54.5t-114.5 -46.5q-123 -41 -268 -40 q-49 0 -99 18q-49 18 -86 51q-37 31 -61 74q-23 41 -23 86q0 55 33 100z" />
<glyph unicode="&#x2d9;" horiz-adv-x="563" d="M942 1479q0 -31 -20 -54q-23 -25 -58 -24q-37 0 -59 20q-23 23 -23 62q0 29 25 51q23 23 57 22q29 0 56 -22q22 -22 22 -55z" />
<glyph unicode="&#x2da;" horiz-adv-x="921" d="M4293 2425q0 -49 -31 -96q-14 -20 -32.5 -43t-43.5 -45q-27 -25 -72 -43q-41 -18 -77 -19q-29 0 -50 14q-18 12 -18 48v6q0 98 107 186l41 28.5t38 20.5q35 14 66 15q31 0 53 -17q18 -16 19 -51v-4zM4264 2425q0 33 -37 33q-16 0 -43 -11q-23 -8 -47 -26q-37 -27 -57 -51 q-10 -12 -18.5 -24.5t-14.5 -23.5q-4 -10 -8 -19t-9 -19q-2 -10 -4 -18.5l-4 -16.5q10 -41 43 -41q43 0 92 41q23 16 40.5 35.5t33.5 39.5q31 44 33 101z" />
<glyph unicode="&#x2dd;" horiz-adv-x="1024" d="M1044 143q-8 -59 -51 -127q-37 -61 -86 -118q-47 -55 -90 -97l-37 -32.5t-22 -18.5l47 61.5l49 61.5q51 63 59 123q-33 0 -32 45q4 27 13 49.5t19 42.5q23 37 54 60q25 18 47 18q16 0 24 -14q6 -17 6 -54zM717 123q-8 -59 -51 -127q-37 -61 -86 -119q-47 -55 -91 -96 l-37 -32.5t-22 -18.5l47.5 61.5l48.5 61.5q51 63 60 122q-33 0 -33 45q4 27 13 49.5t20 43.5q23 37 53 59q25 18 47 18q16 0 25 -14q6 -16 6 -53z" />
<glyph unicode="&#x410;" horiz-adv-x="3731" d="M4852 2349q0 -186 -82 -358q-80 -174 -215 -324q-133 -152 -309 -278q-172 -125 -367 -222q-96 -47 -191.5 -85t-193.5 -66q-190 -57 -361 -70q-49 -68 -116 -153q-70 -90 -129 -187q-63 -102 -105 -211q-43 -109 -43 -223q0 -33 8 -63q10 -37 27 -62q14 -25 47 -45 q27 -16 72 -20q27 92 90 202q59 106 141 195q41 45 87 81t98 64q100 57 211 58q68 0 104 -37q37 -35 37 -88q0 -104 -72 -199q-72 -90 -182 -158q-109 -66 -240 -104q-133 -37 -252 -37q-4 -12 -12 -68q-4 -29 -7 -60.5t-3 -70.5v-34.5t2 -36.5q2 -37 12 -74h-20l-7.5 53.5 t-3.5 46.5q-4 23 -4 42.5v39.5t1 41t3 41t4.5 40t6.5 40q-117 6 -178 88q-59 82 -60 215q0 88 39 180t92 187q51 92 111 172l51.5 70.5t38.5 58.5q-92 -12 -172 -19q-80 -6 -164 -18q-45 -59 -96 -119.5t-111 -120.5q-117 -119 -254 -229q-141 -111 -291 -203 q-78 -47 -155.5 -87t-157.5 -75t-161 -61.5t-163 -46.5q-158 -39 -319 -39q-23 -78 -23 -186q0 -152 52 -275q51 -127 145 -219q94 -94 223 -145q131 -53 287 -54q147 0 295 45q147 43 268 127q59 41 107.5 93.5t87.5 113.5q76 121 76 281q0 145 -91 213q-90 68 -235 67 q-90 0 -178 -20q-92 -23 -172 -55q-80 -35 -142 -86q-63 -51 -90 -107h-24q39 68 102 119q33 27 69 49.5t77 42.5t83.5 34.5t88.5 24.5q84 20 178 21q78 0 145 -19q63 -14 115 -53q49 -37 78 -96q27 -55 26 -137q0 -162 -78 -293q-39 -66 -88 -120t-112 -99 q-121 -88 -279 -137q-158 -47 -309 -48q-168 0 -309 56q-145 57 -244 155q-98 94 -158 240q-57 135 -57 309q0 47 6 90q2 23 6 42.5t8 35.5q-143 6 -297 55q-156 51 -278 144q-127 92 -209 229q-82 133 -82 314q0 123 39 227q35 104 105 201q66 90 159 168q88 74 197 129 q53 27 108.5 47t114.5 34q121 29 236 29q121 0 231 -33q113 -35 203 -98q86 -61 143 -162q53 -96 53 -225q0 -119 -49 -213q-47 -90 -133 -164q-41 -35 -89 -61.5t-101 -46.5q-109 -37 -228 -37q-61 0 -139 16q-35 8 -68.5 21.5t-64.5 29.5q-61 35 -100 90q-39 51 -39 132 q0 57 24 104q27 49 66 82q41 35 90 55q49 18 100 19q63 0 103 -21v-4q-39 16 -86 16q-57 0 -109 -18q-47 -18 -86 -53q-35 -35 -55 -82q-20 -43 -21 -105q0 -74 43 -125q43 -49 107 -79q61 -27 133 -43q70 -12 127 -13q102 0 201 37q98 39 174 105q78 68 123 161 q47 94 47 203q0 121 -52 209q-51 92 -131 152q-84 61 -188 92t-213 30q-168 0 -334 -59q-82 -29 -153.5 -70t-135.5 -94q-129 -106 -204 -252q-78 -145 -78 -321q0 -166 67 -295q68 -131 181 -221q115 -90 260 -142q141 -47 301 -57q57 168 170 305q55 66 118.5 125.5 t135.5 110.5q145 102 309 178q82 37 164 67.5t168 57.5q164 51 329 82q80 14 154 24.5t139 16.5l120 125.5l126 130.5q129 131 279 266l153.5 133.5t165.5 132.5q86 66 179 129.5t194 122.5q14 10 30.5 16.5t34.5 12.5q37 12 74 12q29 0 51 -8q27 -10 43 -29l-44.5 -46 l-55.5 -58l-62.5 -69l-70.5 -77l-77 -84l-81 -90l-82 -94l-82 -94l-81 -94l-81 -95l-74.5 -90l-68.5 -84q156 12 342 66q180 51 363 141q180 86 348 205q168 121 293 264q129 147 204 316q37 86 56.5 173t19.5 181q0 152 -57 274q-55 125 -152 232q-94 100 -223 182 q-63 39 -128.5 71.5t-135.5 61.5q-70 27 -141.5 47.5t-143.5 34.5q-72 12 -140.5 19.5t-133.5 7.5q-195 0 -406 -37q-205 -33 -409 -109q-201 -72 -381 -178q-90 -53 -168 -115.5t-146 -134.5q-135 -141 -215 -317q-78 -178 -77 -385q0 -84 28 -176q27 -84 101 -168 q236 369 518 557q281 186 641 186q76 0 147 -18q66 -18 119 -56q51 -39 78 -94q29 -61 28 -135q0 -102 -49 -190q-47 -86 -127 -158q-39 -35 -84 -65.5t-96 -59.5q-51 -27 -102 -49.5t-105 -40.5q-102 -37 -207 -55q-102 -18 -182 -19q-170 0 -311 45q-143 45 -260 123 q-10 -10 -23 -29l-12 -20l-12 -21q-4 -10 -10.5 -20t-10.5 -21q-4 -10 -7 -19t-7 -17h-17l19.5 47t19.5 43q20 39 43 73q-104 104 -143 207q-41 106 -41 207q0 233 88 416q86 184 234 325q150 139 342 238q188 96 405 162q217 63 432 90q111 14 214.5 21.5t203.5 7.5 q150 0 295 -33q76 -16 147.5 -39t143.5 -51q72 -29 137.5 -66t128.5 -78q61 -41 114.5 -90t100.5 -102q94 -111 145 -234q54 -129 54 -270zM3944 1966q-8 8 -30 8q-23 0 -60 -16l-31.5 -16.5l-29.5 -16.5q-143 -82 -293 -196q-152 -117 -301 -252q-76 -66 -146.5 -134.5 l-140.5 -140.5l-128 -136.5t-113 -131.5q27 4 50 7t46 7q23 2 43 4l41 4q20 2 40.5 4.5t41.5 4.5l41.5 4t44.5 6l115.5 131l117.5 135l120.5 136.5l121.5 131.5l118.5 128.5l116.5 121.5l110.5 110.5zM3367 2099q0 74 -31 127q-29 51 -80 86q-49 33 -114 49q-59 14 -131 15 q-184 0 -349 -58q-164 -55 -307 -153q-143 -100 -262 -234q-59 -68 -114.5 -141.5t-102.5 -151.5q133 -96 272 -135q141 -37 281 -37q96 0 209 23q53 10 106.5 24.5t106.5 34.5t102 44t96 53t89.5 60.5t76.5 66.5q70 70 111 153q41 86 41 174zM3639 465q0 39 -24 67 q-20 27 -76 27q-80 0 -178 -47q-94 -47 -178 -125q-84 -74 -156 -184q-70 -102 -107 -223q111 0 238 36q63 16 121.5 42t111.5 59q53 31 98.5 69.5t80.5 83.5q69 93 69 195zM2540 881q-55 -6 -120 -16.5t-139 -24.5q-150 -29 -303 -74q-158 -47 -319 -117 q-80 -35 -154.5 -77t-144.5 -93q-70 -49 -132.5 -106.5t-115.5 -122.5q-109 -129 -166 -297q72 0 139.5 7t133.5 22q66 14 128 31.5t121 39.5q113 45 224 105q53 29 102 59.5t96 63.5q92 63 172 129l74 61.5l68 56.5l45 40l43 40l39.5 40l40.5 42l39.5 45.5l39.5 44.5 l43 48.5z" />
<glyph unicode="&#x411;" horiz-adv-x="2699" d="M2896 1999q80 45 154.5 81t156.5 70l-142.5 -79.5l-148 -84.5t-144.5 -94.5t-130 -107.5q-113 -106 -206 -234.5t-169 -265.5q-23 -39 -42 -77t-42 -77q51 29 91 41.5t69 16.5q61 10 116.5 -11.5t97.5 -63.5t69.5 -99.5t37.5 -114.5q4 -78 -14 -159t-55 -157.5t-87 -147 t-110 -128.5q-115 -113 -269.5 -193.5t-336.5 -109.5q-152 -27 -266.5 14t-157.5 162q-61 -33 -126.5 -57.5t-142.5 -43t-169 -32.5t-205 -27q-6 0 -29.5 -1l-49 -2t-48.5 -2t-29 -1q-98 0 -199.5 21.5t-184.5 73t-135 137.5t-52 215q0 121 54 223t143.5 178t206 118 t243.5 42q80 0 146.5 -21.5t114.5 -59.5t75 -92t27 -120q0 -68 -26 -128t-76 -104t-121.5 -70t-163.5 -26h-25.5t-28.5 2l-55 7q121 2 208 28.5t142.5 69.5t82 99.5t26.5 121.5q0 125 -91.5 195.5t-234.5 70.5q-109 0 -218.5 -42t-198.5 -114.5t-145 -171t-56 -212.5 q0 -104 41 -183t115.5 -130.5t178 -77t226.5 -25.5q57 0 132 5t152.5 15.5t152.5 27.5t132 40q100 39 195 113q-8 61 13 128.5t66.5 126t112 101.5t148.5 57q10 0 18 1t19 3l68.5 97.5l96 138.5l108.5 156.5l105.5 151.5l86 123t51.5 71q72 94 147.5 181t155.5 167 q160 160 348 256zM1421 135q41 -59 140.5 -88t216.5 -6q102 16 195 61t174 104.5t149.5 128t122 136.5t89.5 128t52 101t26.5 81t10.5 79q0 23 -2 58.5t-6 52.5q-14 61 -53 117.5t-105 76.5q-12 2 -45 2t-49 -4q-8 -2 -26.5 -7t-43 -13t-52.5 -20.5t-52 -28.5l-103.5 -182.5 t-111.5 -180.5q-16 -25 -33 -48.5l-33 -45.5q49 -25 77 -62.5t34 -60.5q8 -47 -7.5 -97t-50 -94t-89 -79t-122.5 -49q47 20 95.5 57t83 81t48 93t-6.5 96q-33 63 -82 88q-76 -98 -166 -187t-201 -165l-49.5 -32.5t-50.5 -30.5q6 -16 14 -35t12 -25zM5194 2662 q-70 -43 -152 -84t-176 -81q-184 -80 -397 -142q-104 -31 -210 -55.5t-214 -44.5q-213 -37 -404 -37h-77q-33 2 -74 2h-193q-55 0 -119 2q-61 2 -124 2h-388q-63 2 -122 2h-115q-129 0 -279 -6q-76 -2 -149.5 -7t-149.5 -15q-154 -18 -286 -58q-70 -18 -130.5 -43.5 t-113.5 -58.5t-95 -74t-75 -90q-63 -94 -64 -236q0 -72 33 -122q33 -55 80 -89q47 -35 103 -53q59 -16 100 -16q23 0 51.5 3l63.5 7q68 10 143 37q80 29 156 70q78 41 153 108q72 66 133 158q59 92 97 209q-47 -182 -144 -299q-94 -119 -211 -195q-57 -37 -114.5 -63.5 t-114.5 -42.5q-115 -31 -191 -31q-63 0 -131 18q-66 14 -125 56q-55 37 -92 100q-35 63 -35 152q0 123 56 219q51 92 147 164q90 70 217 118q61 25 127 45.5t135 36.5q70 16 140.5 27.5t142.5 19.5q143 14 283 25q68 4 132 6l124 4q59 2 110 2h94q88 0 172 -2t166 -6 q160 -6 326 -6q109 0 220.5 5t228.5 15q233 18 466 62q117 23 231 50.5t224 61.5q111 35 213.5 77t196.5 93zM1444 322q68 68 133 144.5t131 164.5q-4 0 -9 -1t-9 -1q-66 -12 -122.5 -47t-98.5 -85.5t-64.5 -109.5t-20.5 -121l29 26z" />
<glyph unicode="&#x412;" horiz-adv-x="2420" d="M3701 1970q0 -98 -43 -190q-41 -92 -111 -170q-66 -76 -158 -142q-45 -33 -90 -59.5t-92 -48.5q-88 -43 -184 -70q-90 -25 -164 -24q66 10 152 37q43 14 87 31.5t91 39.5q45 23 89 49.5t89 57.5q86 61 156 137t110 162q41 92 41 186q0 63 -24 117q-25 51 -70 88 q-43 33 -102 55q-59 18 -127 19q-68 0 -138 -15l-71.5 -17t-73.5 -24q-74 -29 -148 -67q-35 -20 -69.5 -42t-69.5 -48q14 -29 25.5 -59.5t19.5 -59.5q16 -61 17 -117q0 -166 -131 -321q-133 -160 -414 -291q31 -23 67 -66q16 -20 32 -44.5t30 -55.5q14 -29 24.5 -66 t20.5 -80q18 -84 18 -202q0 -121 -53 -244t-145 -215q-96 -96 -226 -154q-129 -57 -290 -57q-74 0 -113 43q-39 41 -39 115q0 86 41 178q20 45 46 85t56 79q57 74 129 129q35 27 67 46t60 30q-80 -47 -151 -119q-70 -70 -117 -144t-74 -147q-27 -72 -26 -135q0 -55 26 -84 q27 -31 84 -31q135 0 250 64q115 59 205 159q84 96 137 221q51 121 51 244q0 100 -14 166q-16 76 -37 125q-10 27 -21.5 49.5t-25.5 40.5l-26.5 31.5t-22.5 25.5q-61 -29 -119 -41q-63 -14 -127 -16q-104 -176 -239 -344q-66 -86 -137.5 -162t-147.5 -145q53 -59 78 -113 q23 -55 22 -100q0 -55 -28 -103q-14 -23 -34 -42t-44 -35q-43 -31 -113 -52q-66 -18 -135 -18q-74 0 -147 20q-80 23 -144 66q-98 -35 -217 -61q-119 -23 -262 -23q-66 0 -154 6q-88 4 -163 31q-76 25 -134 78q-53 53 -53 151q0 59 35 119q33 55 92 105q57 47 131 88 q70 39 152 67l77.5 23.5t77.5 19.5q39 6 73 10.5t67 4.5q0 162 55 339q53 172 158 351q102 174 245 329q72 78 152 146.5t168 128.5q88 59 181 106t198 82q102 35 207.5 52.5t216.5 17.5q102 0 186 -19q86 -18 150 -49q33 -14 60.5 -30.5t49.5 -32.5q23 -16 39 -34.5 t27 -35.5q35 27 69.5 50.5t73.5 43.5q37 20 74 36t76 30t75.5 23.5t73.5 17.5q74 12 141 12q80 0 142 -20q70 -20 112 -58q23 -20 42.5 -42.5t33.5 -51.5q27 -59 27 -127zM2773 1890q0 63 -29 117q-184 -154 -338 -342q-76 -92 -147.5 -190.5t-140.5 -204.5 q20 -4 39.5 -10.5l37.5 -12.5q37 -12 66 -35q20 8 43 20.5t49 33.5q27 18 53.5 40.5l55.5 49.5t56.5 56.5l55.5 62.5q29 33 53.5 67.5l47.5 69.5q45 76 71 141q27 76 27 137zM2216 1200q-14 12 -43 23q-27 12 -72 18l-65 -94q25 2 49 7t51 13q27 6 46.5 14.5t33.5 18.5z M1993 1253h-25.5t-28.5 -2q-14 -2 -27.5 -3t-27.5 -5q-20 -6 -43 -16q-16 -10 -16 -27q0 -14 12 -22q8 -6 29 -15q8 -4 16 -5t19 -3q8 -2 15 -2h11q2 4 6 8t9 13q4 8 10 15t10 15t10 14.5t10 14.5t6.5 12t4.5 8zM2728 2036q-10 16 -47 49t-90 61q-61 29 -140 49 q-80 20 -190 21q-164 0 -344 -55q-174 -51 -350 -152q-172 -98 -328 -235q-156 -139 -272 -306q-115 -166 -187 -362q-68 -195 -67 -401q117 0 231 -19q55 -8 106.5 -19.5t98.5 -25.5t89 -28.5t77 -30.5t62.5 -33t47.5 -33q68 72 132.5 147.5t123.5 153.5l114.5 154 l107.5 151l-15.5 4t-17.5 7q-18 2 -37 12q-8 4 -15.5 9t-13.5 11q-10 14 -10 31q0 27 23 43q25 18 57 27q35 10 70 12q18 2 34.5 3t32.5 1q82 125 170 229q86 106 180 205l93.5 91l93.5 85q90 78 180 144zM1540 264q0 90 -86 174l-49.5 -45l-48.5 -45q-23 -23 -48.5 -43 l-54.5 -43q-27 -23 -55.5 -42l-60.5 -40l-68 -35.5t-74 -33.5q33 -23 66 -38.5t65 -25.5q63 -18 123 -18q66 0 115 20q55 18 92 51q39 31 62 74q22 45 22 90zM1389 483q-115 82 -295 129q-184 47 -381 47q0 -111 24 -192q20 -80 60 -148q35 -61 80 -106q20 -23 39.5 -39 l37.5 -31q133 61 242 158l102.5 93t90.5 89zM905 123q-33 27 -60.5 56.5t-49.5 62.5q-47 68 -74 133q-14 35 -23.5 69.5t-17.5 71.5q-12 70 -12 143q-29 0 -63 -3t-68 -11q-74 -12 -146 -37t-141 -61q-70 -35 -121 -80q-51 -41 -86 -96q-31 -53 -31 -113q0 -78 45 -123 q47 -47 113 -67q68 -23 139 -29q74 -6 131 -6q133 0 238 26q53 12 110.5 28t116.5 36z" />
<glyph unicode="&#x413;" horiz-adv-x="2258" d="M5235 2359q-250 -78 -535 -123q-141 -23 -285.5 -36t-293.5 -17q-29 -2 -55.5 -2t-55.5 -2q-27 -2 -53.5 -2h-53.5q-94 0 -183 3t-177 11q-176 12 -344 31l-338 31q-170 12 -340 12q-90 0 -182 -6q-45 -2 -91 -6l-94 -8q-72 -6 -176 -31q-53 -12 -107 -28.5t-112 -37.5 q-57 -20 -112.5 -44.5t-112.5 -53.5q-55 -29 -105.5 -61.5t-95.5 -71.5q-88 -72 -143 -166q-55 -90 -55 -199q0 -63 22 -118q20 -47 64 -88q37 -35 96 -58q53 -20 121 -20q135 0 268 37q127 35 236 102q106 66 169 154t64 192q0 68 -59 102q-59 35 -146 35q-131 0 -239 -59 q-104 -57 -215 -164q90 121 204 186q115 66 248 66q109 0 178 -51q72 -49 72 -142q0 -117 -53 -200q-51 -82 -131 -137q-76 -53 -172 -89q-47 -16 -90 -27t-84 -20q-41 -8 -74 -13t-62 -7l-40 -3t-15 -1q-176 0 -283 82q-106 82 -106 245q0 109 57 199q55 92 146 170 q92 76 205 137q57 31 114.5 57.5t116.5 49.5q57 23 113.5 40l109.5 32q102 27 184 32q45 4 89.5 7.5t89.5 7.5q45 2 88 3t88 1q94 0 186 -3t187 -12q94 -8 187 -15t189 -15l188.5 -15.5l190.5 -15.5t191.5 -11t193.5 -3h49q14 0 26.5 1t27.5 1q137 6 276 18t283 33 q281 38 551 104zM2937 2089q-82 -18 -174 -90q-45 -35 -88 -79t-86 -97l-83 -110.5t-83 -121.5l-79 -125.5t-73 -126.5l-68.5 -123.5l-64.5 -117.5l-56.5 -106.5l-49.5 -90.5q74 -29 133 -67q63 -41 106 -91q43 -45 72 -110q25 -61 24 -137q0 35 -24 88q-23 51 -68 104 q-49 55 -110 103q-66 47 -150 77l-45 -77.5t-47 -77.5q-49 -78 -111 -154q-55 -70 -135 -143q-78 -74 -166 -133q-197 -133 -405 -209q-203 -76 -453 -76q-133 0 -245 33q-115 31 -205 98q-84 63 -137 166q-51 100 -52 237q0 123 66 250q63 123 172 222q106 98 252 159 q141 61 297 62q82 0 168 -23q41 -10 76.5 -26.5t68.5 -38.5q61 -41 109 -113q43 -63 59 -160q131 55 242 80q55 10 105 16.5t97 6.5q63 0 105 -9q23 -4 44 -9t42 -11l64.5 114.5l72.5 123.5l77 125.5l81 125.5l84 123l88 119t90 110.5t92 98.5q94 90 187 147q94 58 184 64z M1233 803q-12 -8 -27.5 -16.5t-31.5 -18.5q-35 -18 -68 -43l-32.5 -24.5l-33.5 -26.5q-35 -31 -53 -56q-20 -27 -20 -53q0 -33 37 -33q23 0 40 9q90 37 138 108q45 70 51 154zM1896 909l-34.5 8.5t-38.5 8.5q-20 2 -42 3t-44 1q-100 0 -217 -25q-113 -25 -234 -78 q0 -55 -18 -106q-20 -57 -51 -96q-31 -45 -76 -74q-41 -29 -97 -39q-74 0 -94 14t-20 37q0 14 10 39q4 10 10 18.5l13 18.5q45 55 112 111q68 55 154 94q-20 180 -144 264q-123 82 -313 82q-154 0 -283 -64q-133 -66 -233 -159q-100 -94 -160 -211q-57 -113 -57 -217 q0 -113 47 -211q45 -94 127 -160q80 -68 182 -100q109 -35 219 -35q123 0 244 30q123 31 232 80q109 45 206 109l90.5 58.5t79.5 58.5q66 49 131 129q33 37 63 74.5t58 76.5q57 76 105 148l41 62t32 50z" />
<glyph unicode="&#x414;" horiz-adv-x="2641" d="M3371 2068l-147 -116l-76 -58.5l-74 -58.5l-71.5 -56.5l-67.5 -56.5l-61.5 -52l-55.5 -48q20 -72 37 -160q12 -90 12 -190q0 -158 -39 -307q-37 -150 -108 -295q-72 -143 -172 -262q-104 -123 -232 -211q-125 -88 -280 -142q-147 -51 -324 -51q-57 0 -113 6q-27 2 -54 6 t-56 9q-29 4 -57.5 9t-61.5 13l-66.5 15.5l-70.5 15.5q-66 -16 -135.5 -30.5t-141.5 -27.5q-141 -25 -297 -24h-35.5t-50.5 4q-29 0 -62.5 3t-70.5 7q-76 10 -149 25q-39 8 -75 17t-69 24q-66 25 -104 63q-41 37 -41 88q0 39 47 74q45 31 156 31q156 0 301 -25 q72 -12 141.5 -27.5t134.5 -31.5q66 -16 126.5 -33.5t117.5 -38.5q115 -39 199 -61q176 53 309 143q135 94 248 213q57 59 111.5 123.5t107.5 136.5l107.5 144.5l111.5 148.5t119.5 151.5l130.5 153.5q131 156 307 301q-57 141 -151 256q-92 113 -211 193q-121 82 -263 123 q-147 41 -307 41q-135 0 -284 -43q-74 -23 -147 -52.5t-144 -68.5q-72 -39 -138.5 -86t-132.5 -101q-66 -53 -122 -114.5t-105 -126.5q-96 -129 -156 -283q-57 -147 -57 -311q0 -84 33 -152q33 -74 88 -127q57 -53 135 -86q76 -31 172 -30q80 0 178 28q47 14 96.5 32.5 t96.5 45.5q47 25 92 53.5t90 63.5q86 66 156 147q70 82 108 170q41 92 41 180q0 57 -22 109q-10 23 -24.5 44t-33.5 38q-37 35 -88 55q-53 18 -110 19q-90 0 -172 -35q-39 -16 -76 -39t-72 -51q-35 -29 -67.5 -60.5t-65.5 -68.5q-31 -35 -60.5 -73l-58.5 -79q59 96 119 174 q63 80 131 135q66 53 150 88q80 31 176 31q63 0 121 -22q57 -23 96 -62q39 -41 61 -92q23 -55 23 -117q0 -96 -43 -190q-41 -94 -111 -176q-35 -41 -73.5 -79t-85.5 -73q-45 -35 -92.5 -64.5t-96.5 -56.5q-49 -25 -98 -44t-101 -34q-102 -29 -184 -28q-104 0 -203 41 q-94 41 -161 108q-70 68 -109 164q-39 92 -39 205q0 172 60 326q29 76 69.5 144.5t91.5 131.5q100 125 238 221q135 98 283 164q74 33 149.5 58.5t153.5 41.5t151.5 25.5t145.5 9.5q385 0 626 -162q238 -158 359 -458l78.5 63.5l72.5 59.5q70 55 142 104l68.5 49.5 t68.5 46.5l69.5 47zM2834 1274q0 102 -14 180q-12 78 -31 143q-109 -96 -202 -231l-185 -276l-95 -146l-99 -149q-51 -74 -108.5 -144.5t-123.5 -136.5t-139.5 -127t-159.5 -115q-86 -53 -183 -95t-212 -75l96 -24t101 -23q102 -23 229 -22q172 0 320 51q76 27 144.5 60.5 t131.5 78.5q123 88 223 209q96 117 168 258q68 141 105 287q16 76 25 149.5t9 147.5zM1159 94l-94 32.5l-104 35.5q-55 18 -114 35.5t-122 33.5q-61 16 -125.5 29.5t-130.5 24.5q-66 10 -133.5 17t-134.5 5q-39 0 -68 -8t-49 -18q-37 -23 -37 -56q0 -43 39 -75 q39 -33 96 -54q29 -10 63 -18l70 -17q35 -8 70 -13t70 -9t65.5 -6t59.5 -2q29 -4 49 -4h35q68 0 133 5t129 15q63 10 121.5 21.5t111.5 25.5z" />
<glyph unicode="&#x415;" horiz-adv-x="1198" d="M1692 2193q0 -104 -60 -211q-61 -109 -162 -200q-53 -47 -114.5 -94.5t-132.5 -92.5q-145 -90 -314 -165l-8 -58q-35 -16 -67 -24q-39 -10 -89 -45q-205 -137 -333 -302q-66 -82 -117 -162.5t-86 -158.5q-41 -92 -59 -168q-16 -82 -17 -143q0 -168 92 -256 q92 -86 258 -86q131 0 265 55q133 53 241 145q106 90 178 213q68 119 68 248q0 90 -53 150q-51 57 -144 57q-94 0 -182 -53t-156 -133q-66 -78 -116 -177q-47 -96 -68 -184q6 80 49 178q39 96 111 187q74 90 162 145q92 57 194 57q98 0 164 -67q63 -66 64 -172 q0 -117 -66 -238t-174 -217q-111 -98 -246 -158q-139 -61 -282 -61q-96 0 -183 29q-86 29 -147 84q-61 53 -101 139q-35 86 -34 192q0 70 14 136q14 70 49 147q49 106 129 203q82 98 174 172q94 76 197 141q96 59 192 107v45q-80 -23 -157 -23q-96 0 -176 37q-78 35 -134 96 q-55 61 -86 146q-29 86 -28 178q0 113 43 223q41 106 127 205q82 92 204 162q117 66 277 94q-123 -41 -234 -113q-109 -72 -198 -170q-88 -96 -139 -207q-51 -109 -52 -225q0 -86 31 -160q27 -72 82 -127t127 -83q76 -29 162 -29q78 0 155 24q29 172 95 328q63 158 166 285 q100 125 231 200q127 76 281 76q66 0 100 -28q33 -27 33 -93zM1669 2193q0 55 -27 76q-27 23 -71 23q-139 0 -252 -78q-109 -76 -193 -197q-80 -119 -135 -268q-27 -74 -47 -146.5t-35 -144.5q162 70 301 166q70 47 130.5 94t111.5 99q100 98 160 196q57 102 57 180z" />
<glyph unicode="&#x416;" horiz-adv-x="3708" d="M2963 1595l143.5 135.5l135.5 122.5q264 240 508 330q123 45 260 45q41 0 88 -12t86 -42t64.5 -77t25.5 -115q0 -88 -27.5 -178t-77.5 -174t-118 -157.5t-148.5 -128t-172 -86t-185.5 -31.5q-90 0 -124 44t-34 105q0 63 30 134t83 135.5t127 118t160 81.5 q-59 -37 -122 -85t-115 -108.5t-85 -130t-33 -147.5q0 -53 30 -89t97 -36q104 0 195.5 37t166.5 97.5t133 138t98 158.5t60.5 158t20.5 136q0 92 -52 152.5t-179 60.5q-180 0 -348 -90t-322 -233q-162 -154 -301 -340l-172 -227.5t-173 -245.5t-152.5 -260.5t-108.5 -272.5 q-31 -104 -31 -221q0 -154 68.5 -223.5t191.5 -69.5q80 0 177.5 33t196.5 89t194.5 135t168 170t117.5 192.5t45 205.5q0 35 -6 73t-23.5 71t-49 53.5t-80.5 20.5q-96 0 -186.5 -49.5t-174.5 -135.5t-165 -204.5t-161 -258.5l64 121t83 145.5t102.5 148.5t125 131.5 t150.5 94t178 35.5q61 0 97 -29.5t54.5 -70.5t24.5 -82t6 -62q0 -80 -29.5 -178t-87 -198.5t-139.5 -192.5t-185.5 -159.5t-228 -104.5t-266.5 -23q-154 14 -240.5 76t-121.5 156t-22.5 216t61.5 255t126.5 273.5t174.5 271.5l-47.5 -35t-44.5 -31q-92 -61 -178.5 -139 t-168.5 -164l-110 -230.5t-117.5 -226t-123 -202t-124.5 -158.5q-23 -23 -45 -34t-43 -17q-29 14 -7 84.5t81 175t149.5 231.5t198.5 256l163 343t165 337l-263.5 -265l-279.5 -271l-129 -172l-92 -117q-102 -117 -237.5 -225.5t-286 -191.5t-308 -133t-305.5 -50 q-92 0 -171 20.5t-136 64.5t-90 116.5t-33 177.5q0 76 29 157.5t79 159.5t117.5 148.5t145.5 124t163 84t167 30.5q70 0 124 -23.5t88.5 -62.5t53 -89t18.5 -103q0 -70 -32.5 -139.5t-90 -128t-136.5 -98.5t-173 -50q96 41 170 93t124 109.5t75.5 118t25.5 117.5 q0 109 -72.5 170.5t-183.5 61.5q-96 0 -192 -43t-182 -116t-155 -169t-108 -203q-14 -37 -19 -72.5t-5 -66.5q0 -160 104.5 -261.5t309.5 -101.5q141 0 272 45t250 121q121 78 230.5 178.5t213.5 216.5q98 111 184.5 234l161.5 240q76 117 138.5 230.5t110.5 211.5t77 176 t37 121q4 33 7 63.5t3 59.5q0 57 -22.5 110.5t-67.5 95.5t-111.5 66.5t-154.5 24.5q-70 0 -150 -24.5t-160.5 -73t-155.5 -117t-132.5 -157.5t-92 -195.5t-34.5 -229.5q0 -80 40 -130t126 -50q102 0 201.5 52t188.5 137t160.5 192.5t118.5 218.5q-33 -121 -94 -234.5 t-147 -200.5t-195.5 -140.5t-234.5 -53.5q-94 0 -146.5 52.5t-52.5 144.5q0 152 59.5 302t162 270t240.5 195t296 75q125 0 209 -37t134 -97.5t71.5 -139.5t21.5 -163q0 -96 -25 -202q-10 -61 -37.5 -131t-67.5 -146t-87 -152.5t-98 -150.5l245.5 239.5l243.5 249.5 q80 150 169 286t194 253q20 23 42.5 34t43.5 17q25 -12 11 -54t-58 -108.5t-115.5 -153.5t-163.5 -188l-57.5 -119.5t-57.5 -109.5q-39 -63 -93 -182l-122 -264q78 80 158 150.5t160 125.5l78.5 54.5l72.5 50.5q129 163 268 292zM1638 14q106 139 196.5 298t176.5 331 q-94 -117 -170 -228.5t-126 -198.5t-71.5 -142.5t-5.5 -59.5zM2875 2073q-33 -4 -67.5 -37t-69.5 -85.5t-69.5 -119l-69.5 -139.5q104 117 176.5 215t99.5 166zM2685 356q4 10 10 20.5t12 22.5q-6 -10 -11 -21.5t-11 -21.5z" />
<glyph unicode="&#x417;" horiz-adv-x="2062" d="M1186 2q-63 -14 -140 -17t-137 -1q-123 -186 -283.5 -285.5t-328.5 -134.5q-131 -27 -256 -17.5t-229.5 50.5t-180 109.5t-106.5 160.5q53 -98 135 -165t183.5 -102.5t215 -40.5t230.5 19q184 37 339.5 138.5t250.5 269.5q-80 2 -152 13t-137 28q-135 35 -234.5 95 t-171.5 142q-104 125 -118.5 283t69.5 317q63 123 181 202t257 108q135 31 240 14q106 -18 201.5 -79.5t157 -151t75 -198t-42.5 -218.5q-27 -49 -70.5 -97.5t-127.5 -78.5q4 -92 -19.5 -186.5t-60.5 -168.5q27 -4 63.5 -2t76.5 8.5t82 14.5t79 16q119 23 233.5 93.5 t216 169t183.5 217t133 236.5t66.5 226.5t-17.5 187t-117 119.5q-10 4 -20 9q-4 -4 -9 -7q-82 -59 -167 -98q-35 -20 -76 -17t-66.5 21.5t-22.5 50t60 72.5q152 27 254 8q4 -2 8 -2q70 49 152 121q94 84 184 211q53 76 108.5 144.5l110.5 134.5q-25 0 -72 11t-94 33.5 t-81.5 56.5t-34.5 81q0 25 2 39t5 27.5t6 32t3 54.5q0 25 -6 51.5t-24.5 50t-53.5 41t-92 27.5q0 -129 -34 -272t-99 -279q-66 -137 -156 -257.5t-207 -213.5q-123 -94 -261 -145t-292 -51q-113 0 -183.5 57.5t-70.5 173.5q0 113 34 214.5t93.5 192.5t140 170t173.5 144 q123 86 265 150.5t290 99.5q72 16 140.5 25.5t133.5 9.5q0 68 -24.5 128t-73.5 106t-125 73t-180 27q-92 0 -193.5 -23.5t-208 -72t-216 -124t-216.5 -180.5q82 98 185.5 177t216 132.5t228.5 82t224 28.5q188 0 299 -89t117 -265q131 -6 210 -68.5t79 -201.5v-27 q0 -20 -2 -27q0 -102 46 -137t134 -35q72 86 141.5 148.5t137 109.5t132 83l125.5 69q35 14 74 27.5t74 13.5q29 0 45 -9.5t16 -31.5q0 -14 -23.5 -58.5t-83 -101.5t-161.5 -120.5t-260 -116.5q-98 -35 -205 -41q-57 -63 -109.5 -130t-99.5 -137q-37 -53 -93 -119.5 t-128 -134.5q-55 -51 -119 -100q68 -20 113 -55q61 -49 86.5 -121t28 -154t-14 -167t-42 -157.5t-55.5 -128t-50 -77.5q-61 -88 -149.5 -162t-195 -132t-225 -100t-239.5 -67zM1966 2447q-39 0 -112.5 -11t-169 -35.5t-204 -63.5t-217 -95.5t-207 -131t-175 -171 t-121.5 -214t-45 -261.5q0 -104 64.5 -158.5t170.5 -54.5q182 0 327.5 77t256.5 192q106 111 191 254t139 280q25 63 44 125t32.5 114t19.5 91.5t6 62.5zM1149 510q29 61 29 133q0 117 -47.5 221.5t-130 178t-195.5 106.5t-242 6q-133 -27 -242.5 -102.5t-160.5 -175.5 q-43 -86 -55.5 -169t3 -160t54.5 -145.5t96 -126.5q59 -59 136 -106t160 -81t170 -54.5t167 -26.5q33 66 55.5 158t18.5 184q-70 -12 -130.5 -13t-109.5 21q-23 8 -52.5 33t-52 57.5t-30.5 71.5t14 80q16 35 49 58.5t68 25.5q59 4 104 -13.5t76 -46t49.5 -64.5t29.5 -70.5 t14 -63.5t3 -43q47 12 90.5 49t61.5 78zM3178 2378q0 27 -38 26q-51 0 -131 -37.5t-171.5 -99t-180.5 -138.5t-158 -157q100 16 183 44t155.5 64t136 81t123.5 98q45 41 63 71t18 48zM963 367q-6 14 -13.5 45.5t-18.5 68.5t-27.5 74t-42 65.5t-62.5 42t-88 1.5 q-27 -4 -47.5 -19.5t-30.5 -38.5q-14 -27 -8 -49q14 -68 49 -111t81 -64.5t100.5 -23t107.5 8.5zM1737 1241q51 25 127 76q-72 14 -172 2q-41 -4 -63.5 -22.5t-26 -38t14 -37t58.5 -21.5q11 14 62 41z" />
<glyph unicode="&#x418;" horiz-adv-x="2369" d="M2943 2222q0 -39 -39 -108q-68 -100 -162 -211l-205 -230l-112.5 -118.5l-116.5 -118.5l-117.5 -116.5l-117.5 -115.5l-113.5 -110.5l-110.5 -104.5l-101 -98l-93 -88l-55.5 -77l-51.5 -69q-47 -61 -86 -133q-35 -66 -55 -141q-20 -74 -21 -174q0 -84 44 -135 q43 -53 129 -54q98 0 208 52q117 51 234 131q59 41 116.5 86t114.5 98q57 51 106.5 103.5t94.5 105.5q43 53 78 104.5t61 102.5q53 100 54 172q0 88 -39 127q-37 37 -103 37q-68 0 -160 -41q-88 -39 -174 -123l-71.5 -70l-69.5 -69q-35 -35 -66.5 -73l-64.5 -79 q-66 -80 -123 -178q-29 -49 -56.5 -105.5l-56.5 -121.5q14 47 32 91t40 89q43 86 105 172q29 43 63.5 86l73.5 88q37 43 81 87l93 91q94 88 188 133q100 45 174 45q66 0 111 -41q43 -41 43 -137q0 -86 -49 -192q-47 -102 -133 -218q-84 -109 -195 -213q-104 -98 -231 -184 q-121 -80 -250 -129q-127 -49 -240 -49q-61 0 -104 25q-39 20 -70 63q-27 37 -39 92q-12 51 -12 115q0 51 12 117t45 127l-61.5 -65t-56.5 -56l-57.5 -53.5l-59.5 -53.5t-64.5 -53.5t-72.5 -54.5l-83 -62t-98 -69q-27 -18 -52 -32.5t-52 -23.5q-49 -14 -92 -14 q-90 0 -137 47t-48 127q0 59 25 131q25 70 70 146q39 66 87 135t107 141l120 145.5l128 149.5l132.5 153.5l135.5 157.5q137 156 260 322l32 45t32 49q16 25 30.5 50.5l28.5 51.5q14 27 24.5 53.5t20.5 55.5q16 55 17 102q0 72 -45 129q-47 57 -156 78q-10 2 -22.5 3 t-24.5 1q-12 2 -24.5 2h-26.5q-96 0 -232 -39q-139 -41 -286 -112q-76 -35 -150 -79t-147 -97q-74 -51 -140.5 -108.5t-126.5 -123.5q-117 -127 -190 -276q-74 -152 -74 -316q0 -23 3 -42t7 -40q4 -18 12.5 -34.5t18.5 -30.5q25 -31 53 -47q37 -16 82 -17q106 0 211 48 q104 47 193 120q47 37 90 80t84 90t79 95.5t72 97.5l67 97t60 95q29 47 52.5 89l44.5 77q-16 -76 -62 -170q-23 -47 -51.5 -96t-62.5 -100q-35 -51 -74 -100.5t-84 -98.5q-90 -100 -189 -174q-102 -78 -208 -123q-111 -47 -218 -47q-55 0 -94 18t-63 52q-25 31 -37 73 q-10 47 -10 90q0 137 61 277q57 135 162 268q51 66 111.5 125t130.5 117q139 115 292 198q152 82 318 136q162 51 319 55h37q10 -2 18.5 -2t18.5 -2q72 -12 127 -41q49 -27 84 -68q29 -37 45 -86q12 -47 12 -98q0 -57 -16 -127q-14 -61 -43 -125q-12 -29 -25.5 -57.5 t-29.5 -55.5t-30.5 -49l-29.5 -43q-66 -92 -134.5 -177l-139.5 -167l-143.5 -157.5l-143.5 -155.5l-136.5 -153.5l-129.5 -153.5q-127 -156 -221 -322q-23 -43 -31 -72q-6 -31 -6 -55q0 -106 114 -106q43 0 97 18q47 14 92 47l150.5 112.5t154.5 127.5q156 131 313 313 q66 123 143 238.5t163 230.5l172 220.5l174 203.5l171 187.5t167 166.5l151.5 142.5l128.5 117.5q37 31 67.5 53.5t57.5 33.5q55 23 82 22q41 0 41 -41zM2922 2214q0 27 -28 27q-25 0 -70 -25q-23 -10 -49.5 -29.5t-58.5 -48.5q-41 -35 -83 -76l-87 -88l-185 -202 l-94 -109.5l-94 -116.5l-178 -233l-83 -112.5l-79 -108.5l-70.5 -101.5l-62.5 -93.5q39 35 82 78l94 90l101.5 98l107.5 105l111.5 108.5l113.5 112.5l219 225l195 213l82 96t65 86q51 70 51 105z" />
<glyph unicode="&#x419;" horiz-adv-x="2369" d="M2943 2222q0 -39 -39 -108q-68 -100 -162 -211l-205 -230l-112.5 -118.5l-116.5 -118.5l-117.5 -116.5l-117.5 -115.5l-113.5 -110.5l-110.5 -104.5l-101 -98l-93 -88l-55.5 -77l-51.5 -69q-47 -61 -86 -133q-35 -66 -55 -141q-20 -74 -21 -174q0 -84 44 -135 q43 -53 129 -54q98 0 208 52q117 51 234 131q59 41 116.5 86t114.5 98q57 51 106.5 103.5t94.5 105.5q43 53 78 104.5t61 102.5q53 100 54 172q0 88 -39 127q-37 37 -103 37q-68 0 -160 -41q-88 -39 -174 -123l-71.5 -70l-69.5 -69q-35 -35 -66.5 -73l-64.5 -79 q-66 -80 -123 -178q-29 -49 -56.5 -105.5l-56.5 -121.5q14 47 32 91t40 89q43 86 105 172q29 43 63.5 86l73.5 88q37 43 81 87l93 91q94 88 188 133q100 45 174 45q66 0 111 -41q43 -41 43 -137q0 -86 -49 -192q-47 -102 -133 -218q-84 -109 -195 -213q-104 -98 -231 -184 q-121 -80 -250 -129q-127 -49 -240 -49q-61 0 -104 25q-39 20 -70 63q-27 37 -39 92q-12 51 -12 115q0 51 12 117t45 127l-61.5 -65t-56.5 -56l-57.5 -53.5l-59.5 -53.5t-64.5 -53.5t-72.5 -54.5l-83 -62t-98 -69q-27 -18 -52 -32.5t-52 -23.5q-49 -14 -92 -14 q-90 0 -137 47t-48 127q0 59 25 131q25 70 70 146q39 66 87 135t107 141l120 145.5l128 149.5l132.5 153.5l135.5 157.5q137 156 260 322l32 45t32 49q16 25 30.5 50.5l28.5 51.5q14 27 24.5 53.5t20.5 55.5q16 55 17 102q0 72 -45 129q-47 57 -156 78q-10 2 -22.5 3 t-24.5 1q-12 2 -24.5 2h-26.5q-96 0 -232 -39q-139 -41 -286 -112q-76 -35 -150 -79t-147 -97q-74 -51 -140.5 -108.5t-126.5 -123.5q-117 -127 -190 -276q-74 -152 -74 -316q0 -23 3 -42t7 -40q4 -18 12.5 -34.5t18.5 -30.5q25 -31 53 -47q37 -16 82 -17q106 0 211 48 q104 47 193 120q47 37 90 80t84 90t79 95.5t72 97.5l67 97t60 95q29 47 52.5 89l44.5 77q-16 -76 -62 -170q-23 -47 -51.5 -96t-62.5 -100q-35 -51 -74 -100.5t-84 -98.5q-90 -100 -189 -174q-102 -78 -208 -123q-111 -47 -218 -47q-55 0 -94 18t-63 52q-25 31 -37 73 q-10 47 -10 90q0 137 61 277q57 135 162 268q51 66 111.5 125t130.5 117q139 115 292 198q152 82 318 136q162 51 319 55h37q10 -2 18.5 -2t18.5 -2q72 -12 127 -41q49 -27 84 -68q29 -37 45 -86q12 -47 12 -98q0 -57 -16 -127q-14 -61 -43 -125q-12 -29 -25.5 -57.5 t-29.5 -55.5t-30.5 -49l-29.5 -43q-66 -92 -134.5 -177l-139.5 -167l-143.5 -157.5l-143.5 -155.5l-136.5 -153.5l-129.5 -153.5q-127 -156 -221 -322q-23 -43 -31 -72q-6 -31 -6 -55q0 -106 114 -106q43 0 97 18q47 14 92 47l150.5 112.5t154.5 127.5q156 131 313 313 q66 123 143 238.5t163 230.5l172 220.5l174 203.5l171 187.5t167 166.5l151.5 142.5l128.5 117.5q37 31 67.5 53.5t57.5 33.5q55 23 82 22q41 0 41 -41zM2922 2214q0 27 -28 27q-25 0 -70 -25q-23 -10 -49.5 -29.5t-58.5 -48.5q-41 -35 -83 -76l-87 -88l-185 -202 l-94 -109.5l-94 -116.5l-178 -233l-83 -112.5l-79 -108.5l-70.5 -101.5l-62.5 -93.5q39 35 82 78l94 90l101.5 98l107.5 105l111.5 108.5l113.5 112.5l219 225l195 213l82 96t65 86q51 70 51 105zM2548 2425q-39 -72 -72 -116t-63.5 -68.5t-61.5 -35t-67 -14.5 q-66 -10 -114 26t-63 85q-8 23 -7 47.5t10.5 46t23.5 36.5t33 22q39 6 53 -39q8 -25 0 -43.5t-24.5 -31.5t-34 -21.5t-23.5 -12.5q25 -55 66 -76.5t84 -15.5t79.5 27.5t66.5 52t51.5 63.5t31.5 62z" />
<glyph unicode="&#x41a;" horiz-adv-x="2709" d="M3361 2226q0 -141 -90 -260q-88 -115 -246 -217q-154 -98 -363 -184l-214.5 -85t-231.5 -83q-16 -16 -33.5 -36l-38.5 -42q-20 -23 -42.5 -43.5l-47.5 -42.5q-47 -41 -102 -78l-55.5 -31.5t-57.5 -25.5q27 -31 35 -58q10 -31 10 -61q0 -66 -33 -137q-35 -78 -79 -146 l-46.5 -69.5t-50.5 -69.5l-45 -64.5t-37 -58.5q-35 -59 -55 -123q-18 -61 -18 -110q0 -45 20 -72q25 -31 53 -47q31 -14 72 -25q39 -6 78 -6q88 0 190 31q51 14 101.5 34.5t101.5 47.5q98 51 195 125q92 70 166 157q72 84 114 181q43 94 43 190q0 92 -39 133q-37 41 -121 41 q-96 0 -188 -41q-86 -39 -166 -108q-80 -68 -143 -152q-33 -41 -60.5 -84t-52.5 -88q-49 -90 -80 -172q-31 -86 -43 -145q6 57 35 147q27 86 74 178q23 47 51.5 92.5t60.5 90.5q33 45 68 86t76 75q39 35 82 64t90 51q94 43 201 43q100 0 143 -59t43 -148q0 -96 -43 -194 q-39 -94 -113 -187q-35 -45 -78 -86t-90 -80q-96 -78 -202 -135q-53 -29 -108.5 -51t-113.5 -39q-111 -33 -219 -33q-133 0 -209 58q-76 55 -75 192q0 76 36 172q10 27 30 58.5t48 70.5l57.5 79l57.5 81t54.5 81t47.5 81q45 76 45 133q0 37 -24 59l-47.5 -15t-44.5 -13 q-41 -12 -84 -13q-74 0 -74 33q0 23 18 39q10 6 20.5 13.5t24.5 11.5q12 4 25.5 7t28.5 7q14 2 25.5 3t21.5 1q35 0 61 -8q14 -4 28.5 -11.5t29.5 -17.5q49 23 88 56l32.5 29.5t30.5 31.5l25.5 32.5l25.5 32.5l24.5 34t27.5 34l-50 -12l-37.5 -9.5t-46.5 -13.5l-48 -13 l-54 -15q-27 -8 -52.5 -16.5l-49.5 -16.5q-43 -14 -84 -25q-16 -4 -28.5 -8t-16.5 -6l-76 -116.5l-88 -129.5q-45 -68 -95.5 -135.5l-103.5 -136.5q-109 -139 -229 -266q-59 -66 -124 -122.5t-132 -107.5q-131 -98 -281 -160q-147 -59 -301 -59q-84 0 -123 43 q-37 39 -37 111q0 98 56 200q27 51 64.5 100.5t84.5 100.5q94 98 232 197q66 47 139.5 92l152.5 90q80 45 164 85t176 79q180 76 369 135l67.5 87l55.5 75l49.5 66.5l46.5 62.5l99 129l59.5 74.5l73.5 87.5q-59 -16 -103 -17q-72 0 -114 21q-45 23 -66 55q-23 33 -31 80 q-8 41 -8 94q0 45 -22 80q-10 16 -25.5 29.5t-34.5 23.5q-33 20 -82 31q-41 8 -94 8q-82 0 -186 -31q-102 -31 -209 -86l-105.5 -60.5t-103.5 -70.5q-100 -74 -180 -162q-80 -90 -129 -184q-47 -98 -47 -192q0 -63 20 -107q23 -45 57 -72q16 -14 38 -23l46 -18 q45 -12 103 -12q121 0 221 47q96 45 180 123q82 76 152 170l67.5 93l65.5 94l-49.5 -96.5t-59.5 -100.5q-63 -96 -153 -180q-88 -80 -195 -131q-104 -51 -229 -52q-129 0 -217 68q-86 63 -86 203q0 72 41 164q39 88 114 182q35 45 78 89t90 87q98 86 209 152 q55 33 113.5 59.5t118.5 46.5q117 39 235 39q84 0 148 -21q63 -18 118 -59q53 -41 80 -100q29 -63 29 -146q0 -55 29 -78t71 -22q35 0 78 12q23 6 44.5 15.5l43.5 19.5l92 96t90 84t98.5 73t112.5 62q45 23 80 23q27 0 27 -18q0 -6 -10 -31q-8 -14 -39 -43 q-47 -41 -95.5 -78t-99.5 -70q-49 -33 -105.5 -64.5l-121.5 -66.5l-74 -92t-55 -78l-44.5 -67.5t-39.5 -63.5l-37 -62.5t-35 -64.5t-39.5 -69.5l-52.5 -79.5q4 2 15.5 5t29.5 9q18 4 39.5 10t48.5 15q25 8 51.5 15t55.5 17t56.5 17.5t53.5 15.5l49.5 14.5l42.5 12.5 q20 4 32.5 7l21.5 5l97 112.5l89 112.5l85 110.5l83 106.5l81 99.5t81 93.5t83 83t87 73q88 63 190 104q100 37 225 37q74 0 109 -33q37 -31 37 -86zM3322 2216q0 45 -31 74q-27 27 -88 26q-121 0 -221 -41q-92 -39 -178 -108q-80 -68 -150 -156q-35 -45 -66.5 -91 l-64.5 -93l-63.5 -94l-63.5 -95q-31 -47 -63.5 -89t-67.5 -83q129 37 258 86q66 25 126.5 52.5l119.5 56.5q121 61 219 123q51 33 94 67.5t80 69.5q76 74 117 145q43 74 43 150zM2388 2142q41 31 41 45q-4 6 -8 6q-8 0 -49 -22q-96 -55 -177 -117q-41 -31 -79.5 -67.5 t-75.5 -77.5q33 16 61.5 31.5l55.5 31.5t49 30.5l43 29.5q20 14 38.5 28.5t34.5 28.5l33 27.5zM1761 1098q-47 29 -94 28q-6 0 -27 -4q-14 -2 -32 -10q-20 -8 -29 -14q-12 -10 -12 -19q0 -4 8 -10q6 -6 35 -6q41 0 82 12q20 4 36.5 10.5zM1417 1176l-282 -111l-152 -64.5 l-154 -70.5q-147 -70 -292 -158q-72 -41 -134.5 -87t-117.5 -93q-111 -98 -174 -207q-66 -109 -66 -231q0 -59 37 -86q33 -27 82 -31q143 6 278 72q66 33 130.5 73.5t123.5 91.5q119 100 226 226q53 61 101 122.5l95 125.5l86 120.5l80 116.5l71.5 104.5z" />
<glyph unicode="&#x41b;" horiz-adv-x="3731" d="M3381 1972q-141 -147 -290.5 -208.5t-337.5 -51.5q-78 4 -140.5 18.5l-126 30t-133 29.5t-160.5 20q-178 12 -344 -17.5t-295 -98t-211 -172.5q-29 -37 -49 -76q86 -31 158 -82q90 -63 145.5 -160.5t55.5 -228.5v-21q119 0 252 37q156 45 297 111l196 94 q-82 -51 -180 -100t-202.5 -87t-209.5 -61q-82 -16 -155 -16q-8 -80 -41 -154q-43 -94 -121 -165.5t-188.5 -115.5t-247.5 -44q-55 0 -126 14t-134.5 47t-107.5 88t-44 139q0 63 27.5 111.5t69.5 81.5t91.5 50t92.5 17q63 0 102 -20v-4q-43 16 -86 16q-45 0 -92 -14t-87 -45 t-65.5 -80t-25.5 -119q0 -68 38.5 -117t99 -80.5t132.5 -47t139 -15.5q102 0 200.5 38t175.5 105.5t122 159.5q37 72 45 154q-6 2 -12 2q-84 6 -156 33.5t-124 73.5t-80.5 109.5t-24.5 139.5q4 74 30 142q-10 2 -20 6q-102 27 -195 26q-166 0 -327.5 -57t-289.5 -162.5 t-208 -252t-80 -324.5q0 -170 68.5 -299t181.5 -218.5t258 -139.5t301 -58q141 0 275.5 27.5t250.5 72.5q166 66 317.5 161t276.5 196q74 59 131.5 111t110.5 105.5l109.5 115l126.5 139.5q8 8 49 53l89 97l89 96l51 55q129 131 279 266l153.5 133.5t165.5 132.5 q86 66 179 129.5t194 122.5q25 18 65.5 29.5t73.5 11.5q63 0 94 -37l-100.5 -104.5l-135 -147.5l-155.5 -175l-164 -185q-41 -45 -86 -100.5l-89 -110.5l-86 -107.5l-73 -93.5l-123.5 -168t-129 -188t-100.5 -203.5t-40 -214.5q0 -80 39 -133t115 -57q27 86 84 190 t139 195.5t184.5 153t219.5 61.5q66 0 103.5 -36t37.5 -89q0 -98 -65.5 -187.5t-172 -159t-239.5 -110.5t-269 -41q-4 -10 -13 -68.5t-9 -130.5q0 -35 2 -71.5t12 -73.5h-20q-8 45 -11.5 83t-3.5 66q0 47 2 97.5t13 97.5q-119 6 -178.5 88t-59.5 215q0 88 41 186.5 t95.5 189.5t109.5 168t86 124l215 246l217 241.5l188 204.5l127 137l110.5 110.5l104.5 96.5q-8 8 -30 8q-31 0 -80 -23.5t-106.5 -60.5t-117 -80l-110.5 -81q-152 -117 -301 -252q-150 -131 -287 -275l-302 -323.5t-297.5 -310t-331 -279.5t-400.5 -230 q-156 -70 -316.5 -108.5t-326.5 -38.5q-147 6 -303 58.5t-283 147.5t-208 230t-81 309q0 152 70 301.5t196 268.5t303 192.5t390 73.5q117 0 229 -33q6 -2 13 -2q20 39 47 78q80 111 219 186.5t329.5 111.5t419.5 21q127 -8 245 -36.5t247 -36.5q115 -6 205 8t161.5 43 t131 65.5t112.5 73.5zM3639 465q0 37 -21.5 65.5t-78.5 28.5q-84 0 -177 -46t-179 -125t-156 -184.5t-107 -223.5q72 0 153 16t161 46t152.5 73t129 96t90 117.5t33.5 136.5zM1622 981q0 131 -56.5 222t-144.5 149q-63 43 -137 69q-27 -68 -31 -143q-4 -53 16.5 -107.5 t65.5 -99.5t115 -76.5t166 -38.5h6v25z" />
<glyph unicode="&#x41c;" horiz-adv-x="4202" d="M1522 150q-156 -70 -317 -109t-326 -39q-147 6 -303 58.5t-283 147.5t-208 230t-81 310q0 152 69.5 301t195.5 268t303.5 192.5t390.5 73.5q109 0 213 -29q74 109 200 189q133 86 321.5 133t418.5 47q63 0 124.5 -7l122 -14.5l122 -14.5t126.5 -7q115 0 204 20.5 t159.5 53.5t127 72.5t107.5 80.5q-133 -156 -277.5 -226.5t-334.5 -70.5q-78 0 -141.5 10.5l-127 21.5t-134 21.5t-160.5 10.5q-180 0 -344 -40t-289 -116q-119 -72 -191 -172q100 -33 183 -92q90 -63 145 -160.5t55 -228.5q0 -39 -6 -76q31 4 62 10q74 14 147.5 39 t147 58.5t141.5 70.5l190 105q-78 -55 -173 -110.5t-197.5 -99.5t-204.5 -73q-59 -16 -117 -22q-12 -51 -33 -99q-43 -94 -120.5 -165.5t-188.5 -115.5t-248 -44q-55 0 -125.5 14t-134 47t-107.5 88.5t-44 138.5q0 63 27.5 111.5t69.5 81.5t91 50.5t92 17.5q63 0 103 -21v-4 q-43 16 -86 16q-45 0 -92.5 -14t-87.5 -45t-65.5 -80t-25.5 -119q0 -68 39 -117t99.5 -80.5t132 -47t139.5 -15.5q102 0 200.5 38t175 105.5t122.5 159.5q23 45 34 95h-47q-84 0 -157.5 23.5t-129 66.5t-88 104.5t-32.5 136.5q0 127 65 236q-96 25 -182 24q-166 0 -328 -57 t-290 -162.5t-207.5 -252t-79.5 -324.5q0 -170 68.5 -299t181 -218t258 -139.5t301.5 -58.5q141 0 275 27.5t251 72.5q166 66 317.5 161t276.5 196q74 59 130 110.5l110.5 105.5t109.5 115.5l127 139.5l59 67l97.5 111.5l123 142.5l135 157l136.5 155.5l124 141l97 112 t60 67.5q188 209 372 379l-128 -206.5t-119 -209.5l-228 -424l-45 -83l-71.5 -129.5l-72.5 -131l-46 -84.5q-61 -111 -129 -217l-140 -209l80 90l145.5 162l173.5 194.5l173 192.5l144.5 160l84.5 94l199.5 205.5l200.5 198.5l198 186q96 88 201 172l-66 -86l-104 -137 l-350 -467l-64 -88l-62 -89.5l-102.5 -149.5l-124 -179l-124 -180l-103.5 -151.5t-61 -92.5q-154 -238 -154 -412q0 -104 62.5 -148t185.5 -44q100 0 205.5 39t207 104.5t191.5 151.5t156.5 180t106.5 190.5t40 182.5q0 66 -40 98.5t-103 32.5q-92 0 -181.5 -43t-170 -110.5 t-152.5 -149.5t-128 -161t-96 -144.5l-61 -98.5q29 66 75 147t106.5 163t132 160.5t150.5 139t163 97.5t168 37q68 0 114 -35t46 -125q0 -98 -36 -192.5t-94.5 -180.5t-133 -162.5t-154.5 -138t-159 -106.5t-144 -70q-109 -39 -223 -39q-51 0 -106.5 11.5t-101.5 46t-76 98 t-30 168.5q0 76 29 170t94 196q16 25 53 77l84 117.5l99.5 138.5l99.5 137.5l85 114.5t54 73q14 18 54 65l90.5 108.5l107.5 129l108.5 128l91.5 108l56 65.5l-134.5 -120.5t-137.5 -135.5l-101.5 -108.5l-151.5 -165l-183 -201.5l-197 -217l-191 -211l-165 -185l-123 -136 l-62 -68l-149.5 -162l-149.5 -154l-28 4q143 184 282 412l65.5 107.5l109 180l130 216l131 218l111.5 184.5l70 114q86 141 180 280.5l199 286.5q-166 -166 -322 -352l-69.5 -84l-112 -134l-132 -159l-133 -159.5l-111.5 -134l-69 -83.5q-78 -94 -157.5 -180l-161.5 -172 q-41 -41 -123 -111.5t-184.5 -144.5t-214 -139t-209.5 -96zM1128 1284q0 -53 24 -106.5t71 -96.5t118.5 -69.5t167.5 -26.5h45q8 41 9 86q0 131 -56.5 222t-144.5 149q-78 53 -168 80q-66 -107 -66 -238z" />
</font>
</defs>
</svg>
