<?xml version="1.0" standalone="no"?>
<!DOCTYPE svg PUBLIC "-//W3C//DTD SVG 1.1//EN" "http://www.w3.org/Graphics/SVG/1.1/DTD/svg11.dtd" >
<svg xmlns="http://www.w3.org/2000/svg">
<metadata>
This is a custom SVG webfont generated by Font Squirrel.
Copyright   : Copyright c Gophmann Alexandra Leopoldovna 2005 All rights reserved
Designer    : Gophmann AL
Foundry     : Gophmann Alexandra Leopoldovna
</metadata>
<defs>
<font id="CorinthiaRegular" horiz-adv-x="1099" >
<font-face units-per-em="2048" ascent="1638" descent="-410" />
<missing-glyph horiz-adv-x="710" />
<glyph unicode=" "  horiz-adv-x="710" />
<glyph unicode="&#x09;" horiz-adv-x="710" />
<glyph unicode="&#xa0;" horiz-adv-x="710" />
<glyph unicode="!" horiz-adv-x="1208" d="M281 38q0 115 125 118q120 -3 120 -118q0 -116 -120 -116q-125 0 -125 116zM571 503q0 82 420 899q392 760 512 951q5 9 14 9q29 0 97.5 -48t68.5 -72l-31 -42l-130 -203q-521 -822 -753 -1272q-28 -64 -92 -194q-28 -64 -73 -61q-33 0 -33 33z" />
<glyph unicode="&#x22;" horiz-adv-x="752" d="M262 2025q101 14 144 14q9 0 14 -5v-9q0 -64 -36.5 -286t-55.5 -259q-9 -19 -28 -22q-14 0 -14 41q0 328 -24 526zM595 2025q101 14 144 14q9 0 14 -5v-9q0 -64 -35.5 -286t-54.5 -259q-9 -19 -31 -22q-14 0 -14 41q0 328 -23 526z" />
<glyph unicode="#" horiz-adv-x="3063" d="M9 647q0 23 15 35q217 135 807 208q130 368 318 748q-144 -10 -465 -106.5t-434 -96.5q-28 0 -28 49q0 24 14 33q262 161 968 227q342 663 469 736q14 10 43 10q115 0 115 -64l-424 -668q342 19 700 12q329 637 454 710q14 10 44 10q116 0 116 -64l-425 -668 q550 -33 687 -94q57 -31 57 -123q0 -59 -38 -57q9 0 -253 38q-290 43 -549 73q-208 -354 -345 -663q729 -19 920 -106q59 -28 57 -120q0 -59 -42 -59q23 0 -334.5 53t-666.5 79q-189 -475 -189 -871q0 -24 -33 -24q-54 0 -54 83q0 319 174 821q-266 19 -498 19 q-148 0 -280 -9q-199 -489 -199 -890q0 -24 -33 -24q-54 0 -54 83q0 319 175 821q-111 -9 -389.5 -99t-370.5 -90q-29 0 -29 48zM951 904q368 38 784 28q125 335 295 682q-359 29 -628 29h-69q-231 -402 -382 -739z" />
<glyph unicode="$" horiz-adv-x="1758" d="M382 725q0 9 5 9q14 -9 28 -38q102 -156 310 -170q96 354 261 746q-382 231 -382 444q0 217 347 391q290 140 548 149q129 213 170 215q59 0 56 -54q0 -15 -106 -175q189 -38 184 -236l68 38q38 0 38 -29q0 -42 -42 -87q-88 -78 -257 -255q-59 -82 -97 -82q-29 0 -29 33 q0 23 125.5 186t125.5 243q0 102 -163 123q-300 -465 -498 -885q193 -144 241 -198q143 -135 143 -262q0 -180 -207 -300q-180 -106 -371 -106q-68 0 -127 9q-33 -120 -52 -236q0 -38 -14 -111q-10 -28 -36 -28q-19 0 -19 28q0 73 74 357q-236 47 -314 238q-10 28 -10 43z M725 1739q0 -184 290 -406q193 442 434 843q-227 -10 -444 -118q-280 -130 -280 -319zM779 522h28q189 0 364 77q217 102 217 267q0 161 -345 366q-175 -373 -264 -710z" />
<glyph unicode="%" horiz-adv-x="1795" d="M92 19q0 19 52 146q267 652 1147 1685q-69 -23 -137 -23q-83 0 -149 40q-184 -291 -387 -291q-139 0 -139 159q0 231 203 542q-5 43 -5 92q0 144 97 282.5t236 138.5q92 0 144 -116q47 -92 50 -189q0 -217 -170 -552q59 -38 137 -38q134 0 226 83l111 120 q165 189 474 474q29 19 62 19q97 0 97 -59q0 -9 -10 -23l-352 -354q-1165 -1180 -1508 -1888q-28 -59 -96 -258q-10 -23 -45 -23q-38 0 -38 33zM623 1749q0 -78 64 -76q59 0 148 92q78 81 111 149q-129 87 -203 203q-120 -257 -120 -368zM642 97q0 226 203 540 q-10 43 -10 88q0 143 97 281.5t243 138.5q88 0 144 -111q45 -92 45 -194q0 -217 -165 -550q38 -23 38 -40q0 -23 -66 -23q-189 -295 -387 -295q-140 0 -142 165zM765 2388q73 78 129 76q64 0 88 -38q0 -9 4.5 -21t4.5 -21q0 -15 -45 -15q-73 0 -148 -155q54 -149 184 -246 q101 250 101 416q0 87 -30 181q-38 125 -107 128q-92 0 -144 -111q-37 -92 -37 -194zM788 106q0 -78 62 -78q59 0 151 92q78 83 111 151q-135 88 -203 203q-121 -250 -121 -368zM927 743q69 78 133 78q63 0 85 -37q0 -5 4 -19v-26q0 -10 -37 -10q-74 0 -154 -153 q54 -156 187 -253q96 255 96 420q0 88 -28 180q-38 125 -101 125q-92 0 -144 -111q-38 -87 -41 -194z" />
<glyph unicode="&#x26;" horiz-adv-x="2647" d="M33 387q0 378 392 661q236 174 729 363q-439 29 -439 236q0 309 474 512q378 170 739 170q194 0 349 -68q203 -83 203 -250q0 -69 -26 -121q-37 -73 -125 -73q-19 0 -19 24q0 9 24 64.5t24 100.5q0 130 -182 194q-130 42 -300 42q-304 0 -625 -144q-383 -179 -380 -451 q0 -160 290 -158q87 0 246.5 31t211.5 31q68 0 68 -38q0 -33 -92 -61l-285 -83q-1126 -354 -1126 -968q0 -226 198 -347q166 -106 406 -108q460 0 895 214q531 258 531 661q0 97 -33 199l-406 -78q-262 -59 -397 -149q-179 -120 -179 -333q0 -28 -19 -30q-38 0 -40 40 q0 368 281 512q130 63 585 134q387 64 522 203q42 43 44 78q0 33 -41 60t-41 42q0 23 19 23q47 0 88 -60t41 -114q0 -189 -387 -305q59 -144 59 -278q0 -435 -571 -701q-455 -213 -951 -213q-299 0 -502 116q-251 139 -253 420z" />
<glyph unicode="'" horiz-adv-x="415" d="M262 2025q101 14 144 14q9 0 14 -5v-9q0 -64 -36.5 -286t-55.5 -259q-9 -19 -28 -22q-14 0 -14 41q0 328 -24 526z" />
<glyph unicode="(" horiz-adv-x="1536" d="M184 411q0 677 352 1184q304 444 922 831q170 102 239 102q56 2 52 -57q-562 -231 -984 -833q-435 -614 -437 -1208q0 -590 87 -730q19 -28 19 -47q0 -28 -28 -31q-106 0 -175 350q-47 250 -47 439z" />
<glyph unicode=")" horiz-adv-x="1786" d="M38 -337q550 226 982 826q448 608 450 1189q0 604 -96 758q-15 28 -17 49q0 28 31 28q106 0 167 -347q50 -252 50 -436q0 -677 -349 -1190q-305 -443 -928 -830q-165 -102 -236 -102q-54 0 -54 55z" />
<glyph unicode="*" horiz-adv-x="2893" d="M295 1310q0 28 33 28q276 0 1024 14q-705 730 -705 798q0 9 21 9q5 0 802 -771q19 1019 52 1097q10 19 14 19q29 0 31 -33q0 -290 14 -1055q720 701 788 701q10 0 10 -19q0 -9 -706 -741q130 5 477 26q309 14 484 14q23 0 60 -43.5t37 -72.5v-4q-64 -38 -1107 -36 l502 -453q74 -68 151 -130q97 -96 97 -151q0 -106 -31 -106q-54 0 -757 715q0 -130 19 -479q14 -300 14 -472q0 -23 -43.5 -60t-67.5 -37h-9q-38 64 -29 1081l-465 -512l-129 -148q-92 -97 -151 -97q-102 0 -102 28q0 59 779 826q-1010 14 -1088 50q-19 9 -19 14z" />
<glyph unicode="+" horiz-adv-x="2183" d="M295 1480l24 23q198 24 741 19q-5 92 -17 333q-14 208 -14 335q0 28 36.5 57.5t69.5 29.5l26 -26q24 -193 19 -729q337 -5 743 -33q29 -16 29 -31v-18l-43 -29q-198 0 -729 -4q-9 -659 -35 -711q-15 -28 -38 -28q-10 0 -19 38q-28 101 -28 443v113v126v14q-92 0 -335 -14 q-213 -10 -338 -10q-28 0 -57.5 33t-34.5 69z" />
<glyph unicode="," horiz-adv-x="927" d="M328 -415q0 19 34 53t242 338h-14q-73 -4 -73 107q0 129 156 129q106 0 106 -115q0 -102 -177 -309.5t-265 -207.5q-9 0 -9 5z" />
<glyph unicode="-" d="M92 522q0 68 170 120q78 28 217 31q170 0 448 -41q126 -18 126 -47q0 -33 -126 -40q-87 -5 -259 -14q-144 -19 -456 -42h-23q-97 -5 -97 33z" />
<glyph unicode="." horiz-adv-x="892" d="M526 38q0 115 132 118q121 -3 121 -118q0 -116 -121 -116q-129 0 -132 116z" />
<glyph unicode="/" horiz-adv-x="1430" d="M184 -83q0 38 87 227q383 831 1398 1930q125 140 401 397q28 19 66 19q97 0 97 -59q0 -10 -10 -24l-356 -354q-1166 -1180 -1504 -1888q-28 -59 -101 -257q-9 -24 -40 -24q-38 0 -38 33z" />
<glyph unicode="0" horiz-adv-x="2376" d="M24 493q0 456 406 803q212 174 582.5 321.5t630.5 147.5q125 0 127 -26q0 -14 -40 -19q-725 -73 -1126 -424q-189 -175 -318 -406q-144 -258 -147 -489q0 -460 562 -460q550 0 1140 533q160 144 271 333q135 222 135 401q0 314 -411 314q-536 0 -982 -382q-4 -10 -19 -10 q-18 0 -18 19q0 69 262 215q382 217 729 217q554 -2 554 -432q0 -358 -370 -705q-250 -236 -600 -390q-372 -170 -691 -170q-286 0 -474 158q-203 175 -203 451z" />
<glyph unicode="1" horiz-adv-x="1062" d="M116 -130q0 10 4 24l359 764q208 449 323 772q-23 0 -62 -28t-58 -28t-19 23q0 24 33 57l347 325q10 5 26 5q28 0 65 -27t37 -55l-5 -10q-125 -170 -345 -557q-276 -488 -488 -951q-43 -111 -139 -328q-10 -14 -45 -16q-33 0 -33 30z" />
<glyph unicode="2" horiz-adv-x="1642" d="M-24 47q0 54 222 132q170 64 378 189q328 198 675 508q479 420 479 641q0 194 -189 194q-323 0 -840 -628q-14 -19 -33 -19q-24 0 -26 29v9q33 170 271 387q222 203 402 246q115 23 212 23q304 3 304 -274q0 -179 -144 -354q-82 -96 -290 -269q-28 -23 -484 -330 q-391 -267 -401 -309h135q92 5 141 5q319 0 434 -92q24 -19 24 -38q0 -14 -14 -14q-10 0 -33 9q-161 83 -309 83q-250 0 -628 -133q-245 -82 -238 -80q-48 0 -48 85z" />
<glyph unicode="3" horiz-adv-x="1642" d="M-14 319q0 82 42 82q29 0 31 -23q0 -456 375 -456q319 0 574 242t255 561q0 309 -277 309q-23 0 -82 -21.5t-87 -21.5q-38 0 -38 33q0 73 106 73q14 0 42 -4h50q120 0 309 152t189 268q0 120 -160 120q-161 0 -293 -92t-123 -92q-14 0 -14 21q0 14 19 38 q68 83 227.5 147.5t275.5 64.5q82 0 149.5 -50.5t67.5 -133.5q0 -207 -512 -462q280 -170 280 -427q0 -305 -318 -555q-300 -231 -614 -231q-359 0 -436 236q-38 125 -38 222z" />
<glyph unicode="4" horiz-adv-x="1597" d="M59 668q0 28 106 101q73 43 144 92l649 454q368 276 574 540q63 0 63 -130v-78q-54 -59 -283 -422.5t-229 -403.5q0 -19 152.5 -40t152.5 -61q0 -29 -31 -29q-38 0 -120.5 17t-124.5 17q-48 0 -88 -5q-165 -290 -420 -859q-33 4 -33 56q0 64 149 383q174 377 189 420 q-5 9 -33 9q-144 0 -430 -55.5t-349 -55.5q-38 0 -38 50zM411 835q188 -14 535 -14q33 0 220 345q134 259 208 420q-218 -189 -442 -354q-179 -125 -521 -397z" />
<glyph unicode="5" horiz-adv-x="1593" d="M24 300q0 28 36.5 127t55.5 99q28 0 28 -28q0 -5 -26 -65t-26 -110q0 -347 347 -347q184 0 351.5 94.5t311.5 316.5t144 406q0 175 -74.5 239.5t-248.5 64.5q-170 0 -411 -212q-28 -33 -82 -83q-19 -14 -38 -14q-69 0 -69 57q0 14 154.5 251t180.5 320q-68 42 -68 59 q149 120 158 120q19 0 64 -4h64q110 0 329.5 26t330.5 26t199 -19v-38q-310 -14 -357 -19q-203 -14 -354 -50l-144 -42q-23 0 -78 -26q-73 -54 -217 -352q189 83 383 83q429 0 429 -354q0 -323 -304.5 -627.5t-627.5 -304.5q-179 0 -310 115.5t-131 290.5z" />
<glyph unicode="6" horiz-adv-x="1425" d="M87 387q0 378 411 859q368 434 753 630q38 14 59 14q9 0 9 -4q0 -29 -63 -78l-260 -194q-305 -262 -522 -576q-262 -391 -262 -715q0 -382 281 -382q250 0 464 266.5t214 521.5q0 276 -239 276q-120 0 -245 -87t-147 -87q-14 9 -14 19q0 63 165 151q149 82 218 82 q170 0 280.5 -124t110.5 -291q0 -272 -283 -530t-552 -258q-184 0 -286 167q-92 144 -92 340z" />
<glyph unicode="7" horiz-adv-x="1439" d="M116 83q0 111 170 328q96 129 288 345l384 438q314 368 314 449q0 42 -97 44q-139 0 -377 -82q-213 -78 -354 -161l-71 -61q-47 -38 -87 -40q-43 0 -45 64q0 125 132 179q429 175 812 172q68 0 154 -52t86 -115q0 -107 -613 -725q-522 -526 -590 -949q-19 -4 -28 -4 q-29 0 -55 73q-23 59 -23 97z" />
<glyph unicode="8" horiz-adv-x="1496" d="M-78 208q0 203 248 450q38 43 411 357q-78 160 -78 295q0 212 193 359q180 134 397 134q111 0 222 -45q134 -47 184 -130q354 208 420 208q9 0 9 -5q0 -19 -171 -127.5t-225 -131.5q63 -144 63 -215q0 -42 -23 -42q-29 0 -147 188q-47 -4 -366.5 -234.5t-324.5 -263.5 q116 -203 116 -368q0 -262 -203 -479t-463 -217q-262 0 -262 267zM38 175q0 -180 165 -180q198 0 369 191.5t171 389.5q0 115 -134 347q-165 -97 -352 -333q-217 -262 -219 -415zM614 1374q0 -93 87 -281q175 129 696 483q-78 166 -318 163q-175 0 -310 -96 q-155 -107 -155 -269z" />
<glyph unicode="9" horiz-adv-x="1477" d="M106 923q0 299 392 623q378 314 687 314q295 0 295 -227q0 -179 -97 -231q-19 19 -19 28q0 24 21.5 97t21.5 111q0 170 -218 170q-271 0 -614.5 -327t-343.5 -591q0 -165 151 -165q102 0 276 77q156 74 251 156l328 342q9 10 26 10q23 0 58.5 -34.5t35.5 -57.5 q0 -14 -231 -378q-425 -672 -479 -956q-15 -111 -48 -111q-18 0 -18 43q0 300 429 1161q-134 -116 -319 -212q-217 -107 -363 -107q-222 0 -222 265z" />
<glyph unicode=":" horiz-adv-x="693" d="M300 116q0 115 130 115q120 0 120 -115q0 -116 -120 -116q-130 0 -130 116zM576 642q0 116 120 118q121 -2 121 -118t-121 -116q-120 0 -120 116z" />
<glyph unicode=";" horiz-adv-x="670" d="M97 -415q0 19 34 53t242 338h-14q-73 -4 -73 107q0 129 153 129q106 0 106 -115q0 -102 -175.5 -309.5t-263.5 -207.5q-5 0 -9 5zM677 734q0 116 125 116t125 -116q0 -120 -125 -120t-125 120z" />
<glyph unicode="&#x3c;" horiz-adv-x="1536" d="M411 1237q0 54 252 415q222 314 319 432q42 54 92 52q33 0 33 -29q0 -73 -479 -738q469 -595 469 -649q0 -69 -49 -62l-38 19q-106 144 -276 286l-309 245q-14 10 -14 29z" />
<glyph unicode="=" d="M92 522q0 68 170 120q78 28 217 31q170 0 448 -41q126 -18 126 -47q0 -33 -126 -40q-87 -5 -259 -14q-144 -19 -456 -42h-23q-97 -5 -97 33zM179 894q0 64 168 121q78 23 219 23q170 0 449 -33q125 -19 125 -47q0 -38 -125 -40q-88 -5 -262 -14q-144 -19 -453 -43l-24 -7 q-97 0 -97 40z" />
<glyph unicode="&#x3e;" horiz-adv-x="1536" d="M411 651q0 74 479 741q-475 600 -475 647q0 68 55 64l37 -19q107 -144 269 -278l317 -255q14 -10 14 -29q0 -54 -257 -415q-218 -314 -319 -430q-42 -54 -92 -54q-28 0 -28 28z" />
<glyph unicode="?" horiz-adv-x="2053" d="M696 38q0 115 125 118q125 -3 125 -118q0 -116 -125 -116t-125 116zM701 1669q0 18 28 66q43 68 184 184q494 420 937 420q121 0 228 -80.5t107 -200.5q0 -246 -309 -526l-585 -453q-309 -258 -309 -461q0 -37 28 -47q-5 -82 -59 -82q-87 0 -85 115q0 203 305 508 l559 521q304 290 304 460q0 149 -153 149q-295 0 -609 -172q-281 -156 -498 -397q-24 -23 -54 -26q-19 0 -19 22z" />
<glyph unicode="@" horiz-adv-x="2643" d="M130 909q0 363 309 719q276 319 644 479q241 102 493 102q319 0 531 -161q236 -174 236 -481q0 -116 -37 -252q-69 -236 -281 -461q-236 -250 -458 -250q-267 0 -267 347q0 64 10 132q-267 -479 -479 -479q-125 0 -125 139q0 203 200.5 503t393.5 364q74 23 135 23 q54 0 135.5 -35.5t81.5 -89.5q-24 -9 -66 -38q-43 -59 -83 -243q-33 -165 -33 -259q0 -258 158 -258q64 0 161 50q198 106 345.5 349t147.5 472q0 246 -212 371q-175 101 -442 101q-295 0 -545 -111q-373 -170 -609 -425q-285 -309 -285 -663q0 -342 300 -526 q257 -156 618 -153q337 0 609 125q502 236 743 918q14 33 26 33q19 0 19 -38q0 -262 -295 -623q-271 -333 -531 -465q-231 -111 -507 -111q-421 0 -723 231q-318 251 -318 664zM845 812q0 -83 59 -83q125 0 323 319q144 233 231 455q-14 5 -33 5q-174 0 -377 -258.5 t-203 -437.5z" />
<glyph unicode="A" horiz-adv-x="3624" d="M68 198q0 281 236 517q213 212 503 290q467 130 1466 130h75l635 779q87 125 269 363q19 24 45 24q61 0 61 -54v-5q0 -14 -9 -33q-28 -43 -300 -401l-512 -678q241 -14 474 -66q135 614 347 1150q59 148 194 424q19 34 131 102t150 68q42 -2 42 -44q0 -15 -23 -52 q-411 -687 -683 -1692q218 -69 220 -126q0 -47 -54 -49q-5 0 -87.5 32t-106.5 36q-139 -580 -139 -918q0 -165 47 -165q43 0 118.5 61.5t89.5 61.5q42 0 45 -54q0 -55 -94.5 -110.5t-158.5 -55.5q-184 0 -184 305q0 309 123 904q-246 33 -571 40q-144 -180 -383 -437 q-387 -415 -594 -569q-373 -271 -763 -271q-262 0 -420 116q-189 125 -189 377zM198 208q0 -161 135 -241q111 -73 285 -73q368 0 720 241q227 155 576 523q144 144 300 324h-135q-831 0 -1258 -111q-240 -69 -420 -239q-203 -193 -203 -424z" />
<glyph unicode="B" horiz-adv-x="3044" d="M5 267q0 323 309 531q262 174 604 193q208 479 451 928q78 148 250 424q78 107 248 107q66 0 66 -36q0 -16 -10 -30q-455 -614 -840 -1393q1088 -23 1619 -488q156 203 154 382q0 304 -411 479q-319 130 -675 130h-53h-60q-64 0 -62 42q0 88 140 111q77 10 233 36 q586 120 855 370q110 106 110 184q0 175 -448 262q-294 57 -609 57h-21q-871 0 -1624 -314q-23 -9 -37 -9q-38 0 -38 40q0 59 65 128.5t121 93.5q503 202 1282 202q465 0 861 -87q618 -130 618 -415q0 -231 -377 -420q-281 -144 -585 -194q346 -82 590 -229 q337 -207 337 -486q0 -226 -236 -498q139 -170 142 -248q0 -66 -52 -66h-3q-23 0 -37 24q-74 130 -137 198q-314 -290 -822 -446q-443 -130 -927 -130q-323 0 -614 125q-377 161 -377 442zM217 257q0 -222 295 -349q231 -102 484 -102q1074 0 1619 590q-272 227 -682 357 q-392 120 -767 123q-73 0 -142 -5q-290 -618 -290 -829q0 -14 4.5 -37.5t4.5 -37.5q0 -64 -52 -64q-77 0 -77 130q0 217 247 817q-642 -107 -644 -593z" />
<glyph unicode="C" horiz-adv-x="2492" d="M-24 420q0 397 324 866q382 557 991 923q651 401 1286 401q545 0 545 -377q0 -328 -363 -605q-335 -264 -675 -264h-5q-354 0 -354 269q0 194 87 194q34 0 34 -43q0 -14 -5 -43.5t-5 -43.5q0 -189 248 -189q257 0 580.5 246.5t323.5 487.5q0 236 -401 238q-83 0 -161 -9 q-415 -43 -947.5 -351t-883.5 -718q-392 -465 -392 -890q0 -267 179 -406q161 -125 435 -125q880 0 1706 687q19 14 38 14q59 0 59 -64q0 -23 -19 -42q-354 -323 -836 -552q-531 -251 -963 -251q-354 0 -571 144q-255 169 -255 498v5z" />
<glyph unicode="D" horiz-adv-x="3624" d="M-101 267q0 323 304 531q267 174 609 193q217 508 474 970q78 149 227 382q82 107 245 107q69 0 69 -38q0 -14 -10 -28q-455 -614 -840 -1393q1300 -28 1772 -654q319 222 522 513q236 337 238 677q0 545 -613 835q-475 217 -1088 220q-817 0 -1449 -359q-38 -19 -64 -19 q-64 0 -64 73q0 107 151 187q217 115 661 189q373 59 692 59q715 0 1257 -253q706 -323 706 -956q0 -382 -267 -755q-226 -318 -590 -559q19 -43 19 -69q0 -66 -44 -66h-3q-19 0 -68 76q-725 -434 -1666 -434q-102 0 -194 4q-328 14 -609 135q-377 160 -377 432zM111 257 q0 -217 295 -344q222 -97 484 -107h120q918 0 1633 461q-222 276 -734 448q-460 161 -866 161q-64 0 -125 -5q-290 -618 -290 -829q0 -14 4.5 -37.5t4.5 -37.5q0 -64 -52 -64q-78 0 -78 130q0 217 246 817q-642 -107 -642 -593z" />
<glyph unicode="E" horiz-adv-x="2836" d="M144 1145q0 115 101 155q24 10 277 48q193 266 437.5 483t543.5 397q642 382 1256 382q203 0 322 -55.5t172 -147.5q45 -78 45 -171q0 -17 -2 -34q-10 -113 -64.5 -224t-150.5 -215t-216 -172q-276 -170 -594.5 -242t-597.5 -72q-448 0 -1050 -88q-241 -368 -241 -672 q0 -290 217 -439q185 -135 494 -137q734 0 1614 727q19 14 33 14q64 0 64 -64q0 -23 -19 -42q-359 -328 -843 -552q-521 -251 -960 -251q-354 0 -571 144q-251 166 -251 503q0 338 236 734q-219 -38 -219 -42h2q-33 0 -35 33zM760 1374q208 23 395.5 35t366.5 12 q368 0 658.5 59t535.5 184q449 347 449 578q0 236 -401 238q-494 0 -1107 -358q-541 -319 -897 -748z" />
<glyph unicode="F" horiz-adv-x="3053" d="M-47 1624q0 226 264 387q581 347 1416 347q305 0 939 -66q48 77 154 221q64 74 231 74q64 0 64 -26l-208 -293q465 -43 753 -45q304 0 418 54q37 19 56 19q45 -2 45 -49q0 -163 -606 -163h-15q-318 0 -752 42q-333 -488 -562 -981q156 9 538 68q347 54 526 54 q43 0 43 -30q0 -59 -80 -83q-38 -9 -300 -52q-411 -64 -784 -87q-304 -682 -304 -1001q0 -174 101 -174q43 0 121 56.5t92 56.5q38 0 38 -45q0 -54 -99.5 -109.5t-155.5 -55.5q-222 0 -222 295q0 314 264 972q-106 -5 -212 -5q-1209 0 -1643 402q-120 110 -120 217z M170 1600q0 -276 710 -392q420 -73 909 -73q97 0 193 5q246 576 503 1010q-401 33 -779 35q-1536 0 -1536 -585z" />
<glyph unicode="G" horiz-adv-x="2647" d="M-632 -720q0 798 1536 1426q-59 96 -59 170q0 557 687 1071q550 415 1199 609q14 87 73 87q87 0 139 -106q378 -33 378 -241q0 -63 -65 -155.5t-129 -92.5q-33 0 -33 36q0 5 33 77t33 126q0 134 -168 134q-18 0 -44 -4q-10 -125 -76 -461q-59 -299 -151 -710q59 5 111 5 q245 0 248 -80q0 -48 -78 -50q-24 0 -74.5 4.5t-81.5 4.5q-92 0 -158 -9q-406 -1586 -1624 -2200q-455 -231 -981 -231q-715 0 -715 590zM-439 -658q0 -491 643 -491h8q430 0 817 163q1048 455 1435 2065l-444 -121q-444 -434 -816 -436q-140 0 -227 87 q-1416 -567 -1416 -1267zM1043 866q0 -54 21 -97q406 156 888 295q285 267 498 623q238 402 281 744q-793 -227 -1277 -753q-149 -170 -265 -378q-144 -257 -146 -434zM1171 687q23 -5 51 -5q222 0 498 189q-295 -87 -549 -184zM2181 1126l318 78l97 493 q-184 -309 -415 -571z" />
<glyph unicode="H" horiz-adv-x="3917" d="M-87 198q0 595 981 871q657 182 1451 182h17q175 0 305 -10q250 623 252 925q0 187 -118 187h-2q-64 0 -160.5 -53t-106.5 -53q-28 0 -28 45q0 63 158 125q144 59 234 59q222 0 222 -317q0 -332 -232 -937q425 -59 656 -134l156 347q359 783 614 1078q63 74 231 74 q64 -3 64 -26q0 -10 -10 -24q-604 -802 -913 -1508q309 -149 309 -319q0 -37 -27 -81t-60 -44q-59 0 -59 57q0 14 14 34t14 39q0 97 -241 208q-259 -607 -259 -902v-7q0 -174 101 -174q43 0 119.5 56.5t88.5 56.5q42 0 42 -45q0 -54 -99 -109.5t-163 -55.5q-221 0 -221 295 q0 304 257 939q-257 83 -673 125q-309 -580 -866 -1038q-632 -527 -1208 -529q-333 0 -569 161q-271 184 -271 502zM83 165q0 -250 221 -392q189 -120 449 -120q521 0 1093 496q483 427 759 967q-110 10 -252 10q-729 0 -1352 -175q-918 -257 -918 -786z" />
<glyph unicode="I" horiz-adv-x="2206" d="M24 -87q0 37 49 59q33 14 295 82q392 97 744 149q54 406 405 1135q319 663 619 1079h-83q-42 1 -81 1q-229 0 -400 -20q-604 -73 -604 -232q0 -68 134.5 -146t134.5 -106q0 -38 -48 -38q-14 0 -35 5q-387 184 -385 323q0 106 208 208q276 130 899 130q165 0 347 -10 q59 83 236 83q73 0 73 -28q0 -10 -47 -74q276 -18 555 -59q59 -4 170 -23q52 -14 52 -52t-52 -40l-15 4q-262 29 -793 69q-434 -550 -696 -1043q-377 -715 -460 -1147q246 28 446 28q439 0 531 -101q28 -33 28 -95q0 -82 -47 -82q-82 0 -287.5 46t-306.5 46q-175 0 -378 -22 q5 -139 97 -139q42 0 120 53t92 53q38 0 40 -42q0 -59 -99 -110t-163 -51q-193 0 -212 227q-125 -14 -536 -101q-364 -81 -482 -81h-6q-59 0 -59 62z" />
<glyph unicode="J" horiz-adv-x="2666" d="M-484 -1060q0 236 170 520q290 493 845 776q531 271 1126 271q203 0 413 -33q328 711 328 1440q0 595 -531 595q-484 0 -1083 -446q-638 -470 -640 -923q0 -309 290 -309q170 0 435.5 116.5t270.5 116.5q28 0 31 -35q0 -38 -50 -78q-295 -222 -656 -222q-456 0 -456 475 q0 535 678 991q618 415 1189 415q715 0 715 -691q0 -793 -309 -1489q156 -34 208 -52q144 -52 158 -121q-5 -33 -38 -35q-28 0 -92 36.5t-82 41.5q-48 14 -194 42q-590 -1213 -1831 -1690q-272 -106 -475 -106q-420 0 -420 394zM-304 -1015q0 -304 318 -304q139 0 345 73 q512 193 970 661q420 427 691 963q-156 18 -300 18q-561 0 -1052 -236q-541 -257 -812 -705q-160 -267 -160 -470z" />
<glyph unicode="K" horiz-adv-x="3532" d="M-144 101q0 338 458 749q444 401 774 401q42 0 42 -33q0 -29 -66 -52q-545 -208 -866 -616q-193 -246 -193 -482q0 -304 349 -304q479 0 951 463q354 354 637 885q-226 323 -226 401q0 47 29.5 146t62.5 99q14 0 23 -23q107 -267 203 -435q241 581 243 951 q0 232 -141 234q-64 0 -159.5 -53t-100.5 -53q-33 0 -35 42q0 64 165 130q139 54 227 54q245 0 247 -354q0 -434 -285 -1062q996 456 1269 987q24 42 64 158q14 47 50 50q52 0 52 -64v-10v-14q-33 -599 -1459 -1217q203 -300 517 -635q425 -449 633 -449q110 0 110 121 q0 28 -11.5 84.5t-11.5 70.5q0 43 38 43q82 0 82 -194q0 -101 -62.5 -168.5t-159.5 -67.5q-250 0 -682 420q-281 277 -554 638q-291 -508 -687 -850q-493 -420 -982 -420q-226 0 -373 101q-174 116 -172 328z" />
<glyph unicode="L" horiz-adv-x="3252" d="M47 540q0 144 64 258q78 134 212 134q144 0 503 -333q444 -405 498 -439q245 314 488 1006q-221 -69 -415 -69q-212 0 -363 64q-199 92 -199 274q0 203 359 401q323 179 541 180q54 0 54 -43q0 -27 -53 -43l-174 -49q-585 -198 -585 -437q0 -226 430 -226q212 0 453 78 q129 377 210 559q139 304 314 503q262 309 481 309q304 0 304 -260q0 -276 -313 -609q-251 -262 -560 -441l-295 -149q-139 -387 -231 -585q-165 -359 -330 -517q179 -101 483.5 -175.5t516.5 -74.5q232 0 406 57q246 82 248 262q0 68 -71 133t-71 88q0 38 40 38 q19 0 38 -14q175 -125 175 -281q0 -236 -276 -351q-208 -83 -484 -83q-484 0 -1116 323q-283 -177 -526 -177h-5q-295 0 -523 199.5t-228 489.5zM165 571q0 -231 192.5 -415t426.5 -184q207 0 396 111l-479 377q-387 305 -430 305q-106 0 -106 -194zM2079 1397 q222 87 578 449q383 391 383 590q0 96 -83 96q-33 0 -75 -14q-430 -149 -803 -1121z" />
<glyph unicode="M" horiz-adv-x="5383" d="M-245 1430q0 250 361 543q245 198 585 361q285 135 585 227q425 125 758 127q705 0 705 -538q0 -434 -347 -1107l550 663q416 449 654 449q290 0 290 -435q0 -377 -295 -1092q319 358 701 724q541 512 763 586q63 18 106 18h5q146 0 146 -191q0 -160 -97 -391l-304 -737 q-194 -507 -194 -734q0 -174 130 -174q73 0 186.5 82.5t131.5 82.5q19 0 22 -24q0 -97 -133.5 -170t-234.5 -73q-277 0 -277 326q0 212 116 564q92 262 267 658q68 130 174 397q43 130 43 193q0 52 -30 52h-3q-246 0 -880 -691q-461 -503 -763 -937q-96 -139 -160 -243 q-24 -55 -78 -116q-19 -5 -38 -5q-144 0 -146 116q0 24 17.5 48.5t180.5 369.5q489 1015 489 1458q0 203 -125 203q-203 0 -678 -517q-536 -590 -1005 -1368l-106 -177q-78 -121 -125 -161q-111 0 -111 106q0 33 19 59q266 324 575 1024q338 753 338 1112q0 484 -531 484 q-281 0 -677 -142q-267 -97 -544.5 -246.5t-525.5 -338.5q-368 -286 -365 -467q0 -272 526 -272q106 0 313.5 32t309.5 32q38 0 40 -19q0 -19 -26 -35q-165 -116 -545 -116q-276 0 -474 78q-269 105 -269 337v5z" />
<glyph unicode="N" horiz-adv-x="4271" d="M33 1440q0 396 552 778q416 286 909 439q406 121 743 123q798 0 798 -630q0 -439 -352 -1107l550 663q416 449 654 449q352 0 352 -338q0 -285 -280 -899t-280 -793q0 -144 135 -144q78 0 191 81.5t132 81.5t19 -24q0 -96 -132 -168t-239 -72q-257 0 -257 269 q0 198 144 533q175 392 184 420q102 241 157.5 437t55.5 307q0 169 -121 169q-59 0 -148 -37q-347 -161 -876 -824q-387 -488 -706 -1019q-77 -140 -236 -338q-106 0 -106 106q0 33 14 59q267 324 590 1048q347 779 347 1131q0 521 -618 521q-295 0 -673 -130 q-434 -144 -840 -425q-536 -368 -536 -705q0 -276 371 -276q198 0 538 96q33 10 47 10q38 0 38 -28q0 -83 -250 -140q-198 -47 -328 -49q-541 0 -543 425z" />
<glyph unicode="O" horiz-adv-x="3122" d="M0 1166q0 415 406 767q319 276 788 446q498 182 995 182h11q469 0 788 -173q401 -224 401 -653q0 -343 -271 -730q-343 -498 -988.5 -826t-1249.5 -328q-632 0 -635 508q0 155 74 337q-319 149 -319 470zM111 1171q0 -286 252 -373q222 391 669.5 804t848.5 579 q203 82 347 92h9h9q50 0 50 -45q0 -47 -68 -62q-184 -28 -333 -113q-179 -97 -401 -269q-262 -198 -526 -474q-354 -364 -411 -562q92 -19 177 -19q429 0 866 406q175 161 170 161q33 0 33 -40q-189 -272 -479 -439q-309 -185 -623 -185q-102 0 -179 26q-83 -160 -83 -299 q0 -194 140.5 -300t338.5 -106q581 0 1161 347q541 323 888 826q261 377 261 682q0 337 -309 507q-245 135 -618 135q-484 0 -1034 -217q-410 -166 -727 -402q-429 -332 -429 -660z" />
<glyph unicode="P" horiz-adv-x="2232" d="M-184 2122q0 59 83 129q68 64 134 88q526 174 1239 174q503 0 965 -101q548 -120 548 -522q0 -125 -69 -262q-160 -318 -590 -507q-372 -163 -764 -163h-10q-212 0 -439 24q-488 -918 -488 -1213q0 -14 4.5 -39t4.5 -34q0 -69 -52 -69q-78 0 -78 132q0 328 435 1251 q-402 78 -402 227q0 96 123 160q98 52 200 52h8q54 0 52 -33q0 -33 -118 -60t-118 -84q0 -83 300 -165q184 382 361 701q54 92 165 266q73 102 245 102q69 0 69 -35q0 -15 -10 -34q-342 -464 -651 -1033q106 -14 212 -14q397 0 798 177q460 212 573 538q24 78 26 148 q0 319 -427 402q-295 59 -665 59q-803 0 -1577 -281q-33 -10 -52 -10q-33 0 -35 29z" />
<glyph unicode="Q" horiz-adv-x="3386" d="M0 1166q0 415 406 767q319 276 788 446q498 182 995 182h11q469 0 788 -173q401 -224 401 -653q0 -343 -271 -730q-513 -738 -1527 -1038q198 -304 531 -668q434 -470 653 -470q111 0 111 118q0 33 -13 86.5t-13 72.5q0 42 45 44q78 0 78 -193q0 -102 -63.5 -170 t-160.5 -68q-267 0 -739 479q-323 328 -604 724q-292 -71 -523 -71h-13q-632 0 -635 508q0 155 74 337q-319 149 -319 470zM111 1171q0 -286 252 -373q222 391 669.5 804t848.5 579q203 82 347 92h9h9q50 0 50 -45q0 -47 -68 -62q-161 -23 -267 -77q-179 -83 -394 -248 q-271 -203 -566 -498q-373 -378 -439 -590q23 5 42 7q97 0 97 -50q0 -63 -120 -63q-29 0 -59 11q-83 -160 -83 -299q0 -194 140.5 -300t338.5 -106q184 0 439 56q-184 272 -182 338q0 47 26 147.5t62 100.5q14 0 23 -24q121 -300 246 -512q885 276 1435 1067 q261 377 261 682q0 337 -309 507q-245 135 -618 135q-484 0 -1034 -217q-410 -166 -727 -402q-429 -332 -429 -660z" />
<glyph unicode="R" horiz-adv-x="2376" d="M-184 2122q0 59 83 129q68 64 134 88q526 174 1239 174q503 0 965 -101q548 -120 548 -522q0 -125 -69 -262q-155 -309 -557 -493q-328 -149 -734 -177q-94 -7 -192 -7h-44q199 -314 555 -710q460 -503 668 -503q116 0 116 127q0 34 -12 87t-12 72q0 42 38 44 q82 0 82 -193q0 -106 -72 -184t-178 -78q-285 0 -774 547q-337 373 -609 803q-106 9 -193 33q-494 -932 -494 -1227q0 -14 5 -40v-33q0 -69 -47 -69q-78 0 -78 132q0 338 448 1289q-231 111 -231 300q0 106 78 193t184 87q116 0 203 -115q102 198 319 561q78 102 250 102 q68 0 68 -35q0 -15 -14 -34q-281 -382 -507 -788l158 -285q429 28 812 198q469 208 594 543q24 78 26 148q0 319 -427 402q-295 59 -665 59q-803 0 -1577 -281q-33 -10 -52 -10q-33 0 -35 29zM557 1296q0 -111 106 -184l116 231q-54 92 -116 92q-106 0 -106 -139zM826 1048 q52 -14 120 -19l-66 116z" />
<glyph unicode="S" horiz-adv-x="2754" d="M28 212q0 347 437 668q406 295 767 295q156 0 156 -101q0 -276 -484 -552q-130 -78 -179 -78q-38 0 -38 21q0 33 101 92q272 149 383 352q33 59 33 82q0 24 -38 24q-290 0 -640 -227q-377 -250 -377 -526q0 -262 590 -262q448 0 1000 160q659 189 843 468q52 79 52 154v6 q0 309 -807 545l-343 97q-198 64 -330 132q-203 116 -203 288q0 333 585 571q484 199 876 199q503 0 503 -251q0 -120 -88 -266q-92 -161 -207 -161q-43 0 -43 36q0 4 84 105.5t84 184.5q0 191 -331 191h-7q-184 0 -425 -52q-266 -64 -528 -179q-383 -175 -380 -342 q0 -156 443 -281q775 -227 831 -248q449 -184 451 -472q0 -194 -208 -392q-309 -299 -871 -493q-521 -184 -991 -184q-701 0 -701 396z" />
<glyph unicode="T" horiz-adv-x="2256" d="M111 2098q0 68 49 144q135 208 498 323q295 92 605 92q290 0 415 -37q64 -19 61 -64q0 -38 -37 -38h-15q-396 38 -410 38q-250 0 -508 -66q-323 -83 -446 -234q-47 -59 -47 -97q0 -120 295 -120q286 0 772 127l779 213q28 47 92 134q63 74 231 74q64 0 64 -26 q0 -10 -83 -121q295 55 552 55q267 0 536 -142q314 -165 314 -401q0 -76 -45 -76h-2q-24 0 -36 43q-14 82 -37 125q-83 144 -310 233q-185 71 -376 71h-15q-310 0 -711 -87q-363 -517 -627 -1062q-354 -720 -354 -1171q0 -188 63 -188q43 0 120.5 56.5t87.5 56.5 q42 0 42 -45q0 -54 -99 -109.5t-160 -55.5q-236 0 -239 299q0 364 336 1103q236 535 540 1045l-725 -208q-434 -111 -731 -111q-439 0 -439 227z" />
<glyph unicode="U" horiz-adv-x="3329" d="M-78 1135q0 111 64 248q198 425 774 772q562 342 1038 344q475 0 475 -387q0 -189 -137 -474q-165 -319 -463 -970q-115 -305 -118 -456q0 -139 102 -139q250 0 691 545q319 402 668 968q73 116 203 352q78 179 257 507q29 38 110 67.5t136 29.5q42 0 42 -24q0 -9 -9 -19 q-465 -802 -647 -1300q-271 -739 -271 -1185q0 -290 125 -290q47 0 122.5 68.5t92.5 68.5q42 0 42 -45q0 -64 -128.5 -138t-194.5 -74q-227 0 -229 363q0 415 295 1296l-574 -784q-443 -545 -691 -547q-309 0 -309 299q0 258 231 765l373 739q101 217 101 363 q0 286 -358 286q-397 0 -884.5 -288t-647.5 -642q-87 -189 -87 -305q0 -148 170 -148q37 0 112.5 14t108.5 14q38 0 38 -24q0 -59 -134 -96q-102 -24 -184 -24q-305 0 -305 250z" />
<glyph unicode="V" horiz-adv-x="2879" d="M-5 1135q0 111 69 248q198 425 763 770.5t1040 345.5q484 0 481 -373q0 -203 -203 -715l-240 -585q-140 -382 -140 -599q0 -163 73 -163h3q23 0 54 14q430 217 1270 1657q720 1236 1088 1239q125 0 125 -59q0 -38 -57 -38q-97 0 -203 -94.5t-349 -424.5 q-364 -498 -729 -1095q-272 -435 -550 -779q-456 -550 -720 -552q-189 0 -189 290q0 241 121 580q28 83 226 562q241 585 243 689q0 328 -382 331q-392 0 -871 -293t-637 -637q-87 -189 -87 -305q0 -148 169 -148q38 0 112.5 14t109.5 14q33 0 33 -24q0 -59 -134 -96 q-102 -24 -184 -24q-305 0 -305 250z" />
<glyph unicode="W" horiz-adv-x="4875" d="M-28 1112q0 372 406 830q368 416 894 726t894 310q550 0 550 -474q0 -217 -125 -489q-134 -299 -377 -710l-416 -691q-179 -310 -179 -494q0 -158 131 -158h3q161 0 461 208q729 503 1545 1494q43 64 147 172q64 54 139 54q54 0 54 -44q0 -29 -35 -88 q-467 -816 -467 -1340v-7q0 -357 186 -357h2q161 0 430 283q222 236 333 437q323 590 323 895q0 54 -35.5 154t-35.5 159q0 163 102 163h4q59 0 102 -125q33 -97 33 -174q0 -48 -5 -111q24 -55 87.5 -73t63.5 -52q0 -38 -54 -38q-59 0 -125 28q-106 -460 -349 -880 q-281 -479 -623 -696q-140 -88 -281 -88q-338 0 -338 423q0 276 213 956q-659 -668 -840 -831q-605 -545 -940 -614q-82 -19 -158 -19q-271 0 -271 246q0 222 226 651q73 130 373 621q444 729 444 1140q0 337 -352 337q-396 0 -1015 -467q-540 -411 -816 -817 q-184 -271 -184 -450q0 -154 170 -154h4q59 0 164 38t146 38q54 0 51 -29q0 -68 -167 -125q-144 -47 -229 -49q-264 0 -264 275v6z" />
<glyph unicode="X" horiz-adv-x="3122" d="M-271 -87q0 188 224 424q170 185 384 314q43 24 64 26q33 0 33 -26q0 -37 -75 -106q-470 -392 -470 -632q0 -149 231 -149q779 0 1997 1116q-212 609 -212 1261v136q4 38 64.5 100.5t100.5 62.5q28 0 28 -33v5v-161q0 -646 194 -1213l139 142q217 217 502 599 q364 475 364 638q0 68 -73 68q-69 0 -187 -50.5t-127 -50.5q-24 0 -24 23q0 69 203 139q180 64 274 64q151 0 151 -134q0 -251 -470 -838q-354 -439 -696 -758q121 -295 267 -521q226 -364 411 -364q155 0 193 250q9 69 52 69q42 0 45 -47q0 -156 -106.5 -276.5 t-257.5 -120.5q-236 0 -476 324q-170 221 -295 531q-479 -421 -968 -701q-632 -361 -1108 -361h-8q-368 0 -368 250z" />
<glyph unicode="Y" horiz-adv-x="3629" d="M-78 1135q0 111 64 248q198 425 774 772q562 342 1038 344q475 0 475 -387q0 -189 -140.5 -474.5t-397.5 -877.5q-83 -231 -83 -364q0 -139 106 -139q262 0 706 545l413 517l292 475q5 54 22 158q14 73 118 174.5t177 101.5q56 0 56 -56v-6q0 -18 -4 -25l-43 -111 q-73 -208 -156 -744q-37 -304 -158 -908h47h31q110 0 217 -24q173 -40 173 -123q0 -52 -48 -52h-4q-24 0 -45 10q-124 56 -230 56h-11q-73 0 -165 -18q-231 -784 -812 -1334q-642 -613 -1407 -613q-212 0 -370 92q-189 115 -189 313q0 581 1072 1112q764 378 1586 557 q47 198 125 1197q-38 -64 -66 -107l-621 -830q-406 -498 -652 -498q-332 0 -332 309q0 285 306.5 891.5t306.5 781.5q0 286 -358 286q-397 0 -884.5 -288t-647.5 -642q-87 -189 -87 -305q0 -148 170 -148q37 0 112.5 14t108.5 14q38 0 38 -24q0 -59 -134 -96 q-102 -24 -184 -24q-305 0 -305 250zM503 -1333q0 -251 410 -253q364 0 682 142q449 198 850 684q385 470 533 963q-658 -125 -1456 -531q-1019 -517 -1019 -1005z" />
<glyph unicode="Z" horiz-adv-x="2242" d="M-425 -1489q0 165 92 363q262 576 895 937q580 328 1255 373q43 116 43 194q0 184 -260 184q-217 0 -479 -107q-286 -115 -290 -118q-55 0 -52 45q0 55 61 116q28 33 191 81.5t206 78.5q391 241 741 574q469 448 467 746q0 295 -425 295q-439 0 -1024 -262 q-550 -258 -885 -581q-73 14 -73 78q0 217 484 470q332 174 691 278q411 121 769 123q628 -2 628 -441q0 -314 -406 -716q-212 -207 -682 -545h54h24q406 0 406 -330q0 -73 -24 -158h38h37q366 0 397 -97q-4 -38 -47 -38q-33 0 -86 19t-73 21.5t-117 2.5q-92 0 -179 -5 q-38 -97 -102 -198q-561 -968 -1324 -1449q-387 -250 -646 -253q-305 0 -305 319zM-245 -1407q0 -245 226 -245q184 0 479 182q342 212 739 696q363 441 571 852q-1020 -106 -1635 -746q-203 -212 -300 -420q-80 -182 -80 -310v-9z" />
<glyph unicode="[" horiz-adv-x="2827" d="M231 92q0 576 626.5 1773.5t1098.5 1523.5q126 83 326 80q489 0 489 -101l-7 -62q-29 -4 -67 -4q-59 0 -174.5 9.5t-174.5 9.5q-207 0 -264 -34q-106 -68 -295 -290q-387 -455 -843 -1300q-526 -972 -526 -1407q0 -271 373 -271q64 0 184 11.5t177 11.5q139 0 142 -56 q0 -69 -543 -69q-522 0 -522 175z" />
<glyph unicode="\" horiz-adv-x="2662" d="M47 3427q5 28 69 28q115 0 232 -94.5t445 -509.5q609 -769 1078 -1560q657 -1116 657 -1697q0 -156 -126 -156v97q0 774 -870 2070q-652 967 -1485 1822z" />
<glyph unicode="]" horiz-adv-x="2685" d="M156 -73q111 97 186 111h220q469 0 689 266q382 456 760 1334q401 932 401 1470q0 92 -19 179q-68 43 -193 43q-93 0 -239 -9q-193 -10 -241 -15q156 156 527 154q207 0 233 -10q121 -28 121 -167q0 -706 -403.5 -1665.5t-901.5 -1487.5q-203 -213 -848 -213 q-217 0 -292 10z" />
<glyph unicode="^" horiz-adv-x="1786" d="M309 1633q0 47 295 292.5t364 255.5l28 -10q189 -212 604 -524l24 -47l-19 -33q-102 5 -360.5 169t-345.5 256q-488 -406 -552 -406q-38 0 -38 47z" />
<glyph unicode="_" horiz-adv-x="3894" d="M38 -212q0 92 82 92h3578q120 -3 135 -137l-33 -33q-1357 0 -2740 -33q-111 0 -470 -14q-290 -15 -470 -17q-82 0 -82 142z" />
<glyph unicode="`" horiz-adv-x="1066" d="M179 1881q0 64 48 61q28 0 82 -37q189 -135 508 -397q18 -14 18 -33q0 -24 -33 -26q-23 0 -274.5 150t-305.5 195q-43 28 -43 87z" />
<glyph unicode="a" horiz-adv-x="1390" d="M78 139q0 250 242 606.5t468 434.5q83 33 158 33q175 0 253 -120q14 -24 14 -33q0 -5 -34 -15.5t-49 -34.5q-115 -189 -115 -566q0 -347 151 -347q106 0 302 234.5t210 234.5q14 -2 14 -26q0 -23 -28 -66q-213 -342 -401 -441q-88 -42 -175 -42q-295 0 -295 415 q0 68 9 144q-322 -574 -573 -574h-2q-149 0 -149 163zM241 222q0 -102 68 -102q106 0 276 222q236 300 397 706q-19 5 -45 5q-194 0 -401 -246q-295 -359 -295 -585z" />
<glyph unicode="b" horiz-adv-x="1172" d="M73 -156q0 29 28 31q15 0 70.5 -17.5t95.5 -17.5q217 0 429 247q161 189 262 439q90 222 90 468v11q0 161 -71 161q-160 0 -427 -441q-250 -416 -250 -614q0 -54 36.5 -82.5t36.5 -47.5t-26 -19q-177 0 -177 254v6q0 373 392 1111q295 550 642 1041l179 255 q134 165 236 165q116 0 116 -59q0 -9 -15 -28q-174 -179 -299 -338q-291 -354 -571 -818q-333 -550 -425 -888q125 227 295 416q229 264 407 264h3q144 0 147 -208q0 -295 -189 -680q-130 -266 -328 -455q-241 -227 -493 -227q-194 0 -194 71z" />
<glyph unicode="c" horiz-adv-x="1062" d="M175 337q0 236 263 522t494 286q156 0 156 -121q0 -47 -71 -166t-113 -119q-19 0 -19 26q0 19 16.5 62.5t16.5 66.5q0 102 -125 102q-175 0 -314 -227q-130 -207 -132 -391q0 -300 262 -300q328 0 687 448q47 59 82 59q19 0 19 -14q0 -19 -28 -54q-170 -246 -470 -449 q-174 -110 -368 -110q-356 0 -356 373v6z" />
<glyph unicode="d" horiz-adv-x="1390" d="M78 139q0 300 309 696q308 399 578 399q18 0 36 -2q160 557 356 972q328 678 644 678q203 -3 203 -234q0 -512 -1156 -1864q-28 -170 -28 -319q0 -368 155 -368q102 0 298 234.5t210 234.5t14 -26q0 -23 -24 -66q-304 -488 -590 -488q-250 0 -252 382q0 121 30 279 q-376 -671 -632 -671h-2q-149 0 -149 163zM236 231q0 -106 73 -106q106 0 276 217q64 83 208 335q153 274 153 328q0 5 -9.5 17t-51.5 12q-194 0 -421.5 -300t-227.5 -503zM1079 923q936 1272 936 1715q0 107 -87 107q-236 0 -536 -789q-198 -516 -313 -1033z" />
<glyph unicode="e" horiz-adv-x="979" d="M125 359q0 250 217 550q231 318 479 318q47 0 84 -43.5t37 -90.5q0 -149 -227 -364q-203 -189 -373 -250q-33 -120 -33 -203q0 -198 180 -198q169 0 382 139q184 120 314 276q33 47 66 47q21 0 21 -18q0 -10 -9 -29q-121 -189 -364 -349q-254 -168 -464 -168h-5 q-305 0 -305 383zM378 576q125 54 259 189q161 153 161 269q0 59 -59 59q-73 0 -213 -222q-120 -189 -148 -295z" />
<glyph unicode="f" horiz-adv-x="1260" d="M-304 -1267q0 387 231 1040q189 541 436 1001l517 979q144 281 189 354q116 208 222 329q78 87 167 87q123 0 123 -102q0 -23 -14 -52q-42 -87 -446 -663q-359 -507 -595 -937q33 29 73 29q149 0 251 -522q125 -73 214 -73q125 0 275 152t169 152q24 0 24 -28 q0 -14 -15 -40q-285 -401 -512 -401q-82 0 -139 59q14 -97 14 -208q0 -387 -184 -852q-198 -484 -474 -720q-135 -111 -250 -111q-149 0 -222 199q-54 144 -54 328zM-97 -1291q0 -323 156 -323q64 0 139 63q276 227 434 647q152 387 152 774q0 184 -41 347q-115 78 -194 205 q-71 115 -71 229q0 13 1 26q-576 -1291 -576 -1968z" />
<glyph unicode="g" horiz-adv-x="1264" d="M-1227 -1489q0 517 734 991q623 401 1208 493q33 184 111 555q-322 -574 -574 -574h-2q-149 0 -149 163q0 246 242 604.5t469 436.5q87 33 160 33q69 0 164.5 -45t95.5 -104q0 -19 -43.5 -34t-58.5 -44l-51 -247l-170 -739h18q18 1 35 1q223 0 223 -112q0 -28 -19 -28 q-5 0 -41.5 23.5t-138.5 23.5q-47 0 -96 -5q-180 -724 -460 -1125q-522 -765 -1112 -765q-231 0 -388 135.5t-157 362.5zM-1088 -1503q0 -189 119 -302.5t306 -113.5q300 0 590 250q231 199 410 508q258 436 373 1069q-318 -54 -758.5 -276t-676.5 -444q-363 -347 -363 -691 zM267 222q0 -102 66 -102q106 0 276 222q236 300 396 706q-19 5 -42 5q-194 0 -401 -246q-295 -359 -295 -585z" />
<glyph unicode="h" horiz-adv-x="1500" d="M78 24q0 111 208 575q309 701 691 1306q590 932 961 932q207 0 207 -236q0 -314 -502 -866q-213 -232 -763 -734q-130 -111 -368 -354q-28 -38 -103.5 -229t-75.5 -234q4 -5 4 -14q107 139 354 411q272 299 373 370q43 28 76 31q111 0 111 -102q-231 -502 -231 -649 q0 -167 146 -167h5q139 0 287 139q102 87 229 262q102 139 116 139t14 -28q0 -33 -23 -83q-324 -545 -687 -547q-262 0 -262 316q0 208 106 498q-134 -120 -330 -360t-288 -400q-55 -38 -125 -38q-130 0 -130 62zM585 840q314 203 826 793q567 656 567 928q0 160 -107 160 q-261 0 -741 -802q-328 -550 -545 -1079z" />
<glyph unicode="i" horiz-adv-x="863" d="M125 179q0 144 97 397q87 231 184 361q28 42 68 45q43 0 79.5 -39t36.5 -82q0 -23 -19 -54q-241 -377 -243 -628q0 -174 127 -174q140 0 314 155q116 102 255 279q121 156 125 156q26 0 26 -38q0 -33 -35 -78q-439 -585 -748 -585q-267 0 -267 285zM581 1397q0 59 46 104 t107 45q116 0 116 -116q0 -59 -45 -104t-109 -45q-115 0 -115 116z" />
<glyph unicode="j" horiz-adv-x="762" d="M-1758 -1522q0 521 781 1010q658 415 1258 507q64 184 125 604q-198 -236 -212 -236q-29 0 -29 33q0 19 14 34q217 299 265 571q14 92 146 92q83 0 83 -55q0 -111 -59 -410q-69 -347 -140 -628h15q63 0 143 -19q111 -26 111 -73q0 -33 -33 -33q-4 0 -28 9q-42 24 -151 24 q-42 0 -83 -5q-226 -724 -531 -1125q-571 -765 -1163 -765q-222 0 -367 124t-145 341zM-1624 -1536q0 -180 111 -281.5t291 -101.5q299 0 608 250q241 199 439 508q286 436 446 1069q-328 -54 -781 -276t-703 -444q-411 -368 -411 -724zM474 1541q0 59 46 105t103 46 q116 0 116 -116q0 -59 -46 -105t-103 -46q-116 0 -116 116z" />
<glyph unicode="k" horiz-adv-x="1758" d="M208 24q0 111 203 575q299 687 682 1296q590 942 960 942q220 0 220 -199q0 -346 -609 -969q-392 -397 -930 -803q-97 -203 -158 -392l477 477q358 338 528 340q125 0 125 -184q0 -189 -262 -368q-224 -159 -408 -159q-13 0 -26 1q102 -465 387 -465q281 0 614 441 q28 42 59 42q23 0 23 -23q0 -19 -19 -50q-115 -170 -330 -356q-257 -231 -401 -234q-180 0 -357 248q-165 222 -188 415l-227 -266q-111 -144 -146 -333q-54 -24 -111 -24q-106 0 -106 48zM840 1083q342 213 788 675q531 543 531 814q0 102 -80 102q-125 0 -387 -224 q-460 -383 -779 -1159q-73 -179 -73 -208zM909 682q18 -38 87 -40q144 0 323.5 128.5t179.5 263.5q0 96 -64 96q-97 0 -526 -448z" />
<glyph unicode="l" horiz-adv-x="1182" d="M231 470q0 406 401 1092q329 562 701 970q267 291 446 291q59 0 111 -65t52 -129q0 -328 -623 -1116q-493 -614 -918 -1010q0 -527 267 -527t753 546q19 23 37 23q24 0 26 -33q0 -19 -14 -38q-170 -221 -387 -387q-276 -212 -488 -212q-364 0 -364 595zM415 614 q267 231 715 852q465 646 562 936q43 135 43 208q0 92 -62 92q-139 0 -344 -271q-232 -314 -527 -885q-323 -623 -387 -932z" />
<glyph unicode="m" horiz-adv-x="1845" d="M0 42q0 24 5 41q111 262 226 734q10 68 40 193q10 33 65.5 67.5t93.5 34.5q33 0 35 -29q0 -47 -229 -736l359 479l174 234q72 85 146 85h3q78 0 78 -85q0 -64 -34.5 -250.5t-76.5 -542.5q135 193 420 564q78 92 153 92q74 0 74 -92q0 -78 -24 -230.5t-24 -227.5 q0 -250 130 -253q184 0 470 406q28 47 47 50q24 -3 24 -45q0 -19 -10 -28q-120 -170 -269 -314q-207 -194 -349 -194q-227 0 -227 503q0 78 5 175q-175 -156 -392 -557q-73 -135 -160 -135q-28 0 -43 19q-14 54 -14 135q0 139 64 512q33 188 33 243q0 37 -14 37 q-83 -73 -267 -313q-198 -262 -425 -614q-28 -42 -49 -42q-38 0 -38 84z" />
<glyph unicode="n" horiz-adv-x="1342" d="M33 42q0 24 9 41q102 245 215 701q14 77 47 226q15 33 68 67.5t98 34.5q33 0 33 -29q0 -47 -227 -736q59 78 361 413l300 328q38 33 78 33q111 0 111 -111q0 -24 -19 -59q-272 -444 -272 -706q0 -181 169 -181h6q135 0 290 139q102 87 227 262q101 139 116 139 q14 0 14 -28q0 -33 -29 -83q-328 -545 -682 -547q-273 0 -273 342v7q0 309 139 545q-338 -304 -692 -840q-28 -42 -42 -42q-43 0 -45 84z" />
<glyph unicode="o" horiz-adv-x="1104" d="M116 116q0 276 243 649q-10 54 -12 106q0 174 117 338.5t284 164.5q111 0 179 -133q55 -111 55 -231q0 -262 -203 -663q73 -43 163 -43q160 0 300 126q132 119 133 127h-1q33 -2 33 -35q0 -10 -10 -19q-68 -116 -206 -198.5t-268 -82.5q-97 0 -180 49 q-221 -354 -457 -354q-170 0 -170 199zM290 130q0 -97 73 -97q69 0 177 116q100 92 137 174q-160 107 -243 248q-144 -304 -144 -441zM460 894q78 92 154 92q73 0 106 -49v-24q5 -14 5 -23q0 -14 -48 -14q-87 0 -184 -185q64 -184 222 -299q120 304 120 498q0 106 -33 217 q-47 156 -125 156q-111 0 -174 -137q-43 -96 -43 -208v-24z" />
<glyph unicode="p" horiz-adv-x="1578" d="M-590 -1338q0 236 434 878l626 856v29q0 174 -5 304q-184 -299 -234 -299q-28 0 -28 35q0 19 14 38q213 299 213 535q0 48 -26 81l-26 30q0 38 148 40q165 0 165 -328q0 -47 -7 -142.5t-7 -137.5q135 245 300 453q250 309 420 309q154 0 154 -221v-6q0 -285 -201 -661.5 t-437 -527.5q420 9 933 654q18 23 30 23q19 0 19 -28q0 -33 -28 -83q-125 -207 -418 -415q-309 -231 -522 -234q-42 0 -129 7h-125q-19 0 -147 33q-148 -387 -406 -811q-363 -590 -590 -590q-120 0 -120 179zM-420 -1305q0 -43 28 -43q213 0 586 697q96 184 207 632 q-5 24 -5 47q0 59 29 107q-5 4 -10 4q-19 0 -52 -47l-349 -512q-101 -144 -255 -441q-179 -343 -179 -444zM609 139q47 -73 170 -181q212 92 392 457q167 350 167 600q0 148 -82 151q-24 0 -48 -12q-174 -78 -368 -448q-144 -276 -231 -567z" />
<glyph unicode="q" horiz-adv-x="1283" d="M-19 -1517q0 143 43 280q73 236 238 590l264 583q-63 19 -61 69q0 28 28 28q10 0 39.5 -4.5t43.5 -4.5q115 193 269 493q-387 -489 -588 -489q-139 0 -141 147q0 245 276 615.5t512 446.5q87 28 160 30q170 0 241 -118q10 -19 10 -23q0 -5 -60.5 -28.5t-105.5 -120.5 q29 9 55 9q63 0 63 -49l-238 -406q-241 -406 -250 -484h38q332 0 729 519q23 29 45 29q19 0 19 -24q0 -28 -38 -82q-144 -227 -345 -378q-210 -153 -412 -153q-33 0 -67 4q179 -87 267 -363q68 -208 68 -460q0 -156 -23 -265q-69 -323 -258 -594q-236 -333 -521 -333 q-156 0 -239 203q-61 143 -61 322v11zM92 -1652q0 -262 203 -262q212 0 411 267q155 207 231 458q68 217 68 420q0 184 -73 391q-97 267 -245 267q-10 0 -50 -73q-281 -489 -434 -951q-111 -319 -111 -517zM286 262q0 -83 61 -83q106 0 290 217q257 305 451 711q-19 5 -45 5 q-193 0 -420 -246q-337 -377 -337 -604z" />
<glyph unicode="r" horiz-adv-x="1425" d="M149 396q0 19 26 52q188 258 382 664q-9 42 -12 106q0 111 45 257q46 182 128 182h2q54 0 92 -85q33 -69 33 -132q0 -121 -198 -352q42 -149 170 -151q87 0 169.5 94.5t115.5 94.5q43 0 77 -36.5t34 -84.5q0 5 -168.5 -323t-168.5 -507q0 -170 158 -170q134 0 309 155 q111 102 262 288q120 156 125 156q19 0 19 -28q0 -38 -29 -83q-377 -599 -748 -599q-271 0 -271 314q0 299 203 632q-28 -9 -64 -9q-78 0 -149 49q-87 55 -87 121q-54 -121 -198 -343q-179 -280 -236 -280q-19 0 -21 18z" />
<glyph unicode="s" horiz-adv-x="1260" d="M14 415q0 140 78 142q47 0 102 -68q77 77 239 359t268 403q170 193 342 193q69 0 138.5 -43.5t69.5 -104.5q0 -38 -111 -39t-203 -71t-92 -176q0 -38 16 -83l121 -313q61 -183 61 -319v-9q286 42 479 285q14 14 24 14q30 -2 30 -40q0 -19 -9 -38q-160 -250 -538 -323 q-28 -144 -146 -231.5t-269 -87.5q-222 0 -411 166.5t-189 383.5zM139 319q130 -319 411 -319q189 0 257 165h-22q-386 0 -629 168zM236 430q295 -144 595 -159v48q0 106 -83 396q-69 227 -69 318q0 18 3 31q-257 -406 -446 -634z" />
<glyph unicode="t" horiz-adv-x="1014" d="M5 1145q0 28 49 30q59 0 184 -10.5t187 -10.5q28 47 212 387q139 267 234 349q65 66 179 66h10q106 0 106 -42q0 -5 -5 -14l-193 -248q-213 -286 -345 -512q68 -5 194 -5q33 0 101 5h102q59 0 59 -28q0 -74 -503 -88q-78 -120 -145.5 -337t-67.5 -359q0 -250 187 -250 q160 0 392 163q198 139 314 295q33 42 63 45q19 0 19 -24q0 -19 -19 -50q-125 -174 -392 -358q-291 -196 -477 -196h-6q-274 0 -274 395v6q0 309 172 666q-337 0 -337 125z" />
<glyph unicode="u" horiz-adv-x="1404" d="M97 314q0 156 101 373q111 250 241 250q73 0 73 -38q0 -5 -122.5 -219.5t-122.5 -332.5q0 -153 89 -153h3q155 0 554 705q33 69 102 189q33 38 73 38q42 0 79 -36.5t37 -84.5q0 5 -171.5 -323t-171.5 -507q0 -170 159 -170q134 0 309 155q115 102 262 288 q120 156 129 156q15 0 15 -28q0 -33 -29 -83q-134 -222 -314 -387q-231 -212 -434 -212q-271 0 -271 337q0 78 73 305q-170 -246 -220 -305q-160 -189 -283 -189q-160 0 -160 272z" />
<glyph unicode="v" horiz-adv-x="1522" d="M135 368q0 33 198 279q184 231 248 290q42 38 96 40q57 0 57 -37q0 -21 -19 -50q-319 -439 -319 -696q0 -102 97 -102q139 0 338 231q160 184 248 364v23q0 33 -5 97t-5 92q0 276 208 352q33 14 56 16q64 0 64 -87q0 -203 -184 -474v-29v-14q0 -113 78 -216 q83 -110 198 -110t231 136q107 126 108 135q0 1 -1 1q28 0 28 -43q0 -18 -9 -35q-139 -260 -398 -260h-4q-290 0 -342 286q-73 -144 -285 -345q-232 -221 -362 -221q-174 0 -174 250q0 170 82 358q-4 -4 -9 -14q-64 -130 -146 -203q-38 -33 -59 -35q-14 0 -14 21z" />
<glyph unicode="w" horiz-adv-x="1942" d="M130 -9q0 212 203 604q222 425 410 425q55 0 55 -34q0 -9 -14 -23q-130 -144 -329 -479q-217 -378 -219 -512q0 -48 40 -50q262 0 715 696q59 102 149 222q23 14 64 14q77 0 77 -61q-174 -276 -174 -522q0 -165 139 -165q102 0 229 208q87 149 135 304q-102 333 -102 373 q0 73 64 73q78 0 125 -87t47 -170q0 -87 -42 -184q68 -281 221 -281q92 0 201 126.5t118 126.5q31 0 31 -33q0 -14 -12 -26q-194 -286 -356 -286q-144 0 -272 239q-42 -180 -149 -324q-129 -189 -280 -189q-144 0 -218 135q-52 95 -52 213q0 26 3 54q-116 -161 -309 -336 q-241 -217 -371 -217q-125 0 -127 166z" />
<glyph unicode="x" horiz-adv-x="1182" d="M14 -59q0 38 248 290q271 276 300 319q-29 116 -97 219q-14 -54 -108.5 -196.5t-125.5 -142.5q-28 0 -28 35q0 5 75.5 127.5t75.5 209.5q0 5 -17 78q-4 5 -4 14q0 83 156 83q73 0 153 -127q68 -107 87 -199q10 5 314 234q246 179 290 179q19 0 19 -16q0 -24 -259 -222 q-276 -212 -314 -269l101 -229q73 -149 158 -149q111 0 276.5 210t193.5 210q14 0 14 -14q0 -19 -33 -68q-323 -508 -531 -508q-149 0 -359 446q-42 -33 -297 -283t-269 -250q-19 0 -19 19z" />
<glyph unicode="y" horiz-adv-x="1323" d="M-1135 -1489q0 517 739 991q618 401 1203 493q69 300 156 890q-59 -139 -209 -369t-256 -341q-125 -130 -236 -133q-156 0 -156 272q0 156 97 373q111 250 245 250q69 0 69 -38q0 -5 -120.5 -219.5t-120.5 -332.5q0 -153 84 -153h3q149 0 652 972q9 71 114 71h6 q87 0 87 -38q0 -64 -61 -411q-73 -410 -160 -788h19q18 1 35 1q222 0 222 -112q0 -28 -14 -28q-5 0 -44 23.5t-140 23.5q-48 0 -93 -5q-184 -724 -460 -1125q-521 -765 -1116 -765q-231 0 -388 135.5t-157 362.5zM-996 -1503q0 -189 118 -302.5t312 -113.5q295 0 585 250 q231 199 411 508q257 436 372 1069q-318 -54 -758 -276t-672 -444q-368 -347 -368 -691z" />
<glyph unicode="z" horiz-adv-x="1623" d="M-835 -1489q0 517 734 991q623 401 1203 493q-5 305 -236 305q-47 0 -147.5 -46t-133.5 -46q-63 0 -63 59q0 28 44 70q522 480 522 645q0 106 -120 106q-295 0 -621 -517q-33 -47 -47 -49q-19 0 -19 23q0 24 19 59q106 222 281 378q203 179 415 179q262 0 260 -219 q0 -236 -385 -546h14h13q152 0 260 -113q114 -118 128 -283h19h28q201 0 234 -68q5 -19 5 -43q0 -28 -17 -28q-9 0 -42 23.5t-135 23.5q-47 0 -97 -5q-9 -469 -460 -1125q-521 -765 -1116 -765q-231 0 -385.5 135.5t-154.5 362.5zM-701 -1503q0 -189 118 -302.5t312 -113.5 q549 0 1000 758q364 613 373 1069q-323 -54 -763 -276t-672 -444q-368 -347 -368 -691z" />
<glyph unicode="{" horiz-adv-x="1246" d="M73 1020l14 23q286 28 397 128q144 125 198 486q64 415 139 543q156 257 590 254q14 0 19 -4l-28 -10q-382 0 -498 -304l-135 -619q-63 -207 -198 -337q-156 -149 -349 -151h-14q155 -9 259 -108.5t104 -247.5q0 -140 -63.5 -411t-63.5 -411q0 -184 113 -238l260 -47 l4 -10q-19 -9 -37 -11q-213 0 -314 54q-140 73 -142 271q0 139 71 409.5t71 411.5q0 324 -397 329z" />
<glyph unicode="|" horiz-adv-x="844" d="M198 -392q0 14 36.5 166.5t98.5 452.5q125 743 127 1475q0 295 -26 453q0 28 -21 106t-21 123q0 37 63 37q159 0 159 -332q0 -354 -107 -1268q-120 -1015 -212 -1149q-47 -68 -97 -68v4z" />
<glyph unicode="}" horiz-adv-x="1642" d="M83 -434q18 9 170.5 21t239.5 76q130 96 250 521q125 444 272 581q217 203 479 231q-378 24 -378 304q0 156 97 447.5t97 442.5q0 161 -106 194l-236 37l-5 10l23 14q449 0 449 -255q0 -160 -106.5 -460t-106.5 -458q0 -234 369 -271l-19 -29q-430 -4 -581 -373 l-212 -677q-180 -368 -673 -366q-19 0 -23 10z" />
<glyph unicode="~" horiz-adv-x="1463" d="M231 1933q0 73 203 193q83 48 180 50q82 0 232 -51t228 -51q115 0 198 107q28 -3 28 -22q0 -73 -188 -203q-64 -42 -135 -42q-83 0 -239.5 65t-239.5 65t-159.5 -62.5t-102.5 -62.5q-5 4 -5 14z" />
<glyph unicode="&#xa1;" horiz-adv-x="1208" d="M-382 -1430l40 52q392 566 486 715q267 415 406 769q19 54 64 165q28 74 77 71q34 0 34 -42q0 -83 -421 -895q-387 -753 -512 -951q-4 -9 -14 -9q-28 0 -94 48.5t-66 76.5zM765 765q0 115 129 115q121 0 121 -115q0 -116 -121 -118q-129 0 -129 118z" />
<glyph unicode="&#xa2;" horiz-adv-x="1425" d="M120 -170q0 28 24 142q97 483 262 705q-116 83 -116 265q0 203 229 447t427 225q55 102 215 373q184 309 212.5 330.5t56.5 21.5q54 0 54 -33q0 -10 -4 -19q-161 -227 -451 -706q24 -23 24 -64q0 -42 -58 -141t-96 -99q-14 0 -14 19t14 55.5t14 55.5q0 82 -106 82 q-144 0 -256 -181.5t-112 -335.5q0 -245 219 -247q267 0 569 377q38 47 69 47q14 0 14 -14q0 -59 -180 -222q-148 -134 -236 -193q-144 -97 -304 -97q-38 0 -78 9q-160 -212 -328 -826q-5 -9 -14 -9q-47 0 -50 33z" />
<glyph unicode="&#xa3;" horiz-adv-x="3252" d="M165 401q0 135 158 135q222 0 1006 -397q250 314 483 991h-667q-43 0 -43 31q0 83 87 80h661q267 789 543 1107q262 300 472 300q139 0 227.5 -88.5t88.5 -234.5q0 -354 -396 -550q-29 -14 -50 -17q-19 0 -19 21q0 38 64 88q33 23 97 75q193 184 191 420q0 184 -130 184 q-28 0 -61 -14q-272 -87 -534 -554q-106 -189 -332 -737h812q28 0 28 -23q0 -88 -106 -88h-777q-160 -391 -238 -540q-170 -354 -314 -484q175 -111 498 -193q304 -78 526 -78q236 0 416 64q250 87 252 271q0 83 -67 147.5t-67 78.5q0 24 18 24q15 0 29 -14 q170 -123 170 -267q0 -226 -276 -337q-199 -83 -470 -83q-484 0 -1116 328q-286 -179 -531 -177q-227 0 -420 149q-213 160 -213 382zM319 363q0 -165 147.5 -287.5t317.5 -122.5q240 0 424 125q-111 82 -410.5 198t-424.5 116q-54 0 -54 -29z" />
<glyph unicode="&#xa5;" horiz-adv-x="2251" d="M97 1005l4 15q59 14 359 28q38 111 106 373q-42 0 -184 -14q-115 -15 -188 -15q-24 0 -58.5 44t-38.5 67l4 10q88 28 494 33q82 354 82 561q0 180 -96 439q-10 15 -71.5 150.5t-61.5 140.5q0 54 147 54q212 0 212 -720q0 -382 -64 -625l22 -5q323 342 790 784 q668 623 788 623q26 0 59 -5v-14q-885 -623 -1479 -1393q276 -19 344 -47q14 -5 14 -14q0 -24 -30 -26q-149 0 -401 -14q-140 -194 -213 -387q508 0 630 -52q14 -10 14 -14q0 -29 -30 -31q-267 0 -656 -24q-69 -207 -135 -585q-9 -97 -49 -278q-29 -92 -194 -92 q-73 0 -73 37q0 194 97 465l174 444q-250 -24 -221 -24q-24 0 -58.5 44t-38.5 67z" />
<glyph unicode="&#xa7;" horiz-adv-x="2754" d="M250 160q0 213 267 402q193 139 460 226q38 14 61 14q33 0 36 -14q0 -23 -88 -54q-212 -78 -382 -212q-212 -170 -212 -352q0 -250 502 -253q354 0 770 137q512 161 613 406q19 43 19 76q0 240 -672 441q-291 87 -411 149q-241 130 -241 323q0 165 111 286 q-23 47 -23 106q0 285 512 488q415 170 753 170q446 -2 446 -252q0 -43 -12 -81q-14 -73 -93 -150.5t-153 -77.5q-23 0 -23 14q0 -5 72 89.5t72 167.5q0 184 -309 184q-267 0 -656 -137q-475 -165 -475 -366q0 -115 184 -193l753 -239q522 -193 522 -453q0 -96 -67.5 -209.5 t-145.5 -172.5q0 -92 -66 -193q-189 -281 -705 -468q-456 -165 -852 -165q-567 0 -567 363zM1088 1562q0 -203 314 -344l613 -213q354 -129 411 -314q116 149 116 236q0 189 -319 336q-120 54 -637 207q-387 121 -470 217q-28 -68 -28 -125z" />
<glyph unicode="&#xa8;" horiz-adv-x="1260" d="M156 1798q0 73 141.5 174.5t219.5 101.5q9 0 19 -4v4v-11q0 19 -71 -81l-78 -193q-59 -130 -130 -132q-33 0 -67 50.5t-34 90.5zM739 1798q0 73 142.5 174.5t220.5 101.5q10 0 19 -4v4v-11q0 19 -73 -81l-76 -193q-59 -130 -132 -132q-33 0 -67 50.5t-34 90.5z" />
<glyph unicode="&#xa9;" horiz-adv-x="3082" d="M198 894q0 572 614 1107q590 522 1170 522q343 0 584.5 -213.5t241.5 -551.5q0 -566 -592 -1092.5t-1168 -526.5q-342 0 -588 203q-262 213 -262 552zM373 890q0 -291 231 -475q213 -174 512 -174q512 0 1010 483.5t498 995.5q0 310 -191 508t-500 198 q-541 0 -1050.5 -498t-509.5 -1038zM632 866q0 444 484 883q470 425 923 427q238 0 238 -194q0 -148 -87 -155l-24 19q24 143 24 115q0 170 -175 170q-377 0 -797 -452t-420 -834q0 -231 226 -231q236 0 623 210t350 210q14 0 14 -14q0 -166 -411 -324q-359 -139 -562 -139 q-165 0 -273 71q-130 82 -133 238z" />
<glyph unicode="&#xaa;" horiz-adv-x="1158" d="M78 1300q0 250 242 606.5t468 434.5q83 33 158 33q175 0 253 -120q14 -24 14 -33q0 -5 -34 -15.5t-49 -34.5q-115 -189 -115 -566q0 -347 151 -347q106 0 302 234.5t210 234.5q14 -2 14 -26q0 -23 -28 -66q-213 -342 -401 -441q-88 -42 -175 -42q-295 0 -295 415 q0 68 9 144q-322 -574 -573 -574h-2q-149 0 -149 163zM241 1383q0 -102 68 -102q106 0 276 222q236 300 397 706q-19 5 -45 5q-194 0 -401 -246q-295 -359 -295 -585z" />
<glyph unicode="&#xab;" horiz-adv-x="2029" d="M411 1237q0 54 252 415q222 314 319 432q42 54 92 52q33 0 33 -29q0 -73 -479 -738q469 -595 469 -649q0 -69 -49 -62l-38 19q-106 144 -276 286l-309 245q-14 10 -14 29zM1088 1237q0 54 255 415q217 314 321 432q42 54 89 52q31 0 31 -29q0 -73 -479 -738 q474 -595 474 -649q0 -69 -54 -62l-38 19q-106 144 -271 286l-314 245q-14 10 -14 29z" />
<glyph unicode="&#xac;" horiz-adv-x="1642" d="M160 682q0 562 338 1305q203 449 581 904q424 517 802 687q68 28 130 28q193 0 193 -319q0 -549 -677 -1552q-595 -890 -1131 -1329q166 -425 586 -425q443 0 970 425q33 24 49 24q10 0 10 -10q0 -19 -38 -57q-194 -207 -520.5 -347.5t-617.5 -140.5q-299 0 -498 255 q-179 236 -177 552zM342 774q0 -139 31 -262q448 246 1047.5 1218t599.5 1475q0 236 -115 236q-74 0 -120 -26t-190 -137q-424 -333 -788 -968q-193 -337 -318 -743q-144 -444 -147 -793z" />
<glyph unicode="&#xad;" d="M92 522q0 68 170 120q78 28 217 31q170 0 448 -41q126 -18 126 -47q0 -33 -126 -40q-87 -5 -259 -14q-144 -19 -456 -42h-23q-97 -5 -97 33z" />
<glyph unicode="&#xae;" horiz-adv-x="3082" d="M198 894q0 572 614 1107q590 522 1170 522q343 0 584.5 -213.5t241.5 -551.5q0 -566 -592 -1092.5t-1168 -526.5q-342 0 -588 203q-262 213 -262 552zM373 890q0 -291 231 -475q213 -174 512 -174q373 0 765 281q-179 42 -354 313q-135 213 -203 442q-43 0 -57 14l52 19 l33 23l45 -14q845 116 845 470q0 276 -545 274q-175 0 -479 -90q-286 -83 -465 -175q-382 -455 -380 -908zM673 540q0 213 387 775q328 483 564 719l106 -52q-5 -14 -154 -207q-328 -411 -488 -649q-309 -460 -345 -706q-4 -54 -18 -52q-55 0 -52 172zM899 1952 q425 170 817 170q231 0 406 -74q240 -96 240 -295q0 -240 -342 -379q-262 -107 -550 -111q69 -232 173 -413q155 -251 330 -255q651 521 651 1125q0 310 -191 508t-500 198q-531 0 -1034 -474z" />
<glyph unicode="&#xaf;" d="M92 2015q0 69 170 121q78 28 217 30q170 0 448 -40q126 -19 126 -47q0 -33 -126 -40q-87 0 -259 -14q-144 -19 -456 -43h-23q-97 -4 -97 33z" />
<glyph unicode="&#x2c9;" d="M92 2015q0 69 170 121q78 28 217 30q170 0 448 -40q126 -19 126 -47q0 -33 -126 -40q-87 0 -259 -14q-144 -19 -456 -43h-23q-97 -4 -97 33z" />
<glyph unicode="&#xb0;" horiz-adv-x="1366" d="M314 1961q0 175 121.5 296.5t293.5 121.5q170 0 293 -121.5t123 -296.5q0 -174 -123 -294.5t-293 -120.5q-174 0 -294.5 121.5t-120.5 293.5zM420 1961q0 -125 92 -217t217 -92t217 92t92 217t-92 218.5t-217 93.5t-217 -92t-92 -220z" />
<glyph unicode="&#xb1;" horiz-adv-x="2116" d="M295 1480l24 23q198 24 741 19q-5 92 -17 333q-14 208 -14 335q0 28 36.5 57.5t69.5 29.5l26 -26q24 -193 19 -729q337 -5 743 -33q29 -16 29 -31v-18l-43 -29q-203 0 -729 -4q-9 -659 -35 -711q-15 -28 -38 -28q-10 0 -19 38q-28 101 -28 443v113v126v14q-92 0 -335 -14 q-213 -10 -338 -10q-28 0 -57.5 33t-34.5 69zM540 430l10 4q101 33 470 36q396 0 512 -59q14 -5 14 -15q0 -23 -29 -23q-148 0 -438.5 -29.5t-436.5 -29.5q-24 0 -60.5 43.5t-41.5 72.5z" />
<glyph unicode="&#xb4;" horiz-adv-x="1066" d="M231 1291q0 19 19 33l510 392q54 42 80 42q45 3 45 -61q0 -59 -40 -92q-54 -43 -302 -192.5t-276 -149.5q-33 0 -36 28z" />
<glyph unicode="&#xb5;" horiz-adv-x="1505" d="M-628 -1319q0 250 305 849q73 140 568 1027q305 545 305 665q0 64 -52 64q-68 0 -154.5 -75.5t-116.5 -75.5q-5 5 -5 10q0 42 164 142.5t218 100.5q139 0 139 -92q0 -144 -259 -619l-111 -193q-33 -73 -36 -156q0 -134 118 -134q156 0 560 705q28 69 101 189q29 38 69 38 q42 0 78.5 -36.5t36.5 -84.5q0 5 -171 -323t-171 -507q0 -170 158 -170q140 0 314 155q111 102 257 288q121 156 130 156q19 0 19 -28q0 -33 -28 -83q-135 -222 -319 -387q-231 -212 -436 -212q-272 0 -269 337q0 78 70 305l-212 -305q-165 -189 -288 -189q-116 0 -151 161 q-673 -1130 -673 -1466q0 -68 59 -66q38 0 113.5 48.5t113.5 48.5l9 -5q-4 -59 -142 -135.5t-205 -76.5q-106 0 -106 130z" />
<glyph unicode="&#x3bc;" horiz-adv-x="1505" d="M-628 -1319q0 250 305 849q73 140 568 1027q305 545 305 665q0 64 -52 64q-68 0 -154.5 -75.5t-116.5 -75.5q-5 5 -5 10q0 42 164 142.5t218 100.5q139 0 139 -92q0 -144 -259 -619l-111 -193q-33 -73 -36 -156q0 -134 118 -134q156 0 560 705q28 69 101 189q29 38 69 38 q42 0 78.5 -36.5t36.5 -84.5q0 5 -171 -323t-171 -507q0 -170 158 -170q140 0 314 155q111 102 257 288q121 156 130 156q19 0 19 -28q0 -33 -28 -83q-135 -222 -319 -387q-231 -212 -436 -212q-272 0 -269 337q0 78 70 305l-212 -305q-165 -189 -288 -189q-116 0 -151 161 q-673 -1130 -673 -1466q0 -68 59 -66q38 0 113.5 48.5t113.5 48.5l9 -5q-4 -59 -142 -135.5t-205 -76.5q-106 0 -106 130z" />
<glyph unicode="&#xb6;" horiz-adv-x="2647" d="M-250 -812q14 28 47 28q425 0 861 885q140 281 503 1277q-743 69 -746 545q0 416 470 725q425 281 859 281q87 0 262 9.5t262 9.5q116 0 186 -19q199 203 411 203q127 0 156 -64q-14 -14 -89.5 -23.5t-127.5 -42.5q-262 -156 -614 -944l-590 -1421q-333 -779 -557 -908 q-23 -15 -57 -15q-28 0 -28 19q10 24 66 78q262 246 581 1194l323 968q217 576 479 887h-49q-333 0 -763 -899q-193 -396 -488 -1227q-180 -498 -498 -961q-425 -627 -784 -627q-73 0 -75 42z" />
<glyph unicode="&#xb7;" horiz-adv-x="693" d="M576 642q0 116 120 118q121 -2 121 -118t-121 -116q-120 0 -120 116z" />
<glyph unicode="&#x2219;" horiz-adv-x="693" d="M576 642q0 116 120 118q121 -2 121 -118t-121 -116q-120 0 -120 116z" />
<glyph unicode="&#xb8;" horiz-adv-x="1080" d="M73 -1300q0 23 43 37q174 29 349 55q170 47 167 281q0 68 -125 244t-125 272q0 166 92 293t246 127q54 0 59 -33q-106 -18 -164 -105.5t-58 -198.5q0 -59 139 -236t139 -312q0 -231 -254 -365q-208 -111 -465 -111q-43 0 -43 52z" />
<glyph unicode="&#xba;" horiz-adv-x="922" d="M116 1246q0 276 243 649q-10 54 -12 106q0 174 117 338.5t284 164.5q111 0 179 -133q55 -111 55 -231q0 -262 -203 -663q73 -43 163 -43q160 0 300 126q132 119 133 127h-1q33 -2 33 -35q0 -10 -10 -19q-68 -116 -206 -198.5t-268 -82.5q-97 0 -180 49 q-221 -354 -457 -354q-170 0 -170 199zM290 1260q0 -97 73 -97q69 0 177 116q100 92 137 174q-160 107 -243 248q-144 -304 -144 -441zM460 2024q78 92 154 92q73 0 106 -49v-24q5 -14 5 -23q0 -14 -48 -14q-87 0 -184 -185q64 -184 222 -299q120 304 120 498q0 106 -33 217 q-47 156 -125 156q-111 0 -174 -137q-43 -96 -43 -208v-24z" />
<glyph unicode="&#xbb;" horiz-adv-x="2029" d="M411 651q0 74 479 741q-475 600 -475 647q0 68 55 64l37 -19q107 -144 269 -278l317 -255q14 -10 14 -29q0 -54 -257 -415q-218 -314 -319 -430q-42 -54 -92 -54q-28 0 -28 28zM1166 651q0 74 477 741q-475 600 -472 647q0 68 51 64l41 -19q106 -144 267 -278l316 -255 q14 -10 14 -29q0 -54 -255 -415q-217 -314 -319 -430q-42 -54 -92 -54q-28 0 -28 28z" />
<glyph unicode="&#xbf;" horiz-adv-x="1739" d="M-24 -1246q0 241 314 521l581 454q314 257 314 446q0 54 -36 61q10 83 64 83q83 0 83 -116q0 -203 -305 -512l-561 -517q-305 -295 -305 -460q0 -144 156 -144q479 0 960 420q48 54 147 149q19 18 47 21q31 -3 31 -21q0 -24 -36 -66q-42 -69 -184 -185 q-498 -420 -932 -420q-130 0 -227 78q-111 83 -111 208zM1213 765q0 115 125 115q120 0 120 -115q0 -116 -120 -118q-125 0 -125 118z" />
<glyph unicode="&#xf7;" d="M92 522q0 68 170 120q78 28 217 31q170 0 448 -41q126 -18 126 -47q0 -33 -126 -40q-87 -5 -259 -14q-144 -19 -456 -42h-23q-97 -5 -97 33zM439 257q0 116 127 116q121 0 121 -116q0 -115 -121 -118q-125 0 -127 118zM484 927q0 116 120 116q121 0 121 -116 q0 -115 -121 -115q-120 0 -120 115z" />
<glyph unicode="&#x192;" horiz-adv-x="1071" d="M-1227 -1475q0 198 66 198q19 0 35 -120q10 -78 19 -158q59 -227 213 -229q169 0 358 208q241 257 583 1142q290 748 418 1260q-241 -59 -326 -57q-38 0 -38 15q0 68 411 184l227 660q174 484 358 746q246 354 531 352q175 0 295.5 -108.5t120.5 -283.5q0 -54 -19 -130 q-24 -101 -64 -101q-23 0 -23 148q0 421 -251 423q-125 0 -257 -123q-281 -262 -498 -729q-106 -236 -314 -836q83 5 247 24t247 19q139 0 129 -43l-28 -18q-526 -64 -637 -133q-43 -115 -203 -613q-198 -642 -314 -961q-87 -245 -132 -358q-78 -203 -158 -347 q-241 -416 -614 -416q-165 0 -273.5 111t-108.5 274z" />
<glyph unicode="&#x2c6;" horiz-adv-x="1786" d="M309 1633q0 47 295 292.5t364 255.5l28 -10q189 -212 604 -524l24 -47l-19 -33q-102 5 -360.5 169t-345.5 256q-488 -406 -552 -406q-38 0 -38 47z" />
<glyph unicode="&#x2c7;" horiz-adv-x="1786" d="M250 2237q0 47 36 50q63 0 549 -406q88 92 340 250q272 170 366 175l21 -33l-26 -50q-415 -309 -604 -517l-28 -14q-69 10 -361.5 254t-292.5 291z" />
<glyph unicode="&#x2d8;" horiz-adv-x="887" d="M222 2103q0 47 23 47q24 0 64 -71q54 -87 106 -132q83 -73 213 -71q245 0 425 309q23 43 49 43q19 0 19 -19q0 -9 -9 -28q-199 -411 -517 -411q-272 0 -359 250q-14 47 -14 83z" />
<glyph unicode="&#x2d9;" horiz-adv-x="835" d="M347 2136q0 73 145 177t223 104q5 0 14 -10v5v-10q0 19 -66 -82l-82 -194q-59 -129 -133 -129q-33 0 -67 50.5t-34 88.5z" />
<glyph unicode="&#x2da;" horiz-adv-x="1104" d="M208 2277q0 102 49 213q59 130 139 153q78 156 246 156q92 0 150 -75.5t58 -177.5q0 -169 -137 -311t-307 -142q-198 0 -198 184zM387 2282q0 -97 73 -97q116 0 195 116t79 236q0 175 -106 175q-55 0 -139 -64l51 -28q-14 -33 -96 -156q-59 -87 -57 -182z" />
<glyph unicode="&#x2db;" horiz-adv-x="1130" d="M184 -531q0 125 92 333q106 231 213 236l14 -14q-166 -232 -166 -425q0 -198 220 -198q83 0 219.5 55t141.5 55q54 0 54 -42q0 -64 -233 -142q-199 -63 -291 -61q-266 0 -264 203z" />
<glyph unicode="&#x2dc;" horiz-adv-x="1314" d="M139 2126q0 78 208 199q83 47 175 49q82 0 232 -50.5t228 -50.5q115 0 203 101q28 -2 28 -21q0 -73 -193 -203q-59 -38 -130 -38q-88 0 -244.5 65t-234.5 65q-83 0 -162 -62.5t-105 -62.5q-5 5 -5 9z" />
<glyph unicode="&#x2dd;" horiz-adv-x="752" d="M5 1808q-19 0 9 38q227 323 345 528q153 5 167 -5l-9 -11q-38 -64 -231.5 -281t-243.5 -255q-18 -19 -37 -14zM337 1775q-18 4 10 37q226 329 344 531q156 5 170 -4l-11 -10q-38 -63 -231.5 -280.5t-240.5 -254.5q-19 -19 -41 -19z" />
<glyph unicode="&#x3a9;" horiz-adv-x="670" d="M33 9q0 97 78 135l304 252q222 189 222 272q0 59 -101 57q-88 0 -229.5 -51t-136.5 -51q-14 0 -14 9q0 15 28 41q170 129 382 129q203 0 203 -134q0 -170 -512 -519h57q42 4 64 7q221 0 356 -151q14 -19 14 -33q0 -24 -28 -26q-14 0 -29 12q-179 106 -332 106 q-64 0 -175 -34.5t-142 -34.5q-9 0 -9 14z" />
<glyph unicode="&#x2126;" horiz-adv-x="670" d="M33 9q0 97 78 135l304 252q222 189 222 272q0 59 -101 57q-88 0 -229.5 -51t-136.5 -51q-14 0 -14 9q0 15 28 41q170 129 382 129q203 0 203 -134q0 -170 -512 -519h57q42 4 64 7q221 0 356 -151q14 -19 14 -33q0 -24 -28 -26q-14 0 -29 12q-179 106 -332 106 q-64 0 -175 -34.5t-142 -34.5q-9 0 -9 14z" />
<glyph unicode="&#x3c0;" horiz-adv-x="1593" d="M54 807q0 38 33 69q189 184 402 184q110 0 313 -66.5t314 -66.5q106 0 276 111q15 0 15 -18q0 -34 -38 -69q-144 -134 -359 -120q-42 -165 -92 -328q-47 -194 -47 -338q0 -184 92 -184q54 0 144 66q73 59 208 307q14 33 28 33q9 -5 9 -9q0 -74 -129.5 -245t-207.5 -192 q-43 -14 -83 -14q-156 0 -153 229q0 406 101 694q-101 28 -304 73q-10 -545 -184 -876q-10 -14 -24 -14q-28 5 -31 14q0 24 32 109t37 106q54 236 54 670h-12q-207 0 -356 -130q-14 -9 -24 -9q-14 0 -14 14z" />
<glyph unicode="&#x410;" horiz-adv-x="3624" d="M68 198q0 281 236 517q213 212 503 290q484 135 1541 130l635 779q87 125 269 363q19 24 45 24q64 0 61 -59q0 -14 -9 -33q-28 -43 -300 -401l-512 -678q241 -14 474 -66q135 614 347 1150q59 148 194 424q19 34 131 102t150 68q42 -2 42 -44q0 -15 -23 -52 q-411 -687 -683 -1692q218 -69 220 -126q0 -47 -54 -49q-5 0 -87.5 32t-106.5 36q-139 -580 -139 -918q0 -165 47 -165q43 0 118.5 61.5t89.5 61.5q42 0 45 -54q0 -55 -94.5 -110.5t-158.5 -55.5q-184 0 -184 305q0 309 123 904q-246 33 -571 40q-144 -180 -383 -437 q-387 -415 -594 -569q-373 -271 -763 -271q-262 0 -420 116q-189 125 -189 377zM198 208q0 -161 135 -241q111 -73 285 -73q368 0 720 241q227 155 576 523q144 144 300 324h-135q-831 0 -1258 -111q-240 -69 -420 -239q-203 -193 -203 -424z" />
<glyph unicode="&#x411;" horiz-adv-x="3483" d="M111 2098q0 68 49 144q135 208 498 323q295 92 605 92q290 0 415 -37q64 -19 61 -64q0 -38 -37 -38h-15q-396 38 -410 38q-250 0 -508 -66q-323 -83 -446 -234q-47 -59 -47 -97q0 -120 295 -120q286 0 772 127l779 213q28 47 92 134q63 74 231 74q64 0 64 -26 q0 -10 -83 -121q295 55 552 55q267 0 536 -142q314 -165 314 -401q0 -78 -47 -76q-24 0 -36 43q-14 82 -37 125q-83 144 -310 233q-193 74 -391 71q-310 0 -711 -87q-363 -517 -627 -1062q-126 -262 -211 -484q484 33 881 -28q415 -64 705 -253q97 198 64 359 q-73 281 -488 396q-161 43 -322.5 60.5t-324.5 -3.5l-102 -9q-63 0 -68 40q-14 38 14.5 65t82.5 46q97 14 232.5 2t274.5 -41.5t268 -68.5t211 -76q359 -161 420 -411q55 -198 -101 -470q82 -73 128.5 -120t55.5 -87q5 -64 -40 -69q-10 0 -17 6t-21 11l-92 102 q-38 42 -78 65q-212 -285 -646 -467q-189 -83 -392 -129t-430 -69q-285 -29 -585 61q-387 111 -446 364q-78 290 160 507q48 42 123.5 79t160.5 64t170 46q9 0 21 4q78 203 189 454q236 535 540 1045l-725 -208q-434 -111 -731 -111q-439 0 -439 227zM835 0 q55 -208 354 -290q227 -73 463 -47q972 92 1350 670q-156 87 -331.5 155.5t-378.5 106.5q-387 82 -730 42q-14 0 -46 -5l-67 -9h-24q-110 -345 -110 -595q0 -188 63 -188q43 0 120.5 56.5t87.5 56.5q42 0 42 -45q0 -54 -99 -109.5t-160 -55.5q-236 0 -239 299q0 203 107 539 q-208 -74 -319 -203q-139 -156 -83 -378z" />
<glyph unicode="&#x412;" horiz-adv-x="3044" d="M5 267q0 323 309 531q262 174 604 193q208 479 451 928q78 148 250 424q78 107 248 107q68 0 66 -38q0 -14 -10 -28q-455 -614 -840 -1393q1088 -23 1619 -488q156 203 154 382q0 304 -411 479q-319 130 -675 130h-53h-60q-64 0 -62 42q0 88 140 111q77 10 233 36 q586 120 855 370q110 106 110 184q0 175 -448 262q-304 59 -630 57q-871 0 -1624 -314q-23 -9 -37 -9q-38 0 -38 40q0 59 65 128.5t121 93.5q503 202 1282 202q465 0 861 -87q618 -130 618 -415q0 -231 -377 -420q-281 -144 -585 -194q346 -82 590 -229q337 -207 337 -486 q0 -226 -236 -498q139 -170 142 -248q0 -68 -55 -66q-23 0 -37 24q-74 130 -137 198q-314 -290 -822 -446q-443 -130 -927 -130q-323 0 -614 125q-377 161 -377 442zM217 257q0 -222 295 -349q231 -102 484 -102q1074 0 1619 590q-272 227 -682 357q-392 120 -767 123 q-73 0 -142 -5q-290 -618 -290 -829q0 -14 4.5 -37.5t4.5 -37.5q0 -64 -52 -64q-77 0 -77 130q0 217 247 817q-642 -107 -644 -593z" />
<glyph unicode="&#x413;" horiz-adv-x="2430" d="M-144 101q0 338 458 749q444 401 774 401q42 0 42 -33q0 -29 -66 -52q-545 -208 -866 -616q-193 -246 -193 -482q0 -304 349 -304q479 0 951 463q354 354 637 885l92 188q232 567 243 933l-219 -44q-104 -20 -187 -39l-363 -104l-363 -104q-444 -111 -730 -111 q-439 0 -439 227q0 68 48 146q134 208 498 324q290 92 604 92q285 0 415 -38q64 -19 64 -64q0 -38 -38 -38h-16l-303 28q-99 10 -108 10q-246 0 -508 -68q-318 -78 -443 -232q-47 -54 -50 -96q0 -121 295 -121q281 0 774 125l514 138q265 75 534 129q-33 92 -120 92 q-64 0 -159.5 -53t-100.5 -53q-33 0 -35 42q0 64 165 130q139 54 227 54q174 0 221 -179q97 10 194 19t193 9q267 0 539 -139q313 -170 313 -401q0 -78 -49 -78q-28 0 -33 45q-14 78 -40 125q-78 144 -309 231q-199 73 -390 73q-68 0 -172 -11.5t-220 -30.5v-17 q0 -434 -285 -1062l-24 -110l-101 -137q-291 -508 -687 -850q-493 -420 -982 -420q-226 0 -373 101q-174 116 -172 328z" />
<glyph unicode="&#x414;" horiz-adv-x="3624" d="M-101 267q0 323 304 531q267 174 609 193q217 508 474 970q78 149 227 382q82 107 245 107q69 0 69 -38q0 -14 -10 -28q-455 -614 -840 -1393q1300 -28 1772 -654q319 222 522 513q236 337 238 677q0 545 -613 835q-475 217 -1088 220q-817 0 -1449 -359q-38 -19 -64 -19 q-64 0 -64 73q0 107 151 187q217 115 661 189q373 59 692 59q715 0 1257 -253q706 -323 706 -956q0 -382 -267 -755q-226 -318 -590 -559q19 -43 19 -69q0 -68 -47 -66q-19 0 -68 76q-725 -434 -1666 -434q-102 0 -194 4q-328 14 -609 135q-377 160 -377 432zM111 257 q0 -217 295 -344q222 -97 484 -107h120q918 0 1633 461q-222 276 -734 448q-460 161 -866 161q-64 0 -125 -5q-290 -618 -290 -829q0 -14 4.5 -37.5t4.5 -37.5q0 -64 -52 -64q-78 0 -78 130q0 217 246 817q-642 -107 -642 -593z" />
<glyph unicode="&#x415;" horiz-adv-x="2836" d="M144 1145q0 115 101 155q24 10 277 48q193 266 437.5 483t543.5 397q642 382 1256 382q203 0 322 -55.5t172 -147.5t43.5 -205t-64.5 -224t-151 -215t-216 -172q-276 -170 -594.5 -242t-597.5 -72q-448 0 -1050 -88q-241 -368 -241 -672q0 -290 217 -439 q185 -135 494 -137q734 0 1614 727q19 14 33 14q64 0 64 -64q0 -23 -19 -42q-359 -328 -843 -552q-521 -251 -960 -251q-354 0 -571 144q-251 166 -251 503q0 338 236 734q-240 -42 -217 -42q-33 0 -35 33zM760 1374q208 23 395.5 35t366.5 12q368 0 658.5 59t535.5 184 q449 347 449 578q0 236 -401 238q-494 0 -1107 -358q-541 -319 -897 -748z" />
<glyph unicode="&#x416;" horiz-adv-x="5328" d="M54 198q-9 184 121 401q115 185 264 300q33 19 54 19q73 5 73 -73q0 -33 -30 -66q-378 -354 -366 -585q5 -232 347 -218q217 10 449.5 109t487.5 283q382 276 644 628q-47 19 -108.5 51t-134.5 83q-14 10 -26 56t-2 70q23 82 160 -10q97 -78 198 -125q5 5 5 7t5 7 l111 180q193 377 189 672q-15 281 -203 425q-166 116 -432 111q-156 -10 -275 -58t-226.5 -138t-211.5 -224.5t-229 -313.5q-38 -47 -65 -7t-8 94q64 116 179.5 256.5t263 260.5t321 205t347.5 95q305 14 489 -121q217 -144 234 -483q9 -161 -37 -344t-138 -388l-106 -191 l-30 -51q-15 -27 -34 -51q179 -47 368 -44q29 -10 86.5 -7.5t154.5 11.5q78 217 189 479q281 652 547 1062l76 118q54 83 207 81q64 0 64 -29q0 -9 -38 -73l-73 -101q-387 -541 -618 -1029q-125 -272 -212 -498q110 9 247 24l307 35h19l78 144q156 271 359 490.5t448 408.5 q536 392 1064 420q461 14 472 -352q10 -184 -120 -401q-116 -184 -264 -300q-33 -19 -55 -19q-73 -9 -73 71q0 29 31 69q378 354 366 585q-10 231 -347 217q-420 -19 -939 -392q-227 -170 -412.5 -360t-326.5 -407l-97 -151q557 59 595 29q156 -116 82 -310 q-14 -28 -41 -64.5t-60 -69.5t-67.5 -51t-52.5 -8q-19 38 0 101q9 15 21 42l21 46q9 9 7 24.5t-12 20.5q-54 42 -212 37q-83 -4 -177 -4t-205 -5q-111 -262 -102 -489q14 -280 203 -424q165 -116 430 -111q155 4 275.5 55t226.5 140.5t211.5 224t230.5 314.5q37 47 64.5 7 t8.5 -95q-64 -115 -179.5 -255.5t-263 -261t-322.5 -208t-349 -91.5q-305 -14 -486 120q-217 144 -234 484q-9 130 22.5 279.5t93.5 310.5q-125 -5 -257 -5h-284q-101 -290 -134 -503l-14 -174q4 -139 85 -139q37 0 105.5 53t78.5 53q33 0 35 -45q0 -59 -87.5 -108.5 t-141.5 -49.5q-175 0 -186 226l4 166q24 212 121 516q-83 0 -172.5 -2t-186.5 -2l-231 33q-5 23 -38 35q-139 -203 -309 -373t-368 -318q-536 -392 -1065 -423q-460 -14 -472 354z" />
<glyph unicode="&#x417;" horiz-adv-x="2242" d="M-425 -1489q0 165 92 363q262 576 895 937q580 328 1255 373q43 116 43 194q0 184 -260 184q-217 0 -479 -107q-286 -115 -290 -118q-55 0 -52 45q0 55 61 116q28 33 191 81.5t206 78.5q391 241 741 574q469 448 467 746q0 295 -425 295q-439 0 -1024 -262 q-550 -258 -885 -581q-73 14 -73 78q0 217 484 470q332 174 691 278q411 121 769 123q628 -2 628 -441q0 -314 -406 -716q-212 -207 -682 -545h54q430 10 430 -330q0 -73 -24 -158h38q401 5 434 -97q-4 -38 -47 -38q-33 0 -86 19t-73 21.5t-117 2.5q-92 0 -179 -5 q-38 -97 -102 -198q-561 -968 -1324 -1449q-387 -250 -646 -253q-305 0 -305 319zM-245 -1407q0 -245 226 -245q184 0 479 182q342 212 739 696q363 441 571 852q-1020 -106 -1635 -746q-203 -212 -300 -420q-83 -189 -80 -319z" />
<glyph unicode="&#x418;" horiz-adv-x="3329" d="M-78 1135q0 111 64 248q198 425 774 772q562 342 1038 344q475 0 475 -387q0 -189 -137 -474q-165 -319 -463 -970q-115 -305 -118 -456q0 -139 102 -139q250 0 691 545q319 402 668 968q73 116 203 352q78 179 257 507q29 38 110 67.5t136 29.5q42 0 42 -24q0 -9 -9 -19 q-465 -802 -647 -1300q-271 -739 -271 -1185q0 -290 125 -290q47 0 122.5 68.5t92.5 68.5q42 0 42 -45q0 -64 -128.5 -138t-194.5 -74q-227 0 -229 363q0 415 295 1296l-574 -784q-443 -545 -691 -547q-309 0 -309 299q0 258 231 765l373 739q101 217 101 363 q0 286 -358 286q-397 0 -884.5 -288t-647.5 -642q-87 -189 -87 -305q0 -148 170 -148q37 0 112.5 14t108.5 14q38 0 38 -24q0 -59 -134 -96q-102 -24 -184 -24q-305 0 -305 250z" />
<glyph unicode="&#x419;" horiz-adv-x="3329" d="M-78 1135q0 111 64 248q198 425 774 772q562 342 1038 344q475 0 475 -387q0 -189 -137 -474q-165 -319 -463 -970q-115 -305 -118 -456q0 -139 102 -139q250 0 691 545q319 402 668 968q73 116 203 352q78 179 257 507q29 38 110 67.5t136 29.5q42 0 42 -24q0 -9 -9 -19 q-465 -802 -647 -1300q-271 -739 -271 -1185q0 -290 125 -290q47 0 122.5 68.5t92.5 68.5q42 0 42 -45q0 -64 -128.5 -138t-194.5 -74q-227 0 -229 363q0 415 295 1296l-574 -784q-443 -545 -691 -547q-309 0 -309 299q0 258 231 765l373 739q101 217 101 363 q0 286 -358 286q-397 0 -884.5 -288t-647.5 -642q-87 -189 -87 -305q0 -148 170 -148q37 0 112.5 14t108.5 14q38 0 38 -24q0 -59 -134 -96q-102 -24 -184 -24q-305 0 -305 250zM2450 3297q4 73 40 66q28 -5 61 -120q59 -144 123 -217q92 -126 259 -144q319 -43 600 396 q38 64 68 57q29 -5 24 -33q0 -15 -14 -40q-324 -590 -734 -536q-354 47 -423 439q-14 78 -4 132z" />
<glyph unicode="&#x41a;" horiz-adv-x="3532" d="M-144 101q0 338 458 749q444 401 774 401q42 0 42 -33q0 -29 -66 -52q-545 -208 -866 -616q-193 -246 -193 -482q0 -304 349 -304q479 0 951 463q354 354 637 885q-226 323 -226 401q0 47 29.5 146t62.5 99q14 0 23 -23q107 -267 203 -435q241 581 243 951 q0 232 -141 234q-64 0 -159.5 -53t-100.5 -53q-33 0 -35 42q0 64 165 130q139 54 227 54q245 0 247 -354q0 -434 -285 -1062q996 456 1269 987q24 42 64 158q14 47 50 50q56 0 52 -74v-14q-33 -599 -1459 -1217q203 -300 517 -635q425 -449 633 -449q110 0 110 121 q0 28 -11.5 84.5t-11.5 70.5q0 43 38 43q82 0 82 -194q0 -101 -62.5 -168.5t-159.5 -67.5q-250 0 -682 420q-281 277 -554 638q-291 -508 -687 -850q-493 -420 -982 -420q-226 0 -373 101q-174 116 -172 328z" />
<glyph unicode="&#x41b;" horiz-adv-x="3299" d="M-170 314q69 333 604 637q517 300 843 234q38 -10 33 -45q-5 -28 -78 -38q-581 -87 -975 -415q-236 -203 -290 -437q-64 -300 278 -370q470 -97 1027 255q420 271 826 727.5t566 649.5l319 402q43 64 110 152l159 211q24 24 45 24q64 0 61 -59q0 -5 -9 -33 q-24 -38 -300 -401l-285 -382l-593 -749q-392 -434 -852 -686q-571 -310 -1043 -208q-222 47 -344 175q-149 148 -102 356zM2865 38q2 318 123 904q160 729 370 1272q29 78 78 182l116 242q19 34 132 102q111 68 149 68q42 0 42 -44q0 -15 -23 -52q-416 -692 -683 -1692 l-28 -107q-139 -590 -139 -918q0 -165 47 -165t116 64q78 59 92 59q42 0 45 -54q0 -55 -97 -107q-97 -59 -156 -59q-184 0 -184 305z" />
<glyph unicode="&#x41c;" horiz-adv-x="4668" d="M-170 314q64 333 604 637q512 295 843 234q38 -10 33 -45q-10 -33 -78 -38q-576 -87 -975 -415q-240 -203 -290 -437q-68 -300 278 -370q475 -97 1027 255q420 266 826 726q406 456 564 652l160 196l161 205q43 64 110 152l159 211q47 102 145 142t184 46t139.5 -7 t15.5 -13q42 0 45 -43q0 -14 -26 -54l-56 -93q-27 -46 -50 -96q-74 -139 -127 -274.5t-97.5 -283t-90.5 -318.5l-106 -389q291 369 633 734q106 116 223 220t232.5 184t224 126t196.5 46q42 0 42 -45q0 -47 -26 -112t-60 -138l-69 -143q-36 -69 -53 -119q-68 -184 -127 -369 t-128 -374q-160 -522 -155 -744q4 -179 132 -179q68 0 167 87q111 83 128 81q19 0 19 -24q9 -101 -128 -172q-115 -73 -212 -73q-257 0 -269 328q-10 212 87 576q38 129 93 296l129 369l67 165q39 97 82 236q28 106 -12 143t-128 -46q-203 -170 -507 -545l-375 -493 q-172 -236 -307 -461q-38 -73 -74.5 -132t-64.5 -113q-10 -24 -27.5 -53.5t-41.5 -62.5q-14 -4 -37 -4q-135 0 -142 115q0 24 14 47q5 5 41.5 83t82.5 186l97 224l88 204q43 188 99 368l110 334l97 282q44 127 67 210q28 106 14 131t-101 -58q-19 -33 -300 -401l-147 -203 q-70 -97 -138 -180l-216 -269l-377 -479q-387 -424 -852 -686q-571 -310 -1043 -208q-217 47 -344 175q-149 148 -102 356z" />
<glyph unicode="&#x41d;" horiz-adv-x="3917" d="M-87 198q0 595 981 871q664 184 1468 182q175 0 305 -10q250 623 252 925q0 189 -120 187q-64 0 -160.5 -53t-106.5 -53q-28 0 -28 45q0 63 158 125q144 59 234 59q222 0 222 -317q0 -332 -232 -937q425 -59 656 -134l156 347q359 783 614 1078q63 74 231 74 q64 -3 64 -26q0 -10 -10 -24q-604 -802 -913 -1508q309 -149 309 -319q0 -37 -27 -81t-60 -44q-59 0 -59 57q0 14 14 34t14 39q0 97 -241 208q-262 -614 -259 -909q0 -174 101 -174q43 0 119.5 56.5t88.5 56.5q42 0 42 -45q0 -54 -99 -109.5t-163 -55.5q-221 0 -221 295 q0 304 257 939q-257 83 -673 125q-309 -580 -866 -1038q-632 -527 -1208 -529q-333 0 -569 161q-271 184 -271 502zM83 165q0 -250 221 -392q189 -120 449 -120q521 0 1093 496q483 427 759 967q-110 10 -252 10q-729 0 -1352 -175q-918 -257 -918 -786z" />
<glyph unicode="&#x41e;" horiz-adv-x="3122" d="M0 1166q0 415 406 767q319 276 788 446q503 184 1006 182q469 0 788 -173q401 -224 401 -653q0 -343 -271 -730q-343 -498 -988.5 -826t-1249.5 -328q-632 0 -635 508q0 155 74 337q-319 149 -319 470zM111 1171q0 -286 252 -373q222 391 669.5 804t848.5 579 q203 82 347 92h9q59 4 59 -45q0 -47 -68 -62q-184 -28 -333 -113q-179 -97 -401 -269q-262 -198 -526 -474q-354 -364 -411 -562q92 -19 177 -19q429 0 866 406q175 161 170 161q33 0 33 -40q-189 -272 -479 -439q-309 -185 -623 -185q-102 0 -179 26q-83 -160 -83 -299 q0 -194 140.5 -300t338.5 -106q581 0 1161 347q541 323 888 826q261 377 261 682q0 337 -309 507q-245 135 -618 135q-484 0 -1034 -217q-410 -166 -727 -402q-429 -332 -429 -660z" />
<glyph unicode="&#x41f;" horiz-adv-x="4271" d="M33 1440q0 396 552 778q416 286 909 439q406 121 743 123q798 0 798 -630q0 -439 -352 -1107l550 663q416 449 654 449q352 0 352 -338q0 -285 -280 -899t-280 -793q0 -144 135 -144q78 0 191 81.5t132 81.5t19 -24q0 -96 -132 -168t-239 -72q-257 0 -257 269 q0 198 144 533q175 392 184 420q102 241 157.5 437t55.5 307q0 169 -121 169q-59 0 -148 -37q-347 -161 -876 -824q-387 -488 -706 -1019q-77 -140 -236 -338q-106 0 -106 106q0 33 14 59q267 324 590 1048q347 779 347 1131q0 521 -618 521q-295 0 -673 -130 q-434 -144 -840 -425q-536 -368 -536 -705q0 -276 371 -276q198 0 538 96q33 10 47 10q38 0 38 -28q0 -83 -250 -140q-198 -47 -328 -49q-541 0 -543 425z" />
<glyph unicode="&#x420;" horiz-adv-x="2232" d="M-184 2122q0 59 83 129q68 64 134 88q526 174 1239 174q503 0 965 -101q548 -120 548 -522q0 -125 -69 -262q-160 -318 -590 -507q-377 -165 -774 -163q-212 0 -439 24q-488 -918 -488 -1213q0 -14 4.5 -39t4.5 -34q0 -69 -52 -69q-78 0 -78 132q0 328 435 1251 q-402 78 -402 227q0 96 123 160q102 54 208 52q54 0 52 -33q0 -33 -118 -60t-118 -84q0 -83 300 -165q184 382 361 701q54 92 165 266q73 102 245 102q69 0 69 -35q0 -15 -10 -34q-342 -464 -651 -1033q106 -14 212 -14q397 0 798 177q460 212 573 538q24 78 26 148 q0 319 -427 402q-295 59 -665 59q-803 0 -1577 -281q-33 -10 -52 -10q-33 0 -35 29z" />
<glyph unicode="&#x421;" horiz-adv-x="2492" d="M-24 420q0 397 324 866q382 557 991 923q651 401 1286 401q545 0 545 -377q0 -328 -363 -605q-338 -266 -680 -264q-354 0 -354 269q0 194 87 194q34 0 34 -43q0 -14 -5 -43.5t-5 -43.5q0 -189 248 -189q257 0 580.5 246.5t323.5 487.5q0 236 -401 238q-83 0 -161 -9 q-415 -43 -947.5 -351t-883.5 -718q-392 -465 -392 -890q0 -267 179 -406q161 -125 435 -125q880 0 1706 687q19 14 38 14q59 0 59 -64q0 -23 -19 -42q-354 -323 -836 -552q-531 -251 -963 -251q-354 0 -571 144q-257 170 -255 503z" />
<glyph unicode="&#x422;" horiz-adv-x="5383" d="M-245 1430q0 250 361 543q245 198 585 361q285 135 585 227q425 125 758 127q705 0 705 -538q0 -434 -347 -1107l550 663q416 449 654 449q290 0 290 -435q0 -377 -295 -1092q319 358 701 724q541 512 763 586q63 18 106 18q151 3 151 -191q0 -160 -97 -391l-304 -737 q-194 -507 -194 -734q0 -174 130 -174q73 0 186.5 82.5t131.5 82.5q19 0 22 -24q0 -97 -133.5 -170t-234.5 -73q-277 0 -277 326q0 212 116 564q92 262 267 658q68 130 174 397q43 130 43 193q0 55 -33 52q-246 0 -880 -691q-461 -503 -763 -937q-96 -139 -160 -243 q-24 -55 -78 -116q-19 -5 -38 -5q-144 0 -146 116q0 24 17.5 48.5t180.5 369.5q489 1015 489 1458q0 203 -125 203q-203 0 -678 -517q-536 -590 -1005 -1368l-106 -177q-78 -121 -125 -161q-111 0 -111 106q0 33 19 59q266 324 575 1024q338 753 338 1112q0 484 -531 484 q-281 0 -677 -142q-267 -97 -544.5 -246.5t-525.5 -338.5q-368 -286 -365 -467q0 -272 526 -272q106 0 313.5 32t309.5 32q38 0 40 -19q0 -19 -26 -35q-165 -116 -545 -116q-276 0 -474 78q-272 106 -269 342z" />
<glyph unicode="&#x423;" horiz-adv-x="3629" d="M-78 1135q0 111 64 248q198 425 774 772q562 342 1038 344q475 0 475 -387q0 -189 -140.5 -474.5t-397.5 -877.5q-83 -231 -83 -364q0 -139 106 -139q262 0 706 545l413 517l292 475q5 54 22 158q14 73 118 174.5t177 101.5q59 0 56 -62q0 -18 -4 -25l-43 -111 q-73 -208 -156 -744q-37 -304 -158 -908h47q126 4 248 -24q173 -40 173 -123q0 -54 -52 -52q-24 0 -45 10q-130 59 -241 56q-73 0 -165 -18q-231 -784 -812 -1334q-642 -613 -1407 -613q-212 0 -370 92q-189 115 -189 313q0 581 1072 1112q764 378 1586 557q47 198 125 1197 q-38 -64 -66 -107l-621 -830q-406 -498 -652 -498q-332 0 -332 309q0 285 306.5 891.5t306.5 781.5q0 286 -358 286q-397 0 -884.5 -288t-647.5 -642q-87 -189 -87 -305q0 -148 170 -148q37 0 112.5 14t108.5 14q38 0 38 -24q0 -59 -134 -96q-102 -24 -184 -24 q-305 0 -305 250zM503 -1333q0 -251 410 -253q364 0 682 142q449 198 850 684q385 470 533 963q-658 -125 -1456 -531q-1019 -517 -1019 -1005z" />
<glyph unicode="&#x424;" horiz-adv-x="3063" d="M73 1286q0 364 338 682q285 262 649.5 387t718.5 125q130 0 265 -9q59 0 115 -7l83 156q-958 -10 -1864 -364q-38 -9 -50 -9q-28 0 -28 26q0 33 27 74t62.5 76.5t79 62.5t76.5 37q314 111 682 166.5t807 55.5h151q64 0 125 -5q38 73 64 116q33 68 102 170q63 92 236 92 q47 0 47 -19q-5 -5 -5 -9.5t-5 -9.5l-177 -276l-59 -92h10q526 -59 793 -166q460 -179 458 -599q0 -373 -338 -680q-139 -129 -304 -227t-343.5 -163t-360 -97t-354.5 -32q-134 0 -269.5 10.5t-277.5 29.5q-47 10 -78 24q-42 -92 -80 -184h19q188 4 292 -17t109 -48 t-105 -41.5t-355 0.5h-10q-87 -208 -144 -387q-59 -189 -90.5 -330.5t-31.5 -215.5q0 -14 5.5 -38.5t5.5 -34.5q0 -47 -35 -47q-64 0 -61 111q0 83 28 230.5t83 338.5q54 179 125 387q-449 54 -668 151q-465 179 -463 599zM286 1241q0 -377 405 -512q116 -38 291 -61 q115 -19 259 -31q33 92 78 184q-448 97 -448 281q0 111 139 189q106 64 231 61q48 0 50 -23q0 -14 -151 -62q-139 -42 -139 -127q0 -130 351 -231l59 115q97 208 281 562l401 762q-14 14 -35 26q-28 19 -61 19q-272 0 -553 -73q-424 -125 -738 -368q-420 -319 -420 -711z M1484 880q36 -4 78 -14q149 -28 293 -31q134 0 270 20.5t277 57.5q421 125 744 368q420 319 420 711q0 368 -411 512q-111 38 -299 68q-180 24 -406 38l-76 -134l-26 -40q111 -48 156 -97q47 -55 26 -88t-104 -37q-73 0 -179 42q-33 -64 -71 -130l-212 -374l-215 -384 l-198 -367z" />
<glyph unicode="&#x425;" horiz-adv-x="3122" d="M-271 -87q0 188 224 424q170 185 384 314q43 24 64 26q33 0 33 -26q0 -37 -75 -106q-470 -392 -470 -632q0 -149 231 -149q779 0 1997 1116q-212 609 -212 1261v136q4 38 64.5 100.5t100.5 62.5q28 0 28 -33q0 33 0 -156q0 -646 194 -1213l139 142q217 217 502 599 q364 475 364 638q0 68 -73 68q-69 0 -187 -50.5t-127 -50.5q-24 0 -24 23q0 69 203 139q180 64 274 64q151 0 151 -134q0 -251 -470 -838q-354 -439 -696 -758q121 -295 267 -521q226 -364 411 -364q155 0 193 250q9 69 52 69q42 0 45 -47q0 -156 -106.5 -276.5 t-257.5 -120.5q-236 0 -476 324q-170 221 -295 531q-479 -421 -968 -701q-637 -364 -1116 -361q-368 0 -368 250z" />
<glyph unicode="&#x426;" horiz-adv-x="3329" d="M-78 1135q0 111 64 248q198 425 774 772q562 342 1038 344q475 0 475 -387q0 -189 -137 -474q-165 -319 -463 -970q-115 -305 -118 -456q0 -139 102 -139q250 0 691 545q319 402 668 968q73 116 203 352q78 179 257 507q29 38 110 67.5t136 29.5q42 0 42 -24q0 -9 -9 -19 q-465 -802 -647 -1300q-271 -739 -248 -899q0 -291 128 -291q47 0 122.5 67.5t89.5 67.5q43 0 43 -43q0 -63 -127.5 -137.5t-196.5 -74.5q-226 0 -226 361q-24 130 269 1013l-574 -784q-443 -545 -691 -547q-309 0 -309 299q0 258 231 765l373 739q101 217 101 363 q0 286 -358 286q-397 0 -884.5 -288t-647.5 -642q-87 -189 -87 -305q0 -148 170 -148q37 0 112.5 14t108.5 14q38 0 38 -24q0 -59 -134 -96q-102 -24 -184 -24q-305 0 -305 250zM2362 -807q24 68 83 73q5 9 117 -55.5t192 -55.5q227 33 331 328q106 286 61 600l19 28 q106 9 92 -319q-14 -295 -80 -483q-107 -300 -378 -343q-97 -4 -271 57q-194 78 -166 170z" />
<glyph unicode="&#x427;" horiz-adv-x="3329" d="M-78 1135q0 111 64 248q198 425 774 772q562 342 1038 344q475 0 475 -387q0 -189 -137 -474q-43 -87 -149 -374t-106 -438q0 -139 101 -139q251 0 692 545q318 401 470.5 643t256.5 426t185 212.5t136 28.5q42 0 42 -24q0 -9 -9 -19q-465 -802 -647 -1300 q-271 -739 -271 -1185q0 -290 125 -290q47 0 122.5 68.5t92.5 68.5q42 0 42 -45q0 -64 -128.5 -138t-194.5 -74q-227 0 -229 363q26 807 344 1508q-14 9 -299 -382q-444 -545 -692 -548q-309 0 -309 300q0 257 231 765q149 342 151 488q0 286 -358 286q-397 0 -884.5 -288 t-647.5 -642q-87 -189 -87 -305q0 -148 170 -148q37 0 112.5 14t108.5 14q38 0 38 -24q0 -59 -134 -96q-102 -24 -184 -24q-305 0 -305 250z" />
<glyph unicode="&#x428;" horiz-adv-x="4415" d="M-78 1135q0 116 64 248q193 420 774 772q562 342 1038 344q475 0 475 -387q0 -198 -137 -474q-170 -319 -463 -970q-115 -305 -118 -456q0 -139 102 -139q245 0 691 545q314 392 668 968q38 59 86 145l117 207q38 92 101.5 218t155.5 289q29 38 110 67.5t136 29.5 q42 0 42 -24q0 -9 -9 -19q-291 -498 -468 -880l5 -5q-14 -28 -30 -55l-34 -60q0 -5 -2 -7.5t-2 -7.5q-10 -23 -19 -35l-167 -337q-95 -194 -206 -444q-116 -305 -116 -456q0 -139 102 -139q245 0 691 545q161 203 325 442.5t336 525.5q38 59 88 145l115 207q38 92 101.5 218 t155.5 289q29 38 111.5 67.5t134.5 29.5q42 0 45 -24q0 -9 -10 -19l-303 -546q-133 -251 -230 -469l-62 -147l-54 -138q-271 -739 -245 -899q0 -291 125 -291q42 0 120 69q83 68 92 66q43 0 45 -43q0 -63 -132 -134q-120 -78 -194 -78q-226 0 -226 361q-24 130 276 1013 l-289 -393l-287 -391q-444 -545 -691 -547q-310 0 -310 299q0 258 234 765q10 14 17 28t16 36l-215 -290l-210 -291q-443 -545 -691 -547q-309 0 -309 299q0 258 231 765l189 370l184 369q101 217 101 363q0 286 -358 286q-402 0 -885 -291q-489 -285 -647 -639 q-87 -189 -87 -305q0 -148 170 -148q37 0 112.5 14t108.5 14q38 0 38 -24q0 -63 -134 -96q-111 -24 -184 -24q-305 0 -305 250z" />
<glyph unicode="&#x429;" horiz-adv-x="4415" d="M-78 1135q0 116 64 248q193 420 774 772q562 342 1038 344q475 0 475 -387q0 -198 -137 -474q-170 -319 -463 -970q-115 -305 -118 -456q0 -139 102 -139q245 0 691 545q314 392 668 968q38 59 86 145l117 207q38 92 101.5 218t155.5 289q29 38 110 67.5t136 29.5 q42 0 42 -24q0 -9 -9 -19q-291 -498 -468 -880l5 -5q-14 -28 -30 -55l-34 -60q0 -5 -2 -7.5t-2 -7.5q-10 -23 -19 -35l-167 -337q-95 -194 -206 -444q-116 -305 -116 -456q0 -139 102 -139q245 0 691 545q161 203 325 442.5t336 525.5q38 59 88 145l115 207q38 92 101.5 218 t155.5 289q29 38 111.5 67.5t134.5 29.5q42 0 45 -24q0 -9 -10 -19l-303 -546q-133 -251 -230 -469l-62 -147l-54 -138q-271 -739 -245 -899q0 -291 125 -291q42 0 120 69q83 68 92 66q43 0 45 -43q0 -63 -132 -134q-120 -78 -194 -78q-226 0 -226 361q-24 130 276 1013 l-289 -393l-287 -391q-444 -545 -691 -547q-310 0 -310 299q0 258 234 765q10 14 17 28t16 36l-215 -290l-210 -291q-443 -545 -691 -547q-309 0 -309 299q0 258 231 765l189 370l184 369q101 217 101 363q0 286 -358 286q-402 0 -885 -291q-489 -285 -647 -639 q-87 -189 -87 -305q0 -148 170 -148q37 0 112.5 14t108.5 14q38 0 38 -24q0 -63 -134 -96q-111 -24 -184 -24q-305 0 -305 250zM3514 -840q24 68 83 71q4 9 115 -56t194 -55q226 33 328 330q106 286 64 597l18 31q107 9 92 -319q-14 -295 -82 -484q-106 -299 -378 -344 q-96 -5 -269 59q-193 78 -165 170z" />
<glyph unicode="&#x42d;" horiz-adv-x="2836" d="M73 281q-97 333 28 705q10 24 29 29q78 47 137 28q9 -9 9 -19q-217 -835 375 -1066q241 -97 557 -36q343 38 711 257q188 125 350 277.5t287 341.5q73 111 138 251t115.5 285.5t80 282t20.5 243.5q-19 236 -123 394t-307 236q-323 125 -613 -59q-139 -102 -230 -251.5 t-129 -357.5q-5 -38 -50 -64q-96 -68 -162 -38q-24 10 -24 33q-5 74 23.5 156.5t82.5 179.5q144 226 371 370q474 305 894 132q489 -198 517 -691q19 -231 -79 -498t-268 -523t-391.5 -475.5t-448.5 -356.5q-208 -130 -412 -209t-407 -105q-333 -59 -628 50 q-363 149 -453 498zM1484 1126q-14 68 38 54q24 -5 77 -20t121 -44q69 -28 122 -42t91 -21q92 -24 213.5 -38t256 -23.5t268 -16.5t248.5 -7q180 9 166 14q23 -10 37 -45q38 -139 -33 -149q-23 -9 -72.5 -11.5t-139.5 2.5q-83 5 -186.5 12t-212.5 18.5t-208 26t-167 30.5 q-571 111 -619 260z" />
<glyph unicode="&#x42e;" horiz-adv-x="6199" d="M-87 245q0 595 981 871q668 184 1468 184q88 0 163.5 -2t141.5 -7q250 618 252 923q0 188 -120 188q-64 0 -161 -54q-96 -54 -106 -52q-28 0 -28 43q0 59 158 125q144 59 234 59q222 0 222 -314q0 -338 -232 -937q217 -28 420 -82.5t319 -92.5q0 -4 5 -4q14 23 31.5 42 t31.5 45q-155 120 -155 337q0 343 318 649q64 59 112.5 99.5t96.5 72.5l103 64q56 34 139 78q507 184 1005 182q470 0 789 -172q401 -227 401 -654q0 -342 -272 -729q-337 -498 -991 -826q-646 -328 -1246 -328q-632 0 -635 507q0 156 73 338l59 98q29 50 67 105 q-48 19 -57 23q-262 83 -673 125q-155 -290 -370 -548.5t-496 -489.5q-628 -526 -1208 -526q-333 0 -569 158q-271 184 -271 502zM83 212q0 -257 221 -391q185 -121 449 -121q521 0 1093 498q488 432 759 968q-54 5 -119 7t-133 2q-729 0 -1352 -174q-918 -251 -918 -789z M3552 460q0 -193 138 -299.5t341 -106.5q580 0 1161 347q540 324 887 826q262 378 262 682q0 342 -309 508q-241 134 -618 134q-484 0 -1036 -217q-121 -38 -253 -127.5t-244 -203t-184 -242t-72 -244.5q0 -188 120 -276q83 97 172.5 191.5t191.5 191.5q448 410 849 580 q102 38 189 63t161 29h9q59 5 57 -45q0 -47 -66 -61q-175 -28 -335 -111q-93 -47 -191 -115l-211 -156q-129 -97 -259 -215t-267 -260q-78 -77 -134 -148h56q328 0 682 337q135 139 137 142q24 0 24 -36q-144 -236 -378 -372q-250 -156 -493 -154q-24 0 -48.5 -2.5 t-48.5 2.5q-19 -23 -33 -46l-28 -46q96 -64 154 -126.5t58 -123.5q0 -38 -27 -83t-60 -45q-59 0 -59 59q0 15 14 33.5t14 40.5q0 23 -47 64.5t-111 79.5q-54 -81 -83 -149q-82 -165 -82 -300z" />
<glyph unicode="&#x42f;" horiz-adv-x="3299" d="M9 314q64 333 605 637q73 43 167.5 80.5t178 56.5t139 5t41.5 -73q-10 -34 -76 -38q-144 -24 -295 -83t-276 -150t-219.5 -217t-129.5 -282q-54 -245 131 -346.5t529.5 -19t807 364.5t965.5 799q-290 -116 -525 -98t-399 121.5t-246.5 274.5t-66 365t140.5 392t374 351 q319 203 597.5 189t476.5 -189q184 -165 216 -442t-148 -620q92 48 153 112l116 123q55 60 117.5 106t154.5 61q59 14 68 -29q0 -14 -19 -49l-80 -140l-95 -170q-49 -87 -89 -172t-66 -151l-38 -106q-83 -276 -124 -491t-46 -366q-5 -139 59 -139q69 14 149 83 q101 73 106 66q64 14 64 -33q0 -59 -121 -116q-125 -73 -188 -87q-222 -29 -236 241q0 295 148 847q10 54 44 167.5t77 238.5q-24 -24 -84 -79.5t-167 -123.5l-302 -341q-118 -134 -241.5 -240t-278.5 -210t-400 -255q-139 -87 -304.5 -161.5t-329.5 -127.5t-318.5 -72 t-270.5 5q-217 47 -344 175q-149 148 -102 356zM1489 1562q14 -139 91 -256t235 -170t398.5 -24.5t585.5 174.5q208 387 200.5 648t-152.5 395.5t-379.5 147.5t-475.5 -98q-106 -47 -203 -133.5t-170 -195t-108.5 -233.5t-21.5 -255z" />
<glyph unicode="&#x430;" horiz-adv-x="1390" d="M78 139q0 250 242 606.5t468 434.5q83 33 158 33q175 0 253 -120q14 -24 14 -33q0 -5 -34 -15.5t-49 -34.5q-115 -189 -115 -566q0 -347 151 -347q106 0 302 234.5t210 234.5q14 -2 14 -26q0 -23 -28 -66q-213 -342 -401 -441q-88 -42 -175 -42q-295 0 -295 415 q0 68 9 144q-323 -576 -575 -574q-149 0 -149 163zM241 222q0 -102 68 -102q106 0 276 222q236 300 397 706q-19 5 -45 5q-194 0 -401 -246q-295 -359 -295 -585z" />
<glyph unicode="&#x431;" horiz-adv-x="1172" d="M73 -156q0 29 28 31q15 0 70.5 -17.5t95.5 -17.5q217 0 429 247q161 189 262 439q92 217 90 479q0 161 -71 161q-160 0 -427 -441q-250 -411 -250 -614q0 -54 36.5 -82.5t36.5 -47.5t-26 -19q-179 0 -177 260q0 189 96.5 456.5t260.5 536.5t372 493.5t434 325.5 q116 48 217.5 77.5t186.5 46.5l152 32q67 14 122 38q73 28 123.5 60t79 36.5t31 -36.5t-26.5 -147q-68 -93 -237 -160t-515 -91q-199 -9 -373.5 -137.5t-344.5 -419.5l-132 -229q-50 -89 -84 -158.5t-59 -133.5t-48 -149q120 217 295 416q231 266 410 264q144 0 147 -208 q0 -300 -189 -680q-125 -261 -328 -455q-241 -227 -493 -227q-194 0 -194 71z" />
<glyph unicode="&#x432;" horiz-adv-x="1172" d="M73 -156q0 29 28 31q15 0 70.5 -17.5t95.5 -17.5q217 0 429 247q161 189 262 439q92 217 90 479q0 161 -71 161q-160 0 -427 -441q-250 -411 -250 -614q0 -54 36.5 -82.5t36.5 -47.5t-26 -19q-179 0 -177 260q0 184 88.5 476.5t272.5 670.5q156 304 538 913 q590 942 961 942q217 0 217 -198q0 -347 -609 -973q-392 -396 -913 -720q-83 -129 -167 -315.5t-133 -354.5q120 217 295 416q231 266 410 264q144 0 147 -208q0 -300 -189 -680q-125 -261 -328 -455q-241 -227 -493 -227q-194 0 -194 71zM798 1489q347 203 802 652 q545 526 555 797q0 102 -81 106q-125 0 -391 -212q-470 -373 -807 -1140q-55 -130 -78 -203z" />
<glyph unicode="&#x433;" horiz-adv-x="1241" d="M139 368q5 5 11 16.5t15 35.5q59 73 115.5 167.5t125 193.5t152.5 193.5t195 165.5q179 64 293.5 59t145 -67.5t-27 -175.5t-213.5 -269q-73 -59 -120 -131t-74.5 -145.5t-37 -136t-9.5 -104.5q0 -165 161 -156q68 5 110.5 25t125.5 100l387 519q54 -23 38.5 -43 t-52.5 -58q-184 -300 -339 -467.5t-339 -176.5q-115 4 -219 52.5t-128 169.5q-18 73 15 148.5t97.5 154.5t157 171t188.5 203q78 64 75.5 128.5t-55.5 99t-138 19t-167 -107.5q-43 -47 -74.5 -86t-55.5 -78l-48 -79l-58 -94q-175 -267 -227 -267q-19 0 -26 21z" />
<glyph unicode="&#x434;" horiz-adv-x="1264" d="M-1227 -1489q0 517 734 991q623 401 1208 493q33 184 111 555q-323 -576 -576 -574q-149 0 -149 163q0 246 242 604.5t469 436.5q87 33 160 33q69 0 164.5 -45t95.5 -104q0 -19 -43.5 -34t-58.5 -44l-51 -247l-170 -739h18q258 9 258 -111q0 -28 -19 -28q-5 0 -41.5 23.5 t-138.5 23.5q-47 0 -96 -5q-180 -724 -460 -1125q-522 -765 -1112 -765q-231 0 -388 135.5t-157 362.5zM-1088 -1503q0 -189 119 -302.5t306 -113.5q300 0 590 250q231 199 410 508q258 436 373 1069q-318 -54 -758.5 -276t-676.5 -444q-363 -347 -363 -691zM267 222 q0 -102 66 -102q106 0 276 222q236 300 396 706q-19 5 -42 5q-194 0 -401 -246q-295 -359 -295 -585z" />
<glyph unicode="&#x435;" horiz-adv-x="979" d="M125 359q0 250 217 550q231 318 479 318q47 0 84 -43.5t37 -90.5q0 -149 -227 -364q-203 -189 -373 -250q-33 -120 -33 -203q0 -198 180 -198q169 0 382 139q184 120 314 276q33 47 66 47q21 0 21 -18q0 -10 -9 -29q-121 -189 -364 -349q-257 -170 -469 -168 q-305 0 -305 383zM378 576q125 54 259 189q161 153 161 269q0 59 -59 59q-73 0 -213 -222q-120 -189 -148 -295z" />
<glyph unicode="&#x436;" horiz-adv-x="2612" d="M97 536q0 14 28 54q54 101 114.5 198t134.5 169t164 118t196 46q359 0 359 -382q0 -92 -40 -189l21 21q300 208 384 430q15 47 0 92q-4 19 -9 33t6 21t39 0t92 -35q130 -55 33 -352q-5 -24 -19 -58l-30 -73l-29 -73q-14 -34 -19 -53q-28 -78 -46 -113.5t-36 -99.5 q184 144 257 184q54 180 241 387q271 286 498 284q155 0 155 -121q0 -47 -73 -170q-68 -115 -111 -115q-19 0 -19 26q0 19 16.5 62.5t16.5 66.5q0 102 -125 102q-174 0 -314 -227q-129 -212 -132 -391q0 -300 262 -300q328 0 687 448q47 59 83 59q18 0 18 -14q0 -19 -28 -54 q-165 -241 -470 -449q-179 -110 -368 -110q-358 0 -356 379v41q-257 -189 -335 -392q-10 -24 15 -44t34 -43q5 -19 10 -33.5t-7 -22.5t-41.5 0t-86.5 37q-129 47 -35 351q9 43 36.5 104t36.5 99q28 78 46 140.5t32 126.5q-271 -217 -319 -203q-19 0 -26 19 q-63 -144 -207 -300q-272 -285 -498 -285q-156 0 -154 122q0 43 71 168q64 115 113 115q19 0 19 -23q0 -19 -17.5 -62.5t-17.5 -67.5q0 -101 127 -101q175 0 314 226q130 208 130 392q0 300 -260 300q-82 0 -142.5 -29.5t-111 -85t-96.5 -130.5l-100 -166l-10 -9 q-54 -59 -82 -59q-19 0 -19 14z" />
<glyph unicode="&#x437;" horiz-adv-x="1623" d="M-835 -1489q0 517 734 991q623 401 1203 493q-5 305 -236 305q-47 0 -147.5 -46t-133.5 -46q-63 0 -63 59q0 28 44 70q522 480 522 645q0 106 -120 106q-295 0 -621 -517q-33 -47 -47 -49q-19 0 -19 23q0 24 19 59q106 222 281 378q203 179 415 179q262 0 260 -219 q0 -236 -385 -546h14q160 5 273.5 -113t127.5 -283h19q227 5 262 -68q5 -19 5 -43q0 -28 -17 -28q-9 0 -42 23.5t-135 23.5q-47 0 -97 -5q-9 -469 -460 -1125q-521 -765 -1116 -765q-231 0 -385.5 135.5t-154.5 362.5zM-701 -1503q0 -189 118 -302.5t312 -113.5 q549 0 1000 758q364 613 373 1069q-323 -54 -763 -276t-672 -444q-368 -347 -368 -691z" />
<glyph unicode="&#x438;" horiz-adv-x="1404" d="M97 314q0 156 101 373q111 250 241 250q73 0 73 -38q0 -5 -122.5 -219.5t-122.5 -332.5q0 -156 92 -153q155 0 554 705q33 69 102 189q33 38 73 38q42 0 79 -36.5t37 -84.5q0 5 -171.5 -323t-171.5 -507q0 -170 159 -170q134 0 309 155q115 102 262 288q120 156 129 156 q15 0 15 -28q0 -33 -29 -83q-134 -222 -314 -387q-231 -212 -434 -212q-271 0 -271 337q0 78 73 305q-170 -246 -220 -305q-160 -189 -283 -189q-160 0 -160 272z" />
<glyph unicode="&#x439;" horiz-adv-x="1404" d="M97 314q0 156 101 373q111 250 241 250q73 0 73 -38q0 -5 -122.5 -219.5t-122.5 -332.5q0 -156 92 -153q155 0 554 705q33 69 102 189q33 38 73 38q42 0 79 -36.5t37 -84.5q0 5 -171.5 -323t-171.5 -507q0 -170 159 -170q134 0 309 155q115 102 262 288q120 156 129 156 q15 0 15 -28q0 -33 -29 -83q-134 -222 -314 -387q-231 -212 -434 -212q-271 0 -271 337q0 78 73 305q-170 -246 -220 -305q-160 -189 -283 -189q-160 0 -160 272zM647 1697q4 47 16 82q14 48 38 43t38 -83q23 -92 63 -139q59 -83 184 -101q246 -43 522 226q33 38 59 33 q19 -5 19 -23q-10 -5 -19 -24q-328 -363 -644 -314q-267 43 -276 300z" />
<glyph unicode="&#x43a;" horiz-adv-x="1758" d="M208 24q0 111 203 575q299 687 682 1296q590 942 960 942q220 0 220 -199q0 -346 -609 -969q-392 -397 -930 -803q-97 -203 -158 -392l477 477q358 338 528 340q125 0 125 -184q0 -189 -262 -368q-240 -170 -434 -158q102 -465 387 -465q281 0 614 441q28 42 59 42 q23 0 23 -23q0 -19 -19 -50q-115 -170 -330 -356q-257 -231 -401 -234q-180 0 -357 248q-165 222 -188 415l-227 -266q-111 -144 -146 -333q-54 -24 -111 -24q-106 0 -106 48zM840 1083q342 213 788 675q531 543 531 814q0 102 -80 102q-125 0 -387 -224 q-460 -383 -779 -1159q-73 -179 -73 -208zM909 682q18 -38 87 -40q144 0 323.5 128.5t179.5 263.5q0 96 -64 96q-97 0 -526 -448z" />
<glyph unicode="&#x43b;" horiz-adv-x="1918" d="M165 448q14 92 53 126.5t81.5 34.5t77 -26t43.5 -61q-78 -199 -75.5 -319t68.5 -145t181.5 55.5t259.5 282.5l109 146q80 109 222 265q47 59 91 107l140 155q33 33 78 33q111 0 111 -111q0 -23 -19 -59q-271 -443 -271 -705q0 -185 174 -185q135 0 290 142 q107 92 227 260q101 139 116 141q14 0 14 -28q0 -33 -29 -83q-328 -545 -682 -547q-276 0 -276 349q3 305 142 545l-306 -391q-145 -185 -242 -281q-134 -130 -254.5 -169t-203 2.5t-119 160.5t-1.5 305z" />
<glyph unicode="&#x43c;" horiz-adv-x="2312" d="M165 448q14 92 53 126.5t81.5 34.5t77 -26t43.5 -61q-78 -199 -75.5 -319t68.5 -145t181.5 55.5t259.5 282.5q55 74 124.5 203.5t142.5 377.5q179 92 256 89.5t85 -63.5t-35.5 -165t-96.5 -218l-99 -216q-46 -104 -46 -168l53 71q39 52 96 121l128 152q70 83 148 163 l299 331q19 19 44 33t44 14q110 0 110 -111q0 -24 -18 -59q-272 -444 -272 -706q0 -184 175 -181q134 0 290 139q106 92 227 262q101 139 115 139t14 -28q0 -33 -28 -83q-328 -545 -682 -547q-276 0 -276 349q0 156 32 283.5t100 247.5q-97 -92 -177 -184l-182 -217 l-85 -121q-44 -63 -88 -111.5t-87.5 -72t-90.5 4.5q-54 33 -32 145t67 237t88.5 226.5t29.5 116.5q0 23 -33 23t-33 -23q-97 -203 -209 -404t-209 -297q-134 -130 -254.5 -169t-203 2.5t-119 160.5t-1.5 305z" />
<glyph unicode="&#x43d;" horiz-adv-x="1380" d="M33 42q0 19 9 41q55 125 108 296t107 405q10 37 19.5 92.5t27.5 133.5q15 33 68 67.5t98 34.5q33 0 33 -29q0 -23 -39 -147l-110 -355l164 55q96 32 225 70q33 4 97 28l54 106q15 14 29 48.5l31 73.5l34 76q17 36 32 50q33 33 77 33q111 0 111 -111q0 -24 -19 -59 q-271 -444 -271 -706q0 -184 175 -181q134 0 290 139q106 92 227 262q101 139 115 139t14 -28q0 -33 -28 -83q-328 -545 -682 -547q-276 0 -276 349q0 194 59 363q-116 -28 -236.5 -68t-252.5 -92q-9 -38 -23 -74.5t-24 -76.5q-38 -227 -87.5 -308t-110.5 -81q-43 0 -45 84z " />
<glyph unicode="&#x43e;" horiz-adv-x="1104" d="M116 116q0 276 243 649q-10 54 -12 106q0 174 117 338.5t284 164.5q111 0 179 -133q55 -111 55 -231q0 -262 -203 -663q73 -43 163 -43q160 0 300.5 126.5t131.5 126.5q33 -2 33 -35q0 -10 -10 -19q-68 -116 -206 -198.5t-268 -82.5q-97 0 -180 49q-221 -354 -457 -354 q-170 0 -170 199zM290 130q0 -97 73 -97q69 0 177 116q100 92 137 174q-160 107 -243 248q-144 -304 -144 -441zM460 894q78 92 154 92q73 0 106 -49v-24q5 -14 5 -23q0 -14 -48 -14q-87 0 -184 -185q64 -184 222 -299q120 304 120 498q0 106 -33 217q-47 156 -125 156 q-111 0 -174 -137q-48 -106 -43 -232z" />
<glyph unicode="&#x43f;" horiz-adv-x="1342" d="M33 42q0 24 9 41q102 245 215 701q14 77 47 226q15 33 68 67.5t98 34.5q33 0 33 -29q0 -47 -227 -736q59 78 361 413l300 328q38 33 78 33q111 0 111 -111q0 -24 -19 -59q-272 -444 -272 -706q0 -184 175 -181q135 0 290 139q102 87 227 262q101 139 116 139q14 0 14 -28 q0 -33 -29 -83q-328 -545 -682 -547q-276 0 -273 349q0 309 139 545q-338 -304 -692 -840q-28 -42 -42 -42q-43 0 -45 84z" />
<glyph unicode="&#x440;" horiz-adv-x="1578" d="M-590 -1338q0 236 434 878l626 856v29q0 174 -5 304q-184 -299 -234 -299q-28 0 -28 35q0 19 14 38q213 299 213 535q0 48 -26 79.5t-26 51.5t148 20q165 0 165 -328q0 -47 -7 -142.5t-7 -137.5q135 245 300 453q250 309 420 309q156 0 154 -227q0 -285 -201 -661.5 t-437 -527.5q420 9 933 654q18 23 30 23q19 0 19 -28q0 -33 -28 -83q-125 -207 -418 -415q-309 -231 -522 -234q-42 0 -129 7h-125q-19 0 -147 33q-148 -387 -406 -811q-363 -590 -590 -590q-120 0 -120 179zM-420 -1305q0 -43 28 -43q213 0 586 697q96 184 207 632 q-5 24 -5 47q0 59 29 107q-5 4 -10 4q-19 0 -52 -47l-349 -512q-101 -144 -255 -441q-179 -343 -179 -444zM609 139q47 -73 170 -181q212 92 392 457q167 350 167 600q0 148 -82 151q-24 0 -48 -12q-174 -78 -368 -448q-144 -276 -231 -567z" />
<glyph unicode="&#x441;" horiz-adv-x="1062" d="M175 337q0 236 263 522t494 286q156 0 156 -121q0 -47 -71 -166t-113 -119q-19 0 -19 26q0 19 16.5 62.5t16.5 66.5q0 102 -125 102q-175 0 -314 -227q-130 -207 -132 -391q0 -300 262 -300q328 0 687 448q47 59 82 59q19 0 19 -14q0 -19 -28 -54q-170 -246 -470 -449 q-174 -110 -368 -110q-359 0 -356 379z" />
<glyph unicode="&#x442;" horiz-adv-x="1845" d="M0 42q0 24 5 41q111 262 226 734q10 68 40 193q10 33 65.5 67.5t93.5 34.5q33 0 35 -29q0 -47 -229 -736l359 479l174 234q74 87 149 85q78 0 78 -85q0 -64 -34.5 -250.5t-76.5 -542.5q135 193 420 564q78 92 153 92q74 0 74 -92q0 -78 -24 -230.5t-24 -227.5 q0 -250 130 -253q184 0 470 406q28 47 47 50q24 -3 24 -45q0 -19 -10 -28q-120 -170 -269 -314q-207 -194 -349 -194q-227 0 -227 503q0 78 5 175q-175 -156 -392 -557q-73 -135 -160 -135q-28 0 -43 19q-14 54 -14 135q0 139 64 512q33 188 33 243q0 37 -14 37 q-83 -73 -267 -313q-198 -262 -425 -614q-28 -42 -49 -42q-38 0 -38 84zM597 1201q7 104 45 177q47 111 165 168q213 125 562 97q87 0 583 -81q304 -54 401 0q59 33 83 85q28 64 11.5 117t2.5 91l9 5q38 23 37 -97t-32 -177q-73 -139 -154 -194q-120 -68 -382 -23 q-28 14 -116 23q-37 0 -143 38q-609 144 -895 -14q-54 -28 -87 -92q-14 -33 -14 -91t-15 -88l-21 -15q-47 -33 -40 71z" />
<glyph unicode="&#x443;" horiz-adv-x="1323" d="M-1135 -1489q0 517 739 991q618 401 1203 493q69 300 156 890q-59 -139 -209 -369t-256 -341q-125 -130 -236 -133q-156 0 -156 272q0 156 97 373q111 250 245 250q69 0 69 -38q0 -5 -120.5 -219.5t-120.5 -332.5q0 -156 87 -153q149 0 652 972q9 73 120 71q87 0 87 -38 q0 -64 -61 -411q-73 -410 -160 -788h19q257 9 257 -111q0 -28 -14 -28q-5 0 -44 23.5t-140 23.5q-48 0 -93 -5q-184 -724 -460 -1125q-521 -765 -1116 -765q-231 0 -388 135.5t-157 362.5zM-996 -1503q0 -189 118 -302.5t312 -113.5q295 0 585 250q231 199 411 508 q257 436 372 1069q-318 -54 -758 -276t-672 -444q-368 -347 -368 -691z" />
<glyph unicode="&#x444;" horiz-adv-x="1956" d="M47 130q0 250 203 571q69 111 154 207.5t191 179.5q250 189 521 189q106 0 151 -21l99 191l104 210q140 290 177 354q106 203 208 328q78 87 160 87q116 0 116 -101q0 -24 -14 -52q-19 -43 -123 -164.5t-292 -406.5q-170 -258 -300 -491.5t-253 -509.5l-4 -10 q236 305 382 435q250 222 434 222q156 0 156 -173q0 -250 -203 -571q-68 -111 -152 -207.5t-190 -179.5q-257 -189 -524 -189q-156 0 -187 36q-101 -246 -181.5 -484t-112 -462.5t-4.5 -434.5t133 -394q24 -68 -4.5 -131t-77 -91t-105 -11.5t-84.5 113.5l-45 171 q-17 60 -21.5 103.5t-4.5 82.5v110q0 392 222 1041l128 371q65 179 141 348q-87 -106 -213 -217q-240 -221 -434 -221q-148 0 -151 172zM286 241q0 -135 82 -135q170 0 444 368q267 354 267 517q0 43 -41.5 70t-41.5 36q0 19 28 19q92 0 147 -56q14 33 31 67l35 72 q-5 5 -29 5q-54 14 -92 14q-236 0 -458 -208q-165 -149 -276 -368q-96 -203 -96 -401zM880 111q17 0 71 -14q28 -5 53 -7.5t44 -2.5q231 0 460 203q165 161 276 373q97 203 97 401q0 135 -83 135q-170 0 -450 -368q-267 -354 -265 -517q0 -43 44 -70t44 -41t-31 -14 q-135 0 -172 111z" />
<glyph unicode="&#x445;" horiz-adv-x="1182" d="M14 -59q0 38 248 290q271 276 300 319q-29 116 -97 219q-14 -54 -108.5 -196.5t-125.5 -142.5q-28 0 -28 35q0 5 75.5 127.5t75.5 209.5q0 5 -17 78q-4 5 -4 14q0 83 156 83q73 0 153 -127q68 -107 87 -199q10 5 314 234q246 179 290 179q19 0 19 -16q0 -24 -259 -222 q-276 -212 -314 -269l101 -229q73 -149 158 -149q111 0 276.5 210t193.5 210q14 0 14 -14q0 -19 -33 -68q-323 -508 -531 -508q-149 0 -359 446q-42 -33 -297 -283t-269 -250q-19 0 -19 19z" />
<glyph unicode="&#x446;" horiz-adv-x="1163" d="M97 314q0 156 101 373q106 250 241 250q73 0 73 -38l-125 -222q-120 -207 -120 -330q0 -156 92 -153q139 0 472 566q47 87 89.5 149.5t84.5 178.5q38 38 74 38q42 0 78.5 -36.5t36.5 -84.5l-174 -323q-170 -328 -170 -498q0 -54 15 -80t48 -19t92 58t149 152 q24 28 34.5 -11t-58.5 -109l-34 -37q-17 -18 -32 -27q29 -64 10 -231q-10 -116 -34.5 -210.5t-57.5 -172.5q-97 -226 -314 -250q-83 0 -220 57q-153 82 -120 146q24 54 73 52q0 9 88 -47q82 -64 148 -54q184 9 286 240q87 194 78 427q-140 -82 -232 -29t-92 192 q0 69 19 151.5t52 139.5l-132 -188q-50 -72 -76 -103q-160 -189 -283 -189q-160 0 -160 272z" />
<glyph unicode="&#x447;" horiz-adv-x="1425" d="M149 396q0 19 26 52q188 258 382 664q-9 42 -12 106q0 111 45 257q47 184 130 182q54 0 92 -85q33 -69 33 -132q0 -121 -198 -352q42 -149 170 -151q87 0 169.5 94.5t115.5 94.5q43 0 77 -36.5t34 -84.5q0 5 -168.5 -323t-168.5 -507q0 -170 158 -170q134 0 309 155 q111 102 262 288q120 156 125 156q19 0 19 -28q0 -38 -29 -83q-377 -599 -748 -599q-271 0 -271 314q0 299 203 632q-28 -9 -64 -9q-78 0 -149 49q-87 55 -87 121q-54 -121 -198 -343q-179 -280 -236 -280q-19 0 -21 18z" />
<glyph unicode="&#x448;" horiz-adv-x="2121" d="M212 314q0 156 102 373q106 250 243 250q73 0 71 -38l-125 -222q-121 -207 -121 -330q0 -156 92 -153q125 0 420 469q0 5 10 24q47 115 111 189q5 9 9.5 13.5t9.5 14.5l-10 -24q59 59 121 57q73 0 73 -38l-125 -222q-121 -207 -121 -330q0 -156 92 -153q156 0 555 705 l101 189q38 38 74 38q42 0 78.5 -36.5t36.5 -84.5l-174 -323q-170 -328 -168 -507q0 -170 158 -170q130 0 309 155q116 102 262 288q125 156 130 156q14 0 14 -28q0 -33 -28 -83q-135 -222 -314 -387q-236 -212 -434 -212q-272 0 -272 337q0 38 25 118.5t63 190.5 q-83 -125 -146 -202l-88 -107q-160 -189 -283 -189q-161 0 -161 272q0 68 15 141l-97 -143q-38 -55 -62 -81q-160 -189 -285 -189q-161 0 -161 272z" />
<glyph unicode="&#x449;" horiz-adv-x="1918" d="M212 314q0 156 102 373q106 250 243 250q73 0 71 -38l-125 -222q-121 -207 -121 -330q0 -156 92 -153q125 0 420 469q0 5 10 24q47 115 111 189q5 9 9.5 13.5t9.5 14.5l-10 -24q59 59 121 57q73 0 73 -38l-125 -222q-121 -207 -121 -330q0 -156 92 -153q156 0 555 705 l101 189q38 38 74 38q42 0 78.5 -36.5t36.5 -84.5l-174 -323q-170 -328 -168 -498q0 -54 14 -80t48.5 -19t92 58t149.5 152q24 28 33.5 -9.5t-58.5 -110.5q-97 -97 -178.5 -131.5t-141.5 -22.5t-97 67.5t-37 142.5q0 38 24 118.5t64 190.5q-83 -125 -146 -202l-88 -107 q-160 -189 -283 -189q-161 0 -161 272q0 68 15 141l-97 -143q-38 -55 -62 -81q-160 -189 -285 -189q-161 0 -161 272zM1043 -550q24 54 73 52q0 9 87.5 -51t148.5 -50q184 9 286 240q97 217 78 475l19 19q87 4 54 -255q-24 -232 -92 -383q-97 -226 -314 -250q-83 0 -217 57 q-156 78 -123 146z" />
<glyph unicode="&#x44a;" horiz-adv-x="1918" d="M149 396q0 15 26 52q96 125 190.5 293t191.5 371q-5 23 -8.5 48t-3.5 58q0 111 45 257q54 184 130 182q54 0 92 -85q33 -64 33 -132q0 -116 -198 -352q42 -149 170 -151q92 0 169 92q83 97 116 97q43 0 77 -36.5t34 -84.5q0 5 -170 -323t-167 -507q0 -170 158 -170 q73 0 155.5 41t161.5 106t147.5 145.5t106.5 150.5q54 102 46 168t-52 94.5t-106.5 26t-115.5 -31t-81.5 -86t0.5 -135.5q33 -97 122.5 -109t205 30.5t235 125.5t211.5 184l61 -14q0 -28 -67 -92t-171 -129t-225.5 -115.5t-225.5 -57.5t-176 43.5t-77 185.5q-9 87 37 167.5 t115.5 135.5t152 79t152.5 0t113.5 -99.5t34.5 -219.5q-10 -134 -88 -251t-196 -205.5t-258 -145t-270 -70.5q-281 -28 -281 281q0 299 203 632q-38 -9 -64 -9q-82 0 -149 49q-87 47 -87 121q-23 -64 -74 -148l-124 -195q-179 -280 -236 -280q-19 0 -21 18z" />
<glyph unicode="&#x44b;" horiz-adv-x="2206" d="M189 212q0 130 48.5 290.5t120.5 322t159 307t165 246.5q19 29 53 21.5t67 -29.5t58 -53t25 -54q0 -24 -19 -50q-14 -24 -56 -84l-87 -131l-87 -134q-41 -62 -55 -80q-83 -166 -150.5 -339.5t-67.5 -265.5q0 -170 159 -170q101 0 229.5 85t225.5 196q-125 -9 -210 44 t-90 206q-9 88 33.5 168t113 135.5t155.5 79t155 2.5t113.5 -99t33.5 -222q-4 -68 -30 -134q97 47 189 109.5t160 135.5q33 69 65 124t65 103q28 42 68 44q43 0 79.5 -38.5t36.5 -81.5q0 -28 -19 -54q-241 -382 -243 -628q0 -175 127 -175q135 0 314 156q59 54 124 121.5 t131 157.5q125 155 128 155q23 0 23 -37q0 -38 -35 -78q-439 -585 -748 -585q-267 0 -267 285q0 125 83 356q-156 -120 -343 -198q-59 -87 -140 -156.5t-178 -123t-201 -87.5t-200 -43q-281 -29 -281 280zM782.5 621.5q-29.5 -55.5 1.5 -132.5q23 -78 98.5 -97t177.5 4 q9 15 16 30t17 29q54 107 45.5 169.5t-52 93t-106 26t-115.5 -35.5t-82.5 -86.5z" />
<glyph unicode="&#x44c;" horiz-adv-x="1288" d="M135 212q0 130 48 290.5t123.5 322t163 309t162.5 249.5q19 24 53.5 19t68.5 -27.5t55.5 -53t21.5 -54.5q0 -28 -19 -54q-14 -24 -56 -84l-87 -131l-87 -134q-42 -62 -56 -80q-82 -166 -149.5 -339.5t-67.5 -265.5q0 -170 161 -170q101 0 228.5 85t224.5 196 q-125 -9 -210 44t-90 206q-9 88 34.5 168t113 135.5t154.5 79t154.5 2.5t113.5 -99t34 -222q-5 -68 -28 -134q111 54 212.5 128.5t174.5 154.5l61 -14q-19 -48 -69.5 -103t-120 -108.5t-152.5 -101.5t-170 -84q-59 -87 -140.5 -156.5t-178 -123t-200.5 -87.5t-201 -43 q-280 -29 -280 280zM729 489q24 -78 99.5 -97t176.5 4q10 15 17 30t16 29q55 107 48 169.5t-51 93t-106.5 26t-115.5 -35.5t-82.5 -86.5t-1.5 -132.5z" />
<glyph unicode="&#x44d;" horiz-adv-x="1283" d="M276 581q0 9 28 47q69 97 145.5 186.5t161.5 156.5t179.5 104t205.5 27q359 -28 300 -406q-38 -241 -345 -493q-314 -262 -536 -241q-148 5 -134 130q9 43 97 165q77 106 129 102q24 0 10 -26q0 -19 -21.5 -60.5t-25.5 -64.5q-15 -107 106 -111q179 -14 347 198 q54 68 95.5 128.5t64.5 121.5h-63q-107 0 -159 -5q-170 -4 -271 -23q-9 0 -48 -12t-58 -12q-19 -4 -19 29q-7 82 182 92q332 18 460 14q0 14 9 45q43 295 -217 318q-82 5 -147 -17.5t-123 -73t-116 -120.5l-126 -157l-9 -9q-24 -29 -51 -40.5t-41 -11.5q-15 4 -10 19z" />
<glyph unicode="&#x44e;" horiz-adv-x="1633" d="M-68 38q0 23 4 35q130 227 281 661q10 38 25 90t39 122q23 33 78.5 65t105.5 32q33 0 28 -28q0 -24 -78 -194q-42 -106 -120 -281l406 123q54 14 120 33q29 5 59 14l5 5q-14 47 -14 102q0 165 120.5 319.5t294.5 154.5q116 0 189 -125q54 -102 52 -220q0 -245 -208 -623 q73 -42 170 -42q165 0 309 120.5t135 120.5q35 0 35 -33q0 -10 -12 -19q-73 -107 -214.5 -187t-271.5 -80q-101 0 -189 47q-226 -333 -474 -333q-175 0 -175 189q0 222 189 517q-139 -28 -290 -73q-130 -38 -269 -85l-59 -142q-64 -217 -119.5 -291t-121.5 -74q-33 0 -30 80 zM812 120q0 -92 78 -92q68 0 184 107q101 87 139 165q-165 101 -250 231q-149 -286 -151 -411zM986 840q83 83 159 83q77 0 111 -43v-26q4 -14 7 -19q0 -14 -50 -14q-92 0 -193 -174q68 -175 231 -284q127 288 127 472q0 97 -35 203q-54 144 -130 147q-116 0 -179 -125 q-55 -102 -48 -220z" />
<glyph unicode="&#x44f;" horiz-adv-x="1897" d="M241 448q14 92 53 126.5t82.5 34.5t78 -26t43.5 -61q-78 -199 -75.5 -319t68.5 -145t181.5 55.5t259.5 282.5q29 38 88 126q-144 4 -258.5 66.5t-152.5 162t15 214t237 220.5q130 73 222 75.5t147.5 -43.5t77 -126.5t16.5 -172.5t-33 -176t-83 -143h48q25 0 49 10 q69 120 97 138t33 18q106 -10 106 -114q0 -9 -19 -56q-54 -111 -99 -193.5t-45 -174.5q0 -185 173 -185q134 0 290 142q106 92 229 260q101 139 115 141q15 0 15 -28q0 -33 -29 -83q-328 -545 -682 -547q-276 0 -276 349v65q0 32 5 60q19 69 54 144q-28 -9 -57.5 -14 t-53.5 -5q-82 -111 -165 -210t-106 -122q-135 -130 -266 -176t-227.5 -13t-142.5 145t-13 298zM807 934.5q-5 -89.5 69.5 -188.5t206.5 -132q43 68 79.5 140t53 132t14 106t-35.5 56q-203 68 -292.5 22t-94.5 -135.5z" />
<glyph unicode="&#x451;" horiz-adv-x="979" d="M125 359q0 250 217 550q231 318 479 318q47 0 84 -43.5t37 -90.5q0 -149 -227 -364q-203 -189 -373 -250q-33 -120 -33 -203q0 -198 180 -198q169 0 382 139q184 120 314 276q33 47 66 47q21 0 21 -18q0 -10 -9 -29q-121 -189 -364 -349q-257 -170 -469 -168 q-305 0 -305 383zM378 576q125 54 259 189q161 153 161 269q0 59 -59 59q-73 0 -213 -222q-120 -189 -148 -295zM540 1484q0 59 117 143t178 84q5 0 15 -5v-4l-57 -69l-64 -153q-47 -111 -106 -111q-28 0 -55.5 42.5t-27.5 72.5zM1015 1484q0 59 118 143t177 84q5 0 14 -5 v-4q-24 -29 -52 -69q-33 -78 -68 -153q-43 -111 -107 -111q-28 0 -55 42.5t-27 72.5z" />
<glyph unicode="&#x2000;" horiz-adv-x="1803" />
<glyph unicode="&#x2001;" horiz-adv-x="3606" />
<glyph unicode="&#x2002;" horiz-adv-x="1803" />
<glyph unicode="&#x2003;" horiz-adv-x="3606" />
<glyph unicode="&#x2004;" horiz-adv-x="1202" />
<glyph unicode="&#x2005;" horiz-adv-x="901" />
<glyph unicode="&#x2006;" horiz-adv-x="601" />
<glyph unicode="&#x2007;" horiz-adv-x="601" />
<glyph unicode="&#x2008;" horiz-adv-x="450" />
<glyph unicode="&#x2009;" horiz-adv-x="721" />
<glyph unicode="&#x200a;" horiz-adv-x="200" />
<glyph unicode="&#x2010;" d="M92 522q0 68 170 120q78 28 217 31q170 0 448 -41q126 -18 126 -47q0 -33 -126 -40q-87 -5 -259 -14q-144 -19 -456 -42h-23q-97 -5 -97 33z" />
<glyph unicode="&#x2011;" d="M92 522q0 68 170 120q78 28 217 31q170 0 448 -41q126 -18 126 -47q0 -33 -126 -40q-87 -5 -259 -14q-144 -19 -456 -42h-23q-97 -5 -97 33z" />
<glyph unicode="&#x2012;" d="M92 522q0 68 170 120q78 28 217 31q170 0 448 -41q126 -18 126 -47q0 -33 -126 -40q-87 -5 -259 -14q-144 -19 -456 -42h-23q-97 -5 -97 33z" />
<glyph unicode="&#x2013;" horiz-adv-x="1739" d="M92 522q0 63 170 120q78 28 304 31q378 0 652 -41q125 -18 125 -47q0 -33 -125 -40q-333 -23 -1006 -56h-23q-97 -5 -97 33z" />
<glyph unicode="&#x2014;" horiz-adv-x="2140" d="M92 522q0 63 170 120q73 28 512 31q354 0 758 -22q134 0 401 -19q125 -18 125 -47q0 -33 -125 -40l-526 -14q-397 -19 -1195 -42h-23q-97 -5 -97 33z" />
<glyph unicode="&#x2018;" horiz-adv-x="811" d="M309 1116q0 97 174.5 304.5t259.5 207.5q10 0 10 -9q0 -14 -33 -52q-83 -92 -231 -330q82 0 82 -107q0 -139 -160 -139q-38 0 -70 41.5t-32 83.5z" />
<glyph unicode="&#x2019;" horiz-adv-x="811" d="M337 1005q0 19 36 59q54 64 236 328q-87 0 -87 107q0 129 165 129q97 0 97 -120q0 -97 -175 -304.5t-262 -207.5q-10 0 -10 9z" />
<glyph unicode="&#x201a;" horiz-adv-x="415" d="M262 342q101 14 144 17q9 0 14 -5v-12q0 -64 -36.5 -285.5t-55.5 -259.5q-9 -19 -28 -19q-14 0 -14 38q0 328 -24 526z" />
<glyph unicode="&#x201c;" horiz-adv-x="1250" d="M309 2030q0 96 174.5 304t259.5 208q10 0 10 -10q0 -19 -33 -56q-59 -64 -236 -331q87 0 87 -106q0 -130 -165 -130q-97 0 -97 121zM687 2030q0 96 173.5 304t260.5 208q9 0 9 -10q0 -19 -33 -56q-59 -64 -236 -331q88 0 85 -106q0 -130 -162 -130q-97 0 -97 121z" />
<glyph unicode="&#x201d;" horiz-adv-x="1250" d="M337 1890q0 19 36 52q64 73 236 340l-10 -5q-77 0 -77 107q0 59 50.5 96.5t114.5 37.5q33 0 65 -41t32 -79q0 -97 -175 -307t-262 -210q-10 5 -10 9zM715 1890q0 15 33 52q64 73 238 340l-9 -5q-78 0 -78 107q0 134 165 134q33 0 65 -41t32 -79q0 -102 -174.5 -309.5 t-266.5 -207.5q-5 0 -5 9z" />
<glyph unicode="&#x201e;" horiz-adv-x="752" d="M262 342q101 14 144 17q9 0 14 -5v-12q0 -64 -36.5 -285.5t-55.5 -259.5q-9 -19 -28 -19q-14 0 -14 38q0 328 -24 526zM595 342q101 14 144 17q9 0 14 -5v-12q0 -64 -35.5 -285.5t-54.5 -259.5q-9 -19 -31 -19q-14 0 -14 38q0 328 -23 526z" />
<glyph unicode="&#x2020;" horiz-adv-x="1869" d="M135 2025q4 9 14 9q240 29 745 36q19 377 19 868q0 24 62.5 60.5t93.5 41.5l10 -5v-92q0 -276 -50 -873q536 -5 783 -59q24 -5 24 -14q0 -24 -52 -24q-318 0 -764 -21q-74 -845 -159 -1459q-14 -156 -77 -425q-5 -14 -19 -14q-19 0 -22 29q0 9 17 184l33 443 q68 793 97 1237q-199 -9 -387 -19q-222 -14 -203 -14q-33 0 -94.5 41.5t-70.5 69.5z" />
<glyph unicode="&#x2021;" horiz-adv-x="2154" d="M9 -986q0 696 654 1963q-47 -9 -208 -64q-129 -47 -198 -47q-101 0 -101 80q0 64 255 118q160 24 318 52l194 342q-43 -9 -250 -70q-189 -55 -229 -55q-102 0 -102 83q0 64 290 125q185 28 369 59q240 411 328 536q203 318 382 498q92 92 217 92q73 0 73 -29 q0 -9 -14 -23l-257 -316q-250 -324 -517 -725q319 54 451 54q73 0 85 -30q-43 -59 -628 -163q-116 -175 -217 -349q411 73 571 73q73 0 87 -29q-42 -59 -344 -115q-198 -33 -392 -69q-687 -1203 -687 -1996q0 -47 15.5 -148.5t15.5 -151.5l-5 -5q-156 -4 -156 310z" />
<glyph unicode="&#x2022;" horiz-adv-x="2593" d="M262 1145q0 429 307 737t741 308q429 0 736 -308t307 -737q0 -435 -307 -741.5t-736 -306.5q-434 0 -741 306.5t-307 741.5z" />
<glyph unicode="&#x2026;" horiz-adv-x="2404" d="M526 38q0 115 132 118q121 -3 121 -118q0 -116 -121 -116q-129 0 -132 116zM1324 38q0 115 130 118q122 -3 122 -118q0 -116 -122 -116q-130 0 -130 116zM2006 38q0 115 125 118q125 -3 125 -118q0 -116 -125 -116t-125 116z" />
<glyph unicode="&#x202f;" horiz-adv-x="721" />
<glyph unicode="&#x2030;" horiz-adv-x="2518" d="M92 19q0 19 52 146q267 652 1147 1685q-69 -23 -137 -23q-83 0 -149 40q-184 -291 -387 -291q-139 0 -139 159q0 231 203 542q-5 43 -5 92q0 144 97 282.5t236 138.5q92 0 144 -116q47 -92 50 -189q0 -217 -170 -552q59 -38 137 -38q134 0 226 83l111 120 q165 189 474 474q29 19 62 19q97 0 97 -59q0 -9 -10 -23l-352 -354q-1165 -1180 -1508 -1888q-28 -59 -96 -258q-10 -23 -45 -23q-38 0 -38 33zM623 1749q0 -78 64 -76q59 0 148 92q78 81 111 149q-129 87 -203 203q-120 -257 -120 -368zM753 165q0 227 205 541 q-9 42 -12 87q0 144 97 282t243 138q88 0 144 -111q43 -92 45 -193q0 -218 -165 -550q59 -38 134 -40q208 0 326 184l76 134q-10 43 -10 88q0 143 97 281.5t243 138.5q87 0 144 -111q42 -92 42 -194q0 -217 -162 -550q37 -23 37 -40q0 -23 -66 -23q-189 -295 -387 -295 q-139 0 -141 165q0 106 59 262q-135 -106 -272 -109q-82 0 -149 45q-188 -295 -387 -295q-139 0 -141 165zM765 2388q73 78 129 76q64 0 88 -38q0 -9 4.5 -21t4.5 -21q0 -15 -45 -15q-73 0 -148 -155q54 -149 184 -246q101 250 101 416q0 87 -30 181q-38 125 -107 128 q-92 0 -144 -111q-37 -92 -37 -194zM899 175q0 -78 64 -78q59 0 149 92q77 80 110 148q-134 88 -202 203q-121 -250 -121 -365zM1038 812q69 78 133 78q63 0 85 -40q0 -5 7 -19v-24q0 -14 -41 -14q-73 0 -153 -151q54 -156 187 -250q96 255 96 420q0 87 -28 179 q-38 125 -102 125q-92 0 -143 -111q-38 -87 -41 -193zM1789 106q0 -78 61 -78q59 0 151 92q78 83 111 151q-134 88 -203 203q-120 -250 -120 -368zM1928 743q69 78 130 78q64 0 87 -37q0 -5 5 -19v-26q0 -10 -38 -10q-73 0 -156 -153q55 -156 189 -253q97 255 97 420 q0 88 -28 180q-38 125 -102 125q-92 0 -144 -111q-38 -87 -40 -194z" />
<glyph unicode="&#x2039;" horiz-adv-x="1347" d="M411 1237q0 54 252 415q222 314 319 432q42 54 92 52q33 0 33 -29q0 -73 -479 -738q469 -595 469 -649q0 -69 -49 -62l-38 19q-106 144 -276 286l-309 245q-14 10 -14 29z" />
<glyph unicode="&#x203a;" horiz-adv-x="1274" d="M411 651q0 74 479 741q-475 600 -475 647q0 68 55 64l37 -19q107 -144 269 -278l317 -255q14 -10 14 -29q0 -54 -257 -415q-218 -314 -319 -430q-42 -54 -92 -54q-28 0 -28 28z" />
<glyph unicode="&#x2044;" horiz-adv-x="1430" d="M184 -83q0 38 87 227q383 831 1398 1930q125 140 401 397q28 19 66 19q97 0 97 -59q0 -10 -10 -24l-356 -354q-1166 -1180 -1504 -1888q-28 -59 -101 -257q-9 -24 -40 -24q-38 0 -38 33z" />
<glyph unicode="&#x205f;" horiz-adv-x="901" />
<glyph unicode="&#x2122;" horiz-adv-x="3169" d="M130 2962q38 64 654 106q474 38 738 40q106 -2 106 -40q0 -59 -332 -94q-359 -38 -392 -102q-83 -149 -184 -465l-149 -484q-38 -125 -127 -323q-29 -42 -102 -45q-87 0 -85 64q0 68 182 507l238 553q59 165 57 203q0 42 -135 42q-59 0 -174.5 -12t-174.5 -12 q-101 0 -120 62zM1227 1619q0 19 184 479q194 489 217 555q10 120 24 238q24 170 118 168q33 0 61 -107q48 -280 92 -564q92 -415 258 -415q144 0 480 521.5t346 521.5q56 0 56 -130q0 -47 -23 -165q-33 -134 -38 -179q-14 -383 -69 -817q-47 -82 -169 -82q-55 0 -52 44 q0 10 4 38q48 267 156 798q-507 -652 -741 -652q-250 0 -429 652q-55 -111 -140 -444q-78 -300 -151 -415q-47 -78 -130 -78q-54 0 -54 33z" />
<glyph unicode="&#x2202;" horiz-adv-x="922" d="M92 92q0 92 53 232.5t145 289.5q130 207 222 207q59 0 87 -37q5 -43 5 -41q0 -14 -42 -14q-88 0 -208 -269q-111 -250 -113 -354q0 -78 59 -78q106 0 222 234q87 170 125 328q63 245 63 623q0 493 -184 493q-87 0 -87 38q0 64 160 64q241 0 241 -522q0 -217 -47 -465 q-59 -295 -175 -535q-170 -354 -382 -354q-144 0 -144 160z" />
<glyph unicode="&#x220f;" horiz-adv-x="3082" d="M198 894q0 572 614 1107q590 522 1170 522q343 0 584.5 -213.5t241.5 -551.5q0 -566 -599 -1100q-585 -516 -1161 -519q-342 0 -583 203q-267 213 -267 552zM373 890q0 -291 231 -475q213 -174 512 -174q512 0 1010 483.5t498 995.5q0 310 -191 508t-500 198 q-541 0 -1050.5 -498t-509.5 -1038zM812 1725q0 116 328 175q217 38 446 38q802 0 802 -333q0 -227 -276 -378q-236 -125 -484 -125q-106 0 -221 14q-251 -474 -253 -623v-19q5 -14 7 -19q0 -47 -40 -49q-54 0 -52 83q0 169 222 646q-203 38 -203 128q0 59 66 89 q54 33 118 36q38 0 38 -36q0 -23 -60.5 -37.5t-60.5 -33.5q0 -37 135 -73q92 194 271 498q48 59 140 59q47 0 49 -30q0 -15 -9 -24q-194 -271 -331 -526q43 -5 92 -5q217 0 446 111q277 134 274 328q0 227 -559 227q-406 0 -821 -144q-19 -5 -36 -5q-28 0 -28 28z" />
<glyph unicode="&#x221e;" horiz-adv-x="3516" d="M101 1161q0 415 439 772q416 337 848 340q217 0 382 -102q212 -134 222 -514q677 672 1043 672q165 0 271 -148q97 -130 97 -300q0 -354 -415 -710q-401 -338 -760 -340q-425 0 -425 479q-78 -69 -160 -121q-387 -257 -472 -299q-272 -144 -539 -147q-531 0 -531 418z M203 1102q0 -276 337 -276q300 0 687 212q319 180 581 437q4 94 4 153q0 305 -174 420q-144 88 -328 88q-257 0 -531 -175q-257 -165 -401 -394q-175 -281 -175 -465zM1992 1475q9 -489 377 -489q213 0 472 168q246 161 359 354q66 111 66 295q0 378 -351 378 q-166 0 -489 -286z" />
<glyph unicode="&#x2248;" horiz-adv-x="1458" d="M144 382q0 64 243 163q97 38 208 40q92 0 267.5 -41t267.5 -41q135 0 234 87q33 0 33 -19q0 -59 -222 -170q-68 -28 -155 -28q-97 0 -280 53t-280 53q-87 0 -184 -53t-127 -48q-5 0 -5 4zM144 835q0 64 243 166q97 37 208 37q92 0 267.5 -40t267.5 -40q135 0 234 85 q33 0 33 -19q0 -59 -222 -170q-68 -28 -155 -28q-97 0 -280 53t-280 53q-87 0 -184 -53t-127 -53q-5 5 -5 9z" />
<glyph unicode="&#x22f2;" horiz-adv-x="1458" d="M144 382q0 64 243 163q97 38 208 40q92 0 267.5 -41t267.5 -41q135 0 234 87q33 0 33 -19q0 -59 -222 -170q-68 -28 -155 -28q-97 0 -280 53t-280 53q-87 0 -184 -53t-127 -48q-5 0 -5 4zM144 835q0 64 243 166q97 37 208 37q92 0 267.5 -40t267.5 -40q135 0 234 85 q33 0 33 -19q0 -59 -222 -170q-68 -28 -155 -28q-97 0 -280 53t-280 53q-87 0 -184 -53t-127 -53q-5 5 -5 9z" />
<glyph unicode="&#x2260;" horiz-adv-x="1680" d="M267 425l4 5q29 9 310 25l309 390q-59 0 -262 -24q-165 -14 -265 -14q-23 0 -59.5 43.5t-36.5 72.5l4 4q121 34 458 36q144 0 243 -12l140 189q101 125 169 127q24 0 24 -21q0 -24 -217 -304q106 -10 208 -15q165 -18 162 -47q0 -19 -28 -19q-250 0 -410 -7l-310 -389h92 q517 5 642 -59q14 -5 14 -24q0 -14 -28 -14q-434 0 -821 -40l-135 -184q-106 -125 -170 -125q-33 0 -33 23q15 34 199 272q-97 -5 -107 -5q-23 0 -59.5 46t-36.5 70z" />
<glyph unicode="&#x2264;" horiz-adv-x="1536" d="M281 411l9 4q102 33 470 33q396 0 512 -56q14 -5 14 -14q0 -24 -30 -24q-149 0 -439.5 -29.5t-434.5 -29.5q-23 0 -59.5 43.5t-41.5 72.5zM411 1237q0 54 252 415q222 314 319 432q42 54 92 52q33 0 33 -29q0 -73 -479 -738q469 -595 469 -649q0 -69 -49 -62l-38 19 q-106 144 -276 286l-309 245q-14 10 -14 29z" />
<glyph unicode="&#x2265;" horiz-adv-x="1536" d="M198 411l10 4q101 33 469 33q397 0 512 -56q15 -5 15 -14q0 -24 -29 -24q-148 0 -439.5 -29.5t-435.5 -29.5q-24 0 -60.5 43.5t-41.5 72.5zM411 651q0 74 479 741q-475 600 -475 647q0 68 55 64l37 -19q107 -144 269 -278l317 -255q14 -10 14 -29q0 -54 -257 -415 q-218 -314 -319 -430q-42 -54 -92 -54q-28 0 -28 28z" />
<glyph unicode="&#x25ca;" horiz-adv-x="1970" d="M227 1466q0 179 705 1463q38 68 73 68q29 0 59 -73q74 -198 246 -599l342 -647q12 -26 12 -64q0 -134 -571 -1199q-43 -92 -135 -259q-33 -59 -73 -59q-33 0 -55 60l-70 180q-83 222 -248 539l-271 521q-14 28 -14 69zM460 1652q161 -434 439 -1310l531 1088 q-160 430 -439 1310z" />
<glyph unicode="&#xe000;" horiz-adv-x="1065" d="M0 1065h1065v-1065h-1065v1065z" />
<glyph unicode="&#xfb01;" horiz-adv-x="2124" d="M1385 179q0 144 97 397q87 231 184 361q28 42 68 45q43 0 79.5 -39t36.5 -82q0 -23 -19 -54q-241 -377 -243 -628q0 -174 127 -174q140 0 314 155q116 102 255 279q121 156 125 156q26 0 26 -38q0 -33 -35 -78q-439 -585 -748 -585q-267 0 -267 285zM1841 1397 q0 59 46 104t107 45q116 0 116 -116q0 -59 -45 -104t-109 -45q-115 0 -115 116zM-304 -1267q0 387 231 1040q189 541 436 1001l517 979q144 281 189 354q116 208 222 329q78 87 167 87q123 0 123 -102q0 -23 -14 -52q-42 -87 -446 -663q-359 -507 -595 -937q33 29 73 29 q149 0 251 -522q125 -73 214 -73q125 0 275 152t169 152q24 0 24 -28q0 -14 -15 -40q-285 -401 -512 -401q-82 0 -139 59q14 -97 14 -208q0 -387 -184 -852q-198 -484 -474 -720q-135 -111 -250 -111q-149 0 -222 199q-54 144 -54 328zM-97 -1291q0 -323 156 -323 q64 0 139 63q276 227 434 647q152 387 152 774q0 184 -41 347q-115 78 -194 205q-71 115 -71 229q0 13 1 26q-576 -1291 -576 -1968z" />
<glyph unicode="&#xfb02;" horiz-adv-x="2442" d="M1491 470q0 406 401 1092q329 562 701 970q267 291 446 291q59 0 111 -65t52 -129q0 -328 -623 -1116q-493 -614 -918 -1010q0 -527 267 -527t753 546q19 23 37 23q24 0 26 -33q0 -19 -14 -38q-170 -221 -387 -387q-276 -212 -488 -212q-364 0 -364 595zM1675 614 q267 231 715 852q465 646 562 936q43 135 43 208q0 92 -62 92q-139 0 -344 -271q-232 -314 -527 -885q-323 -623 -387 -932zM-304 -1267q0 387 231 1040q189 541 436 1001l517 979q144 281 189 354q116 208 222 329q78 87 167 87q123 0 123 -102q0 -23 -14 -52 q-42 -87 -446 -663q-359 -507 -595 -937q33 29 73 29q149 0 251 -522q125 -73 214 -73q125 0 275 152t169 152q24 0 24 -28q0 -14 -15 -40q-285 -401 -512 -401q-82 0 -139 59q14 -97 14 -208q0 -387 -184 -852q-198 -484 -474 -720q-135 -111 -250 -111q-149 0 -222 199 q-54 144 -54 328zM-97 -1291q0 -323 156 -323q64 0 139 63q276 227 434 647q152 387 152 774q0 184 -41 347q-115 78 -194 205q-71 115 -71 229q0 13 1 26q-576 -1291 -576 -1968z" />
</font>
</defs>
</svg>
