<?xml version="1.0" standalone="no"?>
<!DOCTYPE svg PUBLIC "-//W3C//DTD SVG 1.1//EN" "http://www.w3.org/Graphics/SVG/1.1/DTD/svg11.dtd" >
<svg xmlns="http://www.w3.org/2000/svg">
<metadata>
This is a custom SVG webfont generated by Font Squirrel.
Copyright   : Copyright c Gophmann AL rusifikatsia shrifta Young Baroque 2006 All rights reserved
Designer    : Gophmann AL
Foundry     : Gophmann AL rusifikatsia shrifta Young Baroque
</metadata>
<defs>
<font id="MargaritascriptRegular" horiz-adv-x="819" >
<font-face units-per-em="2048" ascent="1638" descent="-410" />
<missing-glyph horiz-adv-x="200" />
<glyph unicode=" "  horiz-adv-x="200" />
<glyph unicode="&#x09;" horiz-adv-x="200" />
<glyph unicode="&#xa0;" horiz-adv-x="200" />
<glyph unicode="!" horiz-adv-x="465" d="M106 78q0 -23 -26 -58q-25 -30 -49 -30q-23 0 -23 26q0 27 21 54q26 32 51 32q26 0 26 -24zM141 154l-14 10l10 14l132 174l134 184l57 81t49 71l189 279q113 163 152 211q27 31 39 41q13 10 26 10q21 0 21 -23q0 -20 -57 -98l-52 -74q-4 -6 -14 -18.5l-33 -42.5 q-18 -27 -32 -41l-125 -162l-127 -160q-87 -106 -129 -164l-111 -141q-12 -15 -63 -84q-47 -60 -52 -67z" />
<glyph unicode="&#x22;" horiz-adv-x="317" d="M481 670l-131 -144l-16 13l100 166q2 5 15 24q17 33 29 43q10 10 28 10q15 0 23 -7q8 -8 8 -23q0 -21 -39 -62zM352 670l-131 -144l-16 13l100 166q1 1 5 8.5t9 15.5q21 34 30 43q10 10 28 10q15 0 23 -7q8 -8 8 -23q0 -21 -37 -62z" />
<glyph unicode="#" horiz-adv-x="823" d="M43 268l-12 13l12 14q111 134 185 194t126 60q27 0 43 -15q17 -15 17 -38q0 -28 -19 -56q-37 -66 -133 -157l-74 -74q-55 -55 -82 -96q-30 -43 -30 -70q0 -31 33 -31q51 0 178 108q131 111 217 226l78 103q45 59 57 81h49l-19.5 -26l-60.5 -82l-29 -38q-2 -3 -40 -54 l-66 -90l-53 -72q-58 -79 -58 -119q0 -15 10 -22q9 -9 23 -9q47 0 143 87q99 91 187 214q89 117 142 225q51 107 51 173q0 74 -68 74q-49 0 -99 -35q-52 -37 -96 -97l-16 13q47 65 105 102t108 37q42 0 64 -25t22 -71q0 -68 -28 -143q-28 -77 -84 -163q-59 -91 -142 -184 q-93 -108 -171 -169q-76 -60 -122 -60q-24 0 -39 17q-16 16 -16 40q0 38 31 90l20 35q0 3 6 12q-1 -1 -11 -9l-16 -13t-18 -16q-167 -158 -237 -158q-62 0 -62 61q0 44 31 90q17 25 59 72q58 66 88 96l76 78q76 79 76 111q0 12 -9 19q-8 7 -22 7q-90 0 -293 -245z" />
<glyph unicode="$" horiz-adv-x="455" d="M395 483l209 283q-1 1 -3 1.5t-4 0.5h-7q-34 0 -72 -24q-39 -25 -67 -68q-23 -33 -36 -79q-14 -49 -20 -114zM342 375v6l-264 -358q8 -3 18 -3q47 0 92 27q43 24 76 70q66 87 78 258zM762 950l-129 -174q29 -20 29 -59q0 -77 -109 -168l-12 12l8 8q94 94 94 144 q0 31 -22 47l-228 -309v-20q0 -3 -0.5 -6.5t-1.5 -6.5q-5 -96 -23 -162q-19 -69 -59 -129q-38 -58 -94 -92q-58 -35 -113 -35q-26 0 -39 4l-172 -233l-14 10l168 229q-30 14 -45 43q-16 28 -16 70q0 48 26 97t68 84q41 35 90 46l4 -18q-67 -19 -118 -82q-50 -62 -50 -131 q0 -74 55 -92l285 387v6l6 53q15 130 86 222q70 91 156 91q15 0 24 -4l132 179z" />
<glyph unicode="%" horiz-adv-x="752" d="M336 43q-3 -31 24 -31q30 0 94 55q62 52 124 134q96 132 96 186q0 29 -19 29q-22 0 -71 -38q-48 -38 -103 -99q-57 -64 -101 -134q-39 -63 -44 -102zM414 537q-33 29 -33 77q0 39 25 88q-76 -60 -147 -162q-71 -103 -71 -151q0 -29 23 -29q20 0 48 20q26 20 75 66 q18 18 34 38q35 41 46 53zM428 553q42 52 73 107q27 50 27 75q0 12 -6 19q-6 6 -16 6q-36 0 -69 -49q-34 -49 -34 -101q0 -35 25 -57zM356 -8q-23 0 -37 17t-14 44q0 56 41 124q42 70 111 136q58 55 112 89q53 32 86 32q43 0 43 -51q0 -73 -102 -201q-77 -96 -162 -157 q-46 -33 -78 -33zM821 786l13 -10q-25 -44 -93 -121q-49 -55 -94 -97q-55 -50 -127 -107q-142 -115 -225 -195q-86 -83 -143 -154q-61 -74 -96 -143q-36 -69 -36 -113q0 -26 17 -41q16 -16 43 -16q44 0 102 39q59 38 113 104l14 -12q-60 -75 -119 -113q-61 -38 -114 -38 q-84 0 -84 92q0 98 90 229q56 74 141 150q108 91 160 131l129 94q2 2 14 11l47 38q41 35 58 55q-80 -53 -146 -53q-20 0 -47 8l-6 -8q-157 -174 -227 -174q-22 0 -36 17q-13 16 -13 44q0 107 123 230q64 65 127 105q64 40 102 40q45 0 45 -49q0 -64 -92 -176l-10 -12 q18 -6 30 -6q83 0 187 86q37 30 83 79q48 52 70 86z" />
<glyph unicode="&#x26;" horiz-adv-x="975" d="M612 526q-12 -7 -12 -6l-39 -12q-130 -52 -166 -72q-105 -61 -164 -145q-61 -85 -61 -174q0 -49 30 -78q31 -29 81 -29q49 0 108 32q57 31 111 91l59 66l3.5 3.5l3.5 3.5l5 5l4 4v10l9 74l4 68q11 114 24 159zM664 565q98 45 153 92q57 48 57 86q0 25 -26 25 q-52 0 -110 -64q-57 -63 -74 -139zM666 295l-31 -37q-3 -101 -31 -192q-28 -93 -75 -161q-45 -65 -107 -104q-59 -37 -127 -37q-57 0 -97 34q-40 33 -40 83q0 8 4 33l18 -2q-4 -25 -4 -31q0 -40 35 -69t84 -29q60 0 115 36q52 33 94 97q26 41 45 115q19 73 22 149 q-92 -106 -157 -147q-65 -43 -133 -43q-71 0 -111 43q-41 43 -41 119q0 77 39 146q38 69 108 112q92 59 283 118q11 3 20.5 6.5t14.5 4.5q25 8 27 8q35 106 101 175q65 66 130 66q43 0 43 -40q0 -50 -62 -104q-61 -53 -176 -103q-15 -72 -18 -213q-2 -20 -2 -31v-6l4 6 q62 79 160 182q92 96 172 96q78 0 78 -67v-14h-21v14q0 49 -59 49q-61 0 -135 -74q-21 -16 -72 -73q-62 -71 -68 -76z" />
<glyph unicode="'" horiz-adv-x="188" d="M352 670l-131 -144l-16 13l100 166q1 1 5 8.5t9 15.5q21 34 30 43q10 10 28 10q15 0 23 -7q8 -8 8 -23q0 -21 -37 -62z" />
<glyph unicode="(" horiz-adv-x="682" d="M1493 1448l6 -21l-12 -4q-124 -52 -227 -108q-105 -58 -194 -121q-93 -68 -168 -140q-83 -79 -161 -171q-105 -125 -174 -229q-73 -110 -128 -226q-56 -117 -95 -241q-40 -129 -61 -255l-23 -133l-4 -18l-21 4q10 109 45 268q35 158 78 291q51 144 120 270 q68 126 155 235q88 111 196 204q104 91 240 176q82 52 224 125q127 64 204 94z" />
<glyph unicode=")" horiz-adv-x="682" d="M-324 -219l-6 20l13 6q130 57 230 111q103 57 192 121q85 60 172 142q83 79 155 165q94 112 173 229q75 113 131 229q57 120 94 238q40 130 61 254l22 134l5 18l20 -2q-4 -58 -33 -207q-33 -179 -87 -338q-56 -162 -130 -295q-37 -69 -82 -134t-91 -119 q-48 -57 -105 -112.5t-113 -101.5q-173 -145 -485 -297q-116 -53 -136 -61z" />
<glyph unicode="*" horiz-adv-x="594" d="M940 1081l-92 4l59 -69l11 -10q10 -10 10 -23q0 -18 -19 -18q-15 0 -26 18l-4 12l-41 84l-31 -88q-11 -35 -29 -35t-18 19q0 8 8 22l6 11l51 77l-92 -18l-12 -2q-6 -2 -10 -2q-25 0 -25 22q0 19 27 19h20l90 -6l-61 69l-8 11q-11 16 -11 22q0 7 7 14q6 7 12 7 q15 0 24 -21l7 -12l43 -84l30 88l4 14q6 23 23 23q20 0 20 -21q0 -12 -8 -20l-6 -10l-53 -78l92 16l12 4h15q20 0 20 -18q0 -23 -27 -23h-2q-4 0 -7 1q-7 0 -9 1z" />
<glyph unicode="+" horiz-adv-x="582" d="M23 -279l-13 5q-249 63 -413 63q-120 0 -223 -35q-101 -34 -160 -95q-58 -59 -58 -132q0 -79 64 -124q64 -46 176 -46q101 0 207 41t215 126q115 90 205 197zM645 543h53l-356 -482l-140.5 -182t-121.5 -145l-4 -4l6 -2q147 -37 246 -37q171 0 266 86q70 63 74 135h18 q-4 -68 -51 -124q-48 -56 -127 -87q-78 -31 -180 -31q-85 0 -234 35l-33 8l-4 -4l-20 -22q-110 -114 -218 -191q-112 -79 -217 -119q-109 -41 -206 -41q-120 0 -190 51q-70 49 -70 136q0 122 132 205q131 82 326 82q70 0 189 -17q111 -17 233 -47l23 -6l10 12l90 111l94 125 q3 5 12.5 16t13.5 17l8 10l8 10.5t12 15.5q25 32 35 49q6 8 10 14t9 12q8 12 11 15l31 39l-6 -4q-66 -78 -141 -131q-76 -55 -123 -55q-26 0 -43 18q-17 17 -17 45q0 43 36 95q35 53 120 141l74 74q12 14 22 24l41 47q39 42 39 68q0 24 -31 24q-59 0 -170 -108 q-81 -85 -131 -145l-14 12q72 91 151 164q106 98 172 98q25 0 42 -14q16 -13 16 -37q0 -40 -43 -90q-24 -32 -139 -154q-82 -82 -120 -131q-36 -46 -36 -76q0 -35 35 -35q36 0 109 53q71 53 153 144q40 44 60 68l106 129q83 106 100 133z" />
<glyph unicode="," horiz-adv-x="449" d="M-145 -145l-7 16q50 19 88 42q35 21 61 52q23 29 38 68l10 24q17 39 45 39q27 0 27 -28q0 -16 -15 -42q-15 -25 -41 -53q-24 -25 -61 -51q-60 -42 -145 -67z" />
<glyph unicode="-" horiz-adv-x="803" d="M743 340l15 -10q-25 -51 -69 -76q-46 -27 -105 -27q-57 0 -113 29l-68 37q-76 39 -120 39q-78 0 -127 -76l-17 10q27 45 74 72t98 27q55 0 125 -39l68 -35q64 -35 110 -35q83 0 129 84z" />
<glyph unicode="." horiz-adv-x="449" d="M27 20q0 23 23 49q22 25 46 25q12 0 19 -6q6 -6 6 -16q0 -24 -23 -50q-24 -26 -49 -26q-22 0 -22 24z" />
<glyph unicode="/" horiz-adv-x="547" d="M-203 -211h-30l1513 1645h33z" />
<glyph unicode="0" horiz-adv-x="424" d="M432 496q2 20 -6 30q-8 11 -23 11q-80 0 -245 -197q-73 -85 -116 -163q-42 -76 -42 -126q0 -15 9 -26q8 -11 22 -11q81 0 243 195q54 68 82 113q35 57 54 100t22 74zM455 498q0 -65 -47 -154q-46 -88 -129 -180q-67 -73 -137 -121q-68 -47 -111 -47q-62 0 -62 78 q0 50 25 107q27 60 71 117q47 60 117 126q137 131 217 131q56 0 56 -57z" />
<glyph unicode="1" horiz-adv-x="231" d="M-37 10l-6 -10h-59l12 14l82 99l88 106q66 76 92 121l-12 -12q-95 -86 -168 -127l-8 16q57 36 125 94q58 49 130 124q74 78 109 126l14 -12l-8 -10l-104 -138l-103 -135l-102 -141q-15 -21 -17 -24l-17 -23q-5 -7 -15 -23q-17 -21 -33 -45z" />
<glyph unicode="2" horiz-adv-x="424" d="M-127 -4l-14 8q40 71 106 125q62 51 172 104t162 87q51 32 88 75q45 56 45 99q0 49 -63 49q-86 0 -166 -74q-66 -55 -66 -96q0 -17 21 -17q36 0 92 49q57 48 82 97l16 -4q-18 -37 -53 -77t-72 -62q-38 -23 -65 -23q-45 0 -45 39q0 27 26 65q25 35 66 64q79 61 172 61 q48 0 73 -21t25 -61q0 -41 -24 -77q-24 -37 -75 -72q-57 -39 -134 -74q-123 -56 -164 -77q-44 -23 -80 -50q-31 -25 -68 -65q31 16 78 16q35 0 59 -7q20 -6 60 -28q37 -20 61 -20q20 0 50 14l12 -12q-43 -35 -88 -35q-39 0 -117 35q-44 22 -80 22q-53 0 -92 -57z" />
<glyph unicode="3" horiz-adv-x="422" d="M-197 -49l11 -14q-43 -43 -43 -82q0 -30 24 -49q24 -21 58 -21q46 0 108 30q59 27 117 79q129 116 129 227q0 78 -80 78q-28 0 -61 -9l-3 17q158 51 259 131q104 83 104 158q0 21 -17 35q-18 12 -44 12q-42 0 -84 -19q-43 -19 -84 -57q-60 -51 -60 -86q0 -25 21 -25 q34 0 84 44q50 45 86 106l14 -10q-28 -61 -85 -109q-58 -51 -103 -51q-43 0 -43 45q0 39 43 82q44 44 107 72q62 28 124 28q41 0 66 -18q24 -18 24 -49q0 -94 -147 -189q-103 -64 -183 -90q58 -5 85 -32q28 -28 28 -76q0 -54 -32 -112q-33 -57 -93 -108q-72 -60 -144 -92 q-74 -33 -132 -33q-48 0 -77 26q-30 25 -30 63q0 59 53 98z" />
<glyph unicode="4" horiz-adv-x="516" d="M326 217l-39 -53q24 -6 47 -6q50 0 84 32l14 -12q-45 -51 -139 -51q-2 1 -6 1.5t-7 0.5h-18l-6 -6q-59 -84 -82 -123h-70l17 18q90 106 94 111l8 8q-11 4 -19 6.5l-11 3.5l-43 13q-58 20 -97 20q-24 -19 -60 -40q-34 -19 -52 -19q-15 0 -15 12q0 32 119 64q98 68 197 158 q100 91 193 196q94 107 177 223l9 12h61q0 -1 -2 -3t-3 -4l-2.5 -2.5l-2.5 -2.5l-0.5 -0.5l-1.5 -1.5l-90 -104q-46 -56 -118 -131q-57 -60 -130 -129q-50 -47 -127 -112q-62 -54 -119 -93h18q60 0 150 -29l4 6l18 23l18 22l18 22.5t34 43.5l105 133q60 78 104 143l14 -12 q-28 -46 -104 -147z" />
<glyph unicode="5" horiz-adv-x="418" d="M27 164l-19 10l10 12l84 107q48 55 93 119l84 108l63 84q0 -2 6 10l19 -10q-3 -4 -9 -10l-16 -23l-18 -26q-7 -7 -11 -15q52 31 90 31q12 0 70 -8q23 -6 35 -6q15 0 25 6q9 5 24 20l10 -10q-45 -59 -116 -59q-22 0 -39 4l-27 6q-28 4 -35 4q-29 0 -46 -12 q-18 -12 -56 -62l-37 -47l-55 -69q-44 -55 -50 -62q68 45 123 45q37 0 59 -24q21 -24 21 -66q0 -156 -190 -313q-77 -64 -164 -106q-84 -40 -145 -40q-40 0 -62 22q-24 21 -24 58q0 68 65 115l10 -16q-57 -42 -57 -99q0 -28 18 -43q17 -16 47 -16q66 0 143.5 45t162.5 133 q80 83 123 154q43 70 43 121q0 57 -56 57q-39 0 -95 -36q-53 -36 -101 -93z" />
<glyph unicode="6" horiz-adv-x="502" d="M844 844l4 -17q-129 -39 -276 -128t-287 -216q-56 -51 -124 -131q-70 -82 -106 -139q-59 -92 -59 -152q0 -51 43 -51t122 52q82 54 150 122q101 101 159 189q58 86 58 141q0 31 -28 31q-40 0 -114 -57q-77 -60 -161 -156l-8 -8l-14 12q79 97 166 163t135 66q49 0 49 -55 q0 -70 -61 -164q-64 -99 -164 -188q-82 -74 -160 -120q-79 -46 -125 -46q-35 0 -55 23q-21 23 -21 65q0 100 111 244q79 105 268 251q278 212 498 269z" />
<glyph unicode="7" horiz-adv-x="397" d="M109 393l-15 10l8 11l60 75q37 45 56 72q27 36 36 49l4 8l14 -10l-4 -8l-55 -74l-8 -12q31 24 59 34q27 9 68 9q29 0 90 -6q32 -4 49 -4q54 0 78 33l12 -9q-23 -37 -53 -67q-72 -79 -186 -185q-182 -163 -201 -182q-119 -114 -196.5 -203.5t-123.5 -164.5h-53 q49 79 156 198q89 94 278 256l78 68q34 30 51 47l113 106q56 51 76 82q-44 -22 -88 -22q-43 0 -60 4l-43 4q-10 2 -28 2q-78 0 -134 -74l-32 -41v0l-1 -1l-2 -2z" />
<glyph unicode="8" horiz-adv-x="487" d="M377 432v12q-129 -64 -217 -125q-83 -58 -128 -118q-44 -59 -44 -115q0 -70 84 -70q56 0 121 43q66 43 110 109q62 92 74 264zM430 494q71 38 165 112q94 75 140 125q-15 45 -71 45q-51 0 -104 -37q-55 -37 -87 -92q-37 -66 -43 -153zM739 707l-4 -5q-142 -139 -305 -231 q-8 -82 -22 -137q-14 -56 -41 -111q-32 -66 -80 -115q-49 -52 -106 -82q-58 -30 -111 -30q-52 0 -84 26q-31 25 -31 70q0 67 52 129q53 62 159 129q111 71 215 117q9 103 45 166q42 70 109 115q68 47 127 47q61 0 88 -47q43 46 61 73l14 -10q-25 -39 -67 -86v-10 q0 -38 -26 -85q-25 -47 -70 -83l-13 14q36 31 62 73q25 40 28 73z" />
<glyph unicode="9" horiz-adv-x="496" d="M-356 -291l-2 17q274 87 561 344q55 51 123 131q61 71 106 139q60 98 60 154q0 51 -43 51q-30 0 -74 -23q-43 -21 -95 -61q-49 -37 -104 -92q-101 -101 -157 -188q-58 -88 -58 -140q0 -31 27 -31q85 0 274 211l8 8l15 -12q-79 -97 -167 -162t-134 -65q-47 0 -47 55 q0 45 28 104q29 60 79 124q47 59 116 122q48 45 107 87q55 39 102 61q46 20 75 20q36 0 56 -23t20 -65q0 -46 -30 -114q-29 -66 -80 -132q-85 -112 -269 -249q-273 -214 -497 -271z" />
<glyph unicode=":" horiz-adv-x="449" d="M27 20q0 23 23 49q22 25 46 25q12 0 19 -6q6 -6 6 -16q0 -24 -23 -50q-24 -26 -49 -26q-22 0 -22 24zM236 309q0 23 23 49q22 25 44 25q27 0 27 -25q0 -24 -23 -47q-20 -26 -49 -26q-22 0 -22 24z" />
<glyph unicode=";" horiz-adv-x="449" d="M236 309q0 25 22 50q23 24 45 24q27 0 27 -25q0 -21 -25 -47q-20 -26 -47 -26q-22 0 -22 24zM-145 -145l-7 16q50 19 88 42q35 21 61 52q23 29 38 68l10 24q17 39 45 39q27 0 27 -28q0 -16 -15 -42q-15 -25 -41 -53q-24 -25 -61 -51q-60 -42 -145 -67z" />
<glyph unicode="&#x3c;" horiz-adv-x="623" d="M569 795l-182 -252q90 73 177 157t177 183q138 153 189 247q22 41 22 56q0 20 -18 20q-33 0 -105 -78q-45 -50 -90 -107.5l-127 -168.5zM836 748q-1 -21 -18 -39q-16 -19 -32 -19q-20 0 -20 21q0 19 17 39t34 20q9 0 15 -6q5 -9 4 -16zM633 545h51l-8 -10q-7 -8 -18 -24 t-19 -26q-15 -21 -45 -59q-63 -84 -68 -90q-184 -241 -184 -289q0 -22 25 -22q22 0 68 33q44 30 91 81l115 127q22 23 37 45l14 -12q-24 -30 -78 -90q-88 -98 -98 -108q-17 -17 -49 -44q-65 -53 -102 -53q-46 0 -46 47q0 59 78 168l2 6q-92 -67 -198 -67q-51 0 -84 16 l-602 -827h-50l623 846q-41 39 -41 81q0 29 14 49q13 19 31 19q12 0 12 -12q0 -7 -8 -23q-12 -21 -12 -43q0 -24 18 -51l426 582q109 149 194 250q74 90 130 138q53 44 84 44q39 0 39 -37q0 -83 -217 -324q-110 -120 -221 -221q-112 -103 -191 -158l-217 -297q30 -14 72 -14 q159 0 268 148l29 38l67 91q52 69 68 92z" />
<glyph unicode="=" horiz-adv-x="313" d="M676 786l14 -12q-27 -36 -104 -110l-129 -119l-156 -146q-170 -157 -268 -272q-65 -79 -94 -127h-76q43 65 129 156q71 74 141 135l90 78l29 23l16 12.5l17 13.5l111 96l114 103l102 98q40 39 64 71z" />
<glyph unicode="&#x3e;" horiz-adv-x="621" d="M795 702l-52 -67q51 41 120 102q81 72 131 121q51 48 124 125q144 149 144 195q0 22 -23 22q-38 -3 -106 -72q-49 -51 -137 -160q-98 -122 -158 -204q-29 -45 -43 -62zM569 795l-182 -252q90 73 177 157t177 183q138 153 189 247q22 41 22 56q0 20 -18 20q-33 0 -105 -78 q-45 -50 -90 -107.5l-127 -168.5zM676 309l14 -10l-12 -14l-106 -125q-45 -50 -91 -93q-41 -36 -69 -52q-27 -15 -50 -15q-47 0 -47 49q0 51 82 172l2 4q-85 -67 -198 -67q-51 0 -84 16l-602 -827h-50l623 846q-41 39 -41 81q0 29 14 49q13 19 31 19q12 0 12 -12 q0 -7 -8 -23q-12 -21 -12 -43q0 -24 18 -51l426 582q109 149 194 250q74 90 130 138q53 44 84 44q39 0 39 -37q0 -83 -217 -324q-110 -120 -221 -221q-112 -103 -191 -158l-217 -297q30 -14 72 -14q122 0 217 88q32 31 82 103l200 270l58 78l61 82q64 86 160 200 q87 102 137 150q72 72 125 72q39 0 39 -39q0 -33 -50 -98q-53 -67 -159 -173q-110 -110 -205 -195t-164 -136l-217 -302l-73 -98q-41 -58 -54 -83q-16 -28 -16 -48q0 -11 8 -19t17 -8q36 0 108 66q50 50 93.5 98.5t95.5 112.5z" />
<glyph unicode="?" d="M291 82q0 -25 -27 -57q-21 -29 -49 -29q-25 0 -25 27q0 21 23 53q26 33 51 33q27 0 27 -27zM324 168l-15 10q44 76 128 164q76 80 151 133l135 96q119 81 203.5 157.5t134.5 145.5q48 69 77 138q29 72 29 112q0 76 -80 76q-89 0 -193 -61q-102 -59 -200 -166 q-139 -160 -139 -260q0 -49 49 -49q38 0 100 38q58 37 134 109q58 58 97.5 113.5t65.5 113.5l17 -6q-17 -54 -69 -124q-53 -71 -118 -130q-147 -135 -225 -135q-34 0 -54 21q-20 20 -20 57q0 72 55 163q52 88 146 173q91 79 185 123q90 43 172 43q122 0 122 -129 q0 -125 -112 -252q-72 -82 -178 -162q-42 -34 -109 -76q-7 -4 -24 -15l-17 -10.5t-15 -9.5l-10.5 -7l-13.5 -9q-140 -91 -229 -174q-93 -85 -174 -201z" />
<glyph unicode="@" horiz-adv-x="461" d="M516 311l14 -12l-22 -27q-78 -100 -150 -100q-26 0 -41 18q-16 17 -16 46q0 42 37 104q-32 -25 -84 -80q-62 -65 -127 -154l-39 -51q-12 -15 -17.5 -22.5t-8.5 -12.5q-1 -3 -4.5 -8l-8.5 -12h-53l8 10q1 2 15 19l36 47l43 59l78 103q57 71 98 129q41 57 58 87 q14 26 14 44q0 24 -24 24t-58 -23q-34 -24 -87 -78q-56 -59 -128 -147l-6 -6l-14 13l6 6q60 74 104 123t78 78q62 55 109 55q43 0 43 -45q0 -15 -6 -32q-5 -11 -33 -67q-35 -63 -58 -92q82 72 109 90q22 36 86 103q78 78 98 78q8 0 8 -11q0 -21 -55 -76q-52 -53 -127 -106 q-3 -6 -5 -8.5t-3 -3.5q-61 -88 -61 -137q0 -43 38 -43q56 0 138 94l10 14q2 2 8 10z" />
<glyph unicode="A" horiz-adv-x="1782" d="M760 702l-4 -4q53 -1 172 -24q136 -25 313 -88l51 -19l4 4l7 7q167 167 182 321q-51 -17 -110 -47q-53 -28 -97 -62q-42 -34 -61 -65l-17 8q34 51 109 102q76 50 170 80l6 3q-8 56 -38 81q-31 25 -93 25q-104 0 -242 -68q-95 -45 -179 -106q-81 -59 -173 -148zM741 680 h-4q-60 -60 -118 -138q-58 -77 -100 -154q-41 -72 -62 -140q34 -8 86 -8q126 0 257 35q127 34 245 100t208 153l7 7l-46 16q-130 52 -264 89q-125 34 -209 40zM2036 793l-39 -54l-39 -53l-131 -170l-8 -10l-9 -12q112 31 178 94q64 61 64 133q0 37 -16 72zM1278 526l-4 -4 q-103 -97 -222 -164q-125 -69 -249 -103q-127 -36 -258 -36q-30 0 -94 8q-21 -63 -21 -139q0 -203 203 -203q150 0 325 115q64 43 125 93t133 119t142 146l51 56l49 55q-73 15 -180 57zM1511 907l-6 -2q-3 -71 -50 -161q-47 -87 -136 -179l-6 -6q11 -4 10 -4l10 -4 q67 -25 135 -43l15 -4l6 -2l22 24l174 183q89 91 205 198l6 4q-81 29 -172 29q-47 0 -108 -8q-60 -9 -105 -25zM422 254q29 121 131 262q38 51 79 98q43 50 64 68l-6 2h-39q-127 0 -221 -31q-97 -31 -152 -88q-55 -56 -55 -127q0 -62 54 -112t145 -72zM2028 842l26 32l27 33 l153 180l90 109q-175 -79 -387 -276l-4 -5q52 -25 95 -73zM1735 479l4 4l43 58l14 17t9 11l7 9l12 14.5t11 14.5l43 54l37 44l49 61l51 61q-38 48 -96 74l-6 -4q-142 -137 -256 -264q-24 -25 -60 -66q-50 -54 -55 -59l-12 -16q79 -17 147 -17q39 0 58 4zM1712 449l4 6l-6 -2 q-30 -2 -70 -2q-20 0 -65 3q-49 3 -68 7h-6l-47 -55q-475 -541 -819 -541q-229 0 -229 241q0 80 10 123l2 7q-101 24 -156 79q-57 54 -57 125q0 76 58 135q56 59 161 94q104 33 235 33h50h6l4 5q87 81 168 139q80 59 170 106q88 47 160 68q73 22 137 22q136 0 149 -118 q61 19 114 26q58 8 107 8q103 0 187 -32l4 4q141 128 261 207q119 77 198 94l-2 -2l-2 -2q-1 -2 -3 -4l-67 -86q-22 -27 -27 -34q-10 -12 -13.5 -17.5t-6.5 -8.5q-5 -5 -88 -112q-10 -12 -19.5 -26t-36.5 -50l-30 -39l-31 -41q23 -46 23 -88q0 -84 -74 -152 q-76 -68 -207 -104l-47 -59l-45 -62l-20 -26.5l-15 -19.5l-19.5 -27l-17.5 -23q-61 -84 -73 -103q-25 -36 -37 -60q-11 -22 -11 -38q0 -22 21 -22q76 0 301 274l10 12l14 -12l-10 -14q-230 -281 -315 -281q-45 0 -45 49q0 43 58 143q54 96 173 253z" />
<glyph unicode="B" horiz-adv-x="1878" d="M1405 489l-8 -12l8 6q259 187 407 361q76 89 76 127q0 20 -20 20q-53 0 -193 -143q-67 -70 -130 -154q-61 -79 -140 -205zM463 373q50 129 153 257q103 127 246 239q55 43 98.5 72.5t105 65t105.5 56.5l7 4q-56 25 -127 25q-112 0 -225 -48q-112 -48 -201 -129 q-91 -85 -142 -185q-53 -104 -53 -206q0 -89 33 -151zM475 315l-2 -6q-35 -96 -35 -184q0 -113 55 -178q56 -66 148 -66q85 0 179 45q92 43 175 123q56 52 105 115l18 23.5l48.5 63l78.5 101.5l2 4l-4 -2q-102 -55 -183 -87q-81 -33 -157 -48q-74 -16 -151 -16 q-59 0 -110 12q-51 10 -92 36t-75 64zM1227 1065l-4 -2q80 -68 80 -176q0 -100 -63 -201q-62 -99 -161 -151l-8 16q59 30 107 86q48 55 76 122q28 65 28 128q0 53 -21 96q-20 42 -59 70l-6 -4q-152 -75 -292 -190q-73 -59 -135.5 -122.5t-115.5 -127.5q-108 -134 -166 -267 l-2 -6q85 -115 267 -115q203 0 465 141q35 18 59 33l59 82q66 87 68 90q28 36 41 54q65 82 133 156.5t120 122.5q119 110 171 110q19 0 30 -10q11 -11 11 -27q0 -76 -183 -252q-87 -84 -177.5 -156.5t-186.5 -134.5q-74 -109 -132 -178q-63 -75 -153 -162 q-115 -112 -226 -169q-114 -60 -210 -60q-107 0 -165 73q-60 72 -60 201q0 112 37 213q-43 73 -43 174q0 144 93 282q45 66 107 123.5t135 99.5q148 85 302 85q95 0 153 -35l4 2q98 47 202 82q96 32 195 50q90 16 185 16q99 0 169 -27q69 -28 106 -82q36 -54 36 -129 q0 -100 -68 -204q-66 -101 -179 -176t-226 -91q62 -14 99 -62q38 -50 38 -116q0 -77 -45 -163q-46 -87 -120 -158q-73 -72 -161 -115q-85 -43 -165 -43q-51 0 -83 30q-32 29 -32 80q0 58 38 132q38 73 105 137q53 53 113 84q59 30 109 30q35 0 55 -17t20 -48q0 -47 -42 -112 q-43 -66 -99 -109l-12 14q61 48 97 105q38 59 38 100q0 49 -59 49q-48 0 -101 -28q-54 -28 -106 -83q-135 -135 -135 -252q0 -92 94 -92q65 0 145 46q82 48 148 120q68 71 111 165q44 96 44 169q0 61 -43 95t-125 34q-8 0 -14 -2h-12l8 16q59 3 117 18q60 14 106 36 q82 39 151 112q68 72 108 162q40 87 40 170q0 184 -276 184q-116 0 -258 -35q-136 -33 -265 -94z" />
<glyph unicode="C" horiz-adv-x="1335" d="M1296 1065l-6 -4q41 -70 41 -168v-37l-2 -6q6 2 8 2l9 2q123 30 228 74q111 47 175 94q84 66 84 121q0 28 -26 43q-28 14 -78 14q-178 0 -433 -135zM1272 1051q-58 -32 -128 -83q-63 -46 -142 -113q-69 -58 -109 -101l20 4l56 12l65 12q13 4 35 9q20 5 45 9q13 3 18 4 t17 4t22 5l70 16l68 17q2 18 2 43q0 87 -39 162zM502 78v-6q0 -89 49 -139q49 -52 131 -52q83 0 174 48q89 46 180 137q95 95 155 209t60 200q0 55 -28 92l-2 -6q-64 -91 -124 -154q-67 -71 -136 -122q-66 -51 -158 -101q-87 -46 -161.5 -72t-139.5 -34zM473 96h6 q3 146 77 299q74 152 210 297l4 4q-157 -43 -282 -116q-123 -72 -193 -157t-70 -171q0 -73 55 -116q55 -44 146 -44q15 0 47 4zM1221 600q1 3 3 7q1 1 3 5q59 102 80 209h-7l-124 -30l-138 -29l-77 -17q-1 0 -82 -18l-15 -2l-14 -14q-52 -58 -98.5 -116t-83 -111.5 t-66.5 -104.5q-87 -152 -98 -281q125 20 262 89q62 31 129 76.5t123 95.5q56 49 103.5 104t84.5 115l2 6q-33 30 -90 30q-71 0 -146 -42q-76 -44 -140 -120q-66 -77 -113 -178l-17 5q36 97 106 177q69 82 154 129q86 48 160 48q60 0 99 -33zM1235 584q43 -55 43 -138 q0 -61 -25 -127t-73 -136q-49 -69 -119 -136q-198 -186 -377 -186q-62 0 -106 25q-45 23 -71 73q-25 48 -28 117h-6q-32 -4 -49 -4q-98 0 -158 51q-61 49 -61 131q0 139 162 269q162 131 426 204h6l4 6q54 57 133 120q81 65 170 125q85 58 154 93q-33 45 -84 67 q-54 23 -121 23q-101 0 -190 -47q-89 -46 -154 -131q-70 -91 -76 -182h-19q6 96 71 185q65 87 165 141q101 53 205 53q151 0 221 -99l6 2q93 48 171 78q75 28 148 45q71 15 128 15q58 0 92 -20q32 -21 32 -58q0 -54 -63 -113q-63 -58 -180 -109q-115 -52 -264 -90 q-17 -4 -21 -4q-21 -128 -92 -243z" />
<glyph unicode="D" horiz-adv-x="1821" d="M772 -88q-14 4 -42 13l-58 16q-50 14 -51 14q-76 21 -127 30q-52 9 -107 9q-63 0 -98 -15t-35 -42q0 -29 62 -49q60 -19 157 -19q173 0 299 43zM1247 891q-28 31 -76 31q-61 0 -143 -55q-83 -56 -151 -140q-80 -95 -125 -202q-45 -106 -45 -201q0 -115 59 -195 q125 45 244 156q117 109 191 250q73 139 73 258q0 49 -17 81q-138 -113 -188 -301l-20 2q15 65 43 121q29 57 66 104q42 52 89 91zM1087 61l-4 -4q153 44 285 155q134 113 213 262q80 149 80 292q0 24 -6 57q-32 -37 -41 -51l-61 -89l-93 -146q-131 -220 -200 -301 q-76 -97 -173 -175zM1047 29l-7 -4q-86 -64 -178 -103q108 -31 219 -31q74 0 152 23q75 22 147 68q70 45 136 112q105 107 178 218q73 112 109 221q36 108 36 215q0 98 -41 192l-2 4l-6 -2q-78 -58 -117 -100q6 -43 6 -82q0 -118 -52 -238q-53 -122 -143 -226 q-89 -103 -203 -174q-112 -70 -234 -93zM1665 866q58 58 123 97q-55 114 -175 178q-120 63 -282 63q-124 0 -244 -37q-125 -38 -236 -109q-59 -37 -108.5 -78.5t-93.5 -88.5q-116 -125 -179 -262q-64 -135 -64 -264q0 -79 30 -136q27 -56 85 -89q55 -31 128 -31q45 0 96 14 q-59 82 -59 199q0 111 52 225q53 116 147 219q73 82 152 130q76 46 139 46q51 0 90 -39q48 38 109 60q59 22 114 22q132 0 176 -119zM1026 45l4 4q122 110 268 332l101 156q132 200 246 309l4 4q-37 115 -160 115q-110 0 -213 -76q20 -37 20 -94q0 -91 -42 -195 q-42 -105 -117 -204q-77 -101 -166 -173q-92 -74 -191 -110q71 -72 185 -72q13 0 61 4zM995 23q-12 -3 -32 -3q-59 0 -116 23q-55 22 -89 61l-6 -2q-60 -16 -109 -16q-122 0 -194 85q-72 86 -72 228q0 99 31 193q32 97 94 188q65 94 147 166q94 85 208 147q112 62 237 97 q123 33 235 33q168 0 290 -64q122 -65 187 -184l4 2l15 10q121 68 217 68q71 0 117 -34q45 -34 51 -93l-19 -4q-9 55 -47 84q-38 28 -104 28q-103 0 -225 -80q51 -109 51 -241q0 -115 -39 -232q-41 -120 -115 -225q-75 -106 -180 -195q-117 -97 -240 -146q-126 -50 -252 -50 q-113 0 -233 35q-76 -26 -161 -41q-88 -15 -171 -15q-111 0 -176 25q-66 24 -66 66q0 38 43 57q45 20 121 20q61 0 153 -16q93 -16 175 -39l88 -22q0 -1 21 -7q108 55 161 93z" />
<glyph unicode="E" horiz-adv-x="1296" d="M1153 1016q50 -52 78 -129l8 2l8 2q121 22 199 41q95 23 168 56q69 31 110 69q39 38 39 73q0 72 -141 72q-128 0 -255 -50q-123 -48 -214 -136zM1139 999l-4 -4q-61 -65 -82 -139l14 2q14 2 38 6q7 2 18.5 4t25.5 4l29 5l30 6q-24 68 -69 116zM471 76q7 -87 66 -140 t147 -53q105 0 220 71q114 72 187 177q74 107 74 205q0 51 -20 88l-2 -4q-69 -104 -170 -185q-97 -78 -212 -121q-114 -42 -224 -42q-47 0 -66 4zM1214 864l-32 -6q-3 0 -7.5 -0.5t-6.5 -1.5q-2 0 -5 -1t-6.5 -1.5t-7.5 -1.5q-40 -7 -50 -8q-20 -4 -32 -6l-16 -2 q-7 -18 -7 -27q0 -45 24 -77q23 -32 75 -56h14l41 4h21h6q6 44 6 72q0 53 -17 112zM420 115v9q0 2 -0.5 3.5t-1.5 1.5q0 93 50 187q50 92 136 165q86 74 204 123q116 48 245 62l43 6h14q-97 49 -106 153h-7q-109 -20 -266 -73q-143 -51 -238 -118q-97 -67 -148 -150 q-52 -82 -52 -173q0 -42 15 -80t45 -68q28 -29 67 -48zM1145 465q24 39 44 89q21 52 28 89q-26 4 -38 7q-9 3 -16 4t-8 1q-79 -3 -160 -19q-85 -16 -145 -42q-104 -40 -192 -119q-89 -80 -138 -175q-51 -97 -51 -191v-11q41 -6 72 -6q81 0 162 25q82 24 161 70 q78 45 145 109q66 61 119 142l5 4q-44 47 -113 47q-107 0 -208 -86t-130 -202l-18 4q10 71 66 145q56 72 137 116q80 44 157 44q70 0 121 -45zM1163 453l-2 -7q37 -49 37 -127q0 -77 -44 -157q-47 -82 -121 -148q-76 -69 -170 -111q-93 -42 -179 -42q-103 0 -174 62 q-72 63 -88 167q-69 31 -109 91q-41 61 -41 132q0 107 72 206q71 98 203 173q105 59 270 109q14 4 23.5 6t18 4.5t25 7t29.5 7.5q56 14 84 18l7 2q9 92 98 178l4 4q-34 29 -81 46q-45 16 -101 16q-85 0 -159 -36q-73 -36 -117 -95q-44 -61 -44 -130v-6l-18 -2q0 81 45 147 q44 65 122 104q78 38 171 38q113 0 198 -66q64 54 146 94q86 42 176 64q95 23 178 23q81 0 128 -26q46 -27 46 -71q0 -53 -67 -102q-70 -52 -193 -91q-131 -42 -287 -65q-6 -1 -8.5 -2.5t-3.5 -1.5q14 -58 14 -114q0 -23 -4 -64v-8h4h2q82 0 82 -23q0 -18 -55 -18 q-19 0 -41 2q-18 -95 -76 -188z" />
<glyph unicode="F" horiz-adv-x="1581" d="M2109 1159q70 -14 148 -14q52 0 91 14q36 13 34 33q0 25 -64 25q-44 0 -109 -18q-66 -18 -100 -40zM881 571l-2 -4h6q110 21 231 21q61 0 170 -8h6l4 4q154 184 154 293q0 81 -76 81q-57 0 -120 -28q-68 -30 -131 -80q-64 -50 -128 -123q-61 -70 -114 -156zM864 539 l-2 -4q-74 -147 -80 -279q106 15 230 90q125 75 237 189l4 4q-118 12 -241 12q-86 0 -148 -12zM836 528l4 7l-6 -3q-97 -21 -172.5 -66.5t-131.5 -115.5q59 -98 189 -98q15 0 41 2q3 62 24 135q21 74 52 139zM1321 582l-4 -4h6l51 -7l90 -6h6l3 4q86 110 152.5 187.5 t133.5 147.5q64 67 129 124.5t131 104.5l-14 2l-145 24q-184 34 -275 41q-67 6 -125 6q-146 0 -301 -47q-152 -48 -289 -135q-94 -61 -157 -122q-58 -58 -115 -146q-98 -161 -98 -289q0 -48 20 -96l4 4q58 67 146 117q85 49 182 69l4 4q63 115 152 207q92 95 190 150 q97 55 172 55q103 0 103 -100q0 -107 -152 -295zM1321 532l-41 5l-4 -5q-75 -80 -164 -144.5t-188 -108.5q-85 -35 -144 -46v-6q6 -87 26 -143t62 -104l6 2q146 74 285 204q65 62 120 129q59 71 138 181q15 20 23 28h-6q-12 1 -38 3q-20 1 -34 3zM1503 524l-22 -32 q-70 -90 -130 -159t-112 -120q-174 -166 -348 -248l-6 -2q75 -69 192 -69q132 0 215 83l17 -16q-39 -39 -102 -63q-63 -25 -126 -25q-132 0 -217 82q-82 -37 -172 -58q-87 -22 -164 -22q-170 0 -280 86q-111 86 -111 217q0 98 60 177q58 79 143 91v-20q-80 -17 -131 -87 t-51 -161q0 -81 47 -146q46 -64 132 -100t193 -36q149 0 314 71l6 2q-4 4 -4 6l-6 7q-77 88 -80 249q-20 -2 -39 -2q-139 0 -205 103q-49 -73 -49 -150q0 -69 41 -113t106 -44q7 0 17 2v-19h-12q-2 0 -4.5 -0.5t-4.5 -1.5q-70 0 -117 50t-47 126q0 91 60 170q-27 56 -27 115 q0 68 29 149q29 80 81 159q54 81 121 146q66 65 150 119q73 48 156 86q88 39 166 62q84 23 174 35q93 12 190 12q105 0 186 -10q73 -9 210 -37q24 -4 48 -8.5t26 -5.5l24 -4t24 -5h13l14 6q113 64 229 64q84 0 84 -41q0 -34 -55 -56q-54 -22 -143 -22q-44 0 -140 10l-14 2 q-28 -17 -121 -96q-34 -29 -82 -77q-46 -48 -77 -84q-34 -40 -84 -105l-107 -141l-25 -33q-7 -7 -24 -31h29q67 0 124 20q56 20 87 52q32 34 32 76q0 15 -4 26l17 6q6 -12 6 -30q0 -52 -40 -93q-39 -42 -114 -68q-70 -24 -166 -26z" />
<glyph unicode="G" horiz-adv-x="1337" d="M815 -199l-14 2q-59 9 -128 15q-66 6 -133 9q-66 3 -118 3q-199 0 -328 -43q-89 -30 -151 -71q-62 -42 -96 -92q-33 -51 -33 -107q0 -76 67 -121t182 -45q197 0 388 115q63 38 125.5 88.5t122 111.5t116.5 135zM1128 299q45 34 113 109l86.5 98t71.5 89q55 76 55 107 q0 21 -20 21q-21 0 -53 -26q-32 -25 -66 -68q-33 -38 -78 -115q-47 -81 -70 -131l-32 -70q0 -4 -7 -14zM1264 862l2 2q6 32 6 64q0 64 -19 106q-30 -18 -100 -65q-119 -85 -178 -144l16 2q196 21 273 35zM541 248q118 8 231 59q116 53 217 136q103 85 174 187q71 104 99 212 l-7 -2q-73 -13 -170 -23l-120 -14l-19 -2q-20 -18 -59.5 -60l-104.5 -114q-62 -70 -114.5 -147.5t-98.5 -166.5q-10 -21 -28 -65zM866 791l-6 -3q-129 -22 -236 -60q-108 -40 -177 -88q-72 -50 -110 -110q-38 -62 -38 -129q0 -70 52 -110q50 -40 149 -43q28 123 104 239 q49 77 121 159q71 82 141 145zM1278 1049l-8 -5q22 -48 22 -116q0 -24 -6 -62l6 2l31 6q249 50 379 132q119 77 119 137q0 59 -101 59q-51 0 -124 -19q-80 -21 -157 -53q-79 -33 -161 -81zM895 -184h6h35q118 0 181 25q64 25 91 81l19 -2q-38 -125 -312 -125q-16 0 -34 2 q-72 -98 -175 -189q-104 -91 -206 -148q-105 -61 -216 -95q-114 -35 -214 -35q-126 0 -200 52q-75 51 -75 137q0 94 85 173q84 78 233 122q120 34 319 34q110 0 217 -10l160 -14q4 0 22 -2l11 16l35 53q126 195 182 320l-15 -12q-269 -203 -407 -203q-148 0 -148 170 q0 39 7 61q-103 5 -159 50q-58 46 -58 124q0 88 65 170q65 80 180 138q86 41 179 67q101 29 190 39l4 4q51 44 100 80q59 43 118 81q58 38 122 75l6 2q-58 100 -182 100q-83 0 -163 -42q-79 -42 -135 -113q-55 -71 -67 -152h-16q11 88 67 162q57 75 143 120q86 44 175 44 q131 0 195 -109l4 2q290 152 456 152q121 0 121 -80q0 -69 -131 -152q-53 -32 -111 -55q-68 -28 -147 -50q-87 -24 -164 -38h-6q-26 -114 -97 -219q-72 -107 -176 -194q-103 -87 -225 -141q-123 -55 -245 -65h-4q-15 -46 -15 -92q0 -119 117 -119q77 0 186 60q65 33 150 94 l28 21l68 53l14 12l9 16q99 216 192 342q92 125 154 125q37 0 37 -37q0 -57 -123 -198q-133 -159 -244 -250q-28 -72 -43 -107q-41 -107 -85 -191.5t-85 -139.5z" />
<glyph unicode="H" horiz-adv-x="1951" d="M2064 680l-12 -14q62 10 136 41q72 30 147 78q71 47 135 104q82 76 142 159q61 85 61 126q0 30 -39 30q-27 0 -74 -26q-46 -25 -102 -72q-77 -65 -207 -209q-19 -19 -65.5 -71.5t-121.5 -145.5zM479 242q22 117 115 260q92 140 213 237l4 2h-6q-161 -4 -287 -44 q-125 -39 -196 -105q-70 -67 -70 -150q0 -71 64 -126q65 -56 163 -74zM1255 487l7 5q-9 26 -9 67q0 58 21 133l-6 2q-115 23 -209 36q-93 11 -189 13h-12l-4 -4q-90 -87 -144 -151q-51 -61 -96 -139q-70 -116 -94 -213h6q50 -5 72 -5q86 0 173 18q84 17 174 53q88 36 165 82 q74 43 145 103zM1278 506l4 4q88 79 141 149l-14 3l-109 24l-6 2q-20 -63 -20 -127q0 -27 4 -55zM1280 725h4l2 4q43 113 129 223l41 52l2 4q-17 4 -33 4q-99 0 -223 -56q-68 -29 -150 -74q-81 -46 -114 -73l-53 -43l-2 -2h6q70 0 158 -8q116 -10 210 -27zM1305 721l6 -2 q74 -11 102 -19l19 -4l20 -4q34 55 57 107q29 55 29 108q0 75 -57 94l-4 -4q-75 -91 -108 -144q-33 -52 -64 -132zM1671 653l6 -2l4 6q116 158 171 270q55 111 55 183q0 46 -23 72t-65 26q-68 0 -155 -51q-87 -52 -169 -139q61 -28 61 -107q0 -98 -86 -223l54 -10 q46 -9 147 -25zM1288 489l-4 -4q20 -65 56 -92q37 -29 102 -35q32 35 57 68q70 83 133 166l19 22l2 7h-6q-111 14 -189 30l-12 2q-25 -35 -68 -80q-40 -40 -90 -84zM522 215l-6 2q-10 -47 -10 -104q0 -115 58 -176q57 -62 165 -62q213 0 471 234q17 15 129 127q70 70 94 100 q-117 19 -155 135l-6 -4q-76 -63 -156 -111q-79 -48 -156 -75q-183 -70 -352 -70q-28 0 -76 4zM475 215l2 6q-115 26 -180 84q-66 59 -66 137q0 48 26 95q25 46 73 86q47 39 114 69q74 34 162 50q85 16 225 22h7l2 2q89 74 198 135q107 60 212 96q105 35 175 35q23 0 50 -8 l4 6q78 87 175 143q95 54 167 54q53 0 81 -33q29 -34 29 -94q0 -58 -21 -126t-62 -146q-37 -69 -109 -177l-4 -6h6q59 -4 104 -4q48 0 97 6q9 0 34 4l4 4l99 113.5l118 127.5q106 109 185 177q79 69 149 113q65 39 103 39q61 0 61 -51q0 -32 -32 -88q-32 -57 -83 -115 q-53 -60 -118 -117q-56 -49 -135 -98q-76 -46 -150 -75q-73 -30 -147 -42l-9 -10l-86 -107q-137 -173 -217 -301q-80 -119 -80 -172q0 -35 27 -35q26 0 90 57q61 53 139 146l64 80q1 0 12 14l15 -12l-4 -4l-4 -4t-3.5 -4t-3.5 -4l-61 -76q-43 -51 -89 -99q-53 -55 -85 -81 q-43 -33 -70 -33q-49 0 -49 65q0 61 43 148q53 102 160 246l131 168l4 4h-6q-103 -13 -168 -13q-34 0 -60 2h-6l-4 -4q-34 -47 -98 -125q-8 -9 -92 -110l-4 -4q67 20 128 66t93 98l16 -11q-31 -60 -109 -113q-77 -53 -151 -67l-6 -6q-48 -52 -156 -156q-106 -103 -214 -178 q-110 -77 -205 -113q-99 -38 -183 -38q-78 0 -137 35q-58 34 -90 100q-31 63 -31 153q0 26 4 74z" />
<glyph unicode="I" horiz-adv-x="1669" d="M1249 631l-4 -4l25 -6l26 -7q67 -18 78 -20l6 -2q86 78 140 166q55 89 55 153q0 17 -8 39q-85 -58 -164 -137.5t-154 -181.5zM1133 414l6 2q31 19 54 35q32 21 99 69l43 32q7 6 14 11t13 10q-8 5 -16 5l-62 18l-45 12l-6 2l-2 -4q-69 -99 -98 -192zM1556 543l-6 2 q-60 3 -155 22l-9 2q-108 -97 -258 -182l-4 -2q-18 -64 -18 -121q0 -65 17 -113q16 -46 53 -81q58 52 147 155q52 58 111 142l73.5 104.5t36.5 52.5q2 4 12 19zM1563 563h6l4 4l49 70q87 120 164 215q80 98 145 163q66 66 126 111q59 44 108 60q-35 0 -88 -15 q-97 -24 -183 -54q-89 -31 -163 -69q-80 -40 -140 -81l-6 -4q10 -23 10 -50q0 -52 -36 -126q-37 -75 -93 -134l-57 -61l-4 -4l6 -2q85 -20 152 -23zM711 698h-4h-2q-84 0 -181 -23q-93 -24 -155 -63q-117 -75 -117 -180q0 -64 53 -111q52 -46 150 -67v6q15 75 55 160 q39 83 92 157q55 75 109 121zM1090 365l-7 -3q-113 -62 -262 -100q-145 -37 -268 -37q-27 0 -68 4v-6q-12 -49 -12 -94q0 -114 70 -183q71 -69 184 -69q101 0 224 52q123 51 210 128q-40 41 -60 93t-20 126q0 49 9 89zM1186 618l2 5l-6 2q-3 0 -27 6q-215 61 -383 67h-6 l-4 -4q-142 -142 -211 -280q-38 -74 -62 -166q30 -2 58 -2q125 0 273 39q147 37 270 104l4 2l2 6q25 111 90 221zM788 721l-4 -4h11q72 -4 180 -22q93 -17 186 -44l21 -6l18 -4l2 4q42 62 96 119q54 59 117 111q68 56 129 94q8 6 10 8q-31 51 -124 51q-71 0 -151 -20 q-78 -21 -160 -60q-80 -38 -168 -98q-89 -61 -163 -129zM1614 541l-4 -4l-120 -172q-59 -82 -108 -136q-39 -45 -89 -93t-89 -81l-4 -4q50 -26 103 -26q87 0 200 71q56 37 95 75q35 34 106 116l20 24l15 -12l-23 -27q-59 -71 -104 -114q-40 -38 -103 -80q-116 -74 -206 -74 q-61 0 -119 35l-6 -4q-115 -84 -233 -130q-116 -46 -220 -46q-83 0 -147 37q-65 36 -99 103q-35 68 -35 157q0 39 7 73v4q-102 19 -161 74q-59 54 -59 125q0 122 140 205q139 82 344 82h10h6q52 54 145 117q86 60 185 110q200 103 364 103q103 0 148 -62l4 4q121 75 240 121 q113 43 278 82q128 29 219 29q13 0 29 -2l-6 -17h-13q-69 0 -138 -26q-67 -27 -140 -86q-108 -90 -221 -236q-55 -76 -82 -117q-11 -14 -49 -73q-7 -13 -18 -30q-6 -10 -9 -14.5t-4 -5.5l-21 -31q-6 -7 -12 -18l-2 -4q63 3 123 26q61 23 105 62q45 39 71 90q25 49 25 105 q0 6 -2 16l18 4q4 -21 4 -28q0 -77 -49 -144q-50 -68 -132 -110q-81 -41 -177 -43z" />
<glyph unicode="J" horiz-adv-x="1032" d="M297 -213h-21q-22 3 -40 4t-21 1q-18 2 -37 3l-153 15q-121 10 -224 10q-235 0 -389 -85q-155 -86 -155 -216q0 -76 66 -122q64 -46 179 -46q192 0 416 122q223 122 379 314zM553 35l-4 -6q128 29 256 151q78 75 130 149q51 73 80 151q27 75 27 147q0 64 -26 92l-47 -68 l-47 -69l-127 -195q-144 -222 -211 -309zM1001 754l5 4q1 2 2 3.5l5 7.5q8 10 11 15q138 177 255 282t212 138q-76 -7 -182 -35q-109 -29 -187 -61q-187 -76 -342 -193q-158 -119 -274 -272q-50 -64 -88 -138q-42 -78 -63 -150t-21 -136q0 -86 42 -139q42 -54 113 -57 q1 2 3 4t2 3q2 2 2 3l53 73q23 33 86 130q200 305 348 495l4 6q-24 6 -45 6q-66 0 -150 -51t-155 -137q-59 -69 -92 -145q-36 -80 -39 -140h-21q8 90 60 186q53 97 137 175q142 133 264 133q34 0 55 -10zM371 -215h-25l-4 -4q-135 -140 -242 -221q-107 -83 -225 -138 q-199 -92 -373 -92q-122 0 -193 52q-73 51 -73 137q0 70 42 130q40 58 116 102q75 42 179 66q106 23 230 23q90 0 228 -12l149 -12q10 -1 22 -1t19 -1q7 0 22 -1.5t28 -2.5q26 -1 44 -3l3 3l2 2l1.5 1.5t73.5 88.5q27 31 76 102q-76 11 -120 78q-44 68 -44 170q0 98 40 202 q39 104 114 205q76 102 178 189q104 89 231 162q114 66 246 118q129 52 250 77q124 26 229 26h41l11 -2l-2 -19h-13q-110 0 -211 -59q-78 -50 -159 -131q-53 -52 -121 -131q-58 -69 -97 -125l-10 -14l-8 -13q37 -36 37 -110q0 -117 -69 -243q-70 -127 -197 -239 q-126 -114 -265 -137l-4 -6l-26 -33q-59 -76 -133 -159l-4 -5h4h2q125 0 209 34q85 34 112 93l19 -8q-15 -41 -62 -73q-50 -33 -119 -49q-74 -17 -159 -17z" />
<glyph unicode="K" horiz-adv-x="1985" d="M2212 868l-4 -4q-67 -54 -112 -83q-49 -32 -102 -52t-110 -29q78 -25 78 -108q0 -19 -6 -43q117 43 187 123q71 82 71 172q0 10 -2 24zM805 711l-6 -4h6q51 -4 128 -17q65 -13 169 -36q103 -25 209 -54l14 -4l14 -4l4 4q77 82 125 171q45 86 45 155q0 48 -33 76 q-32 28 -91 28q-83 0 -181 -40q-96 -38 -223 -124l-6 -4q40 -70 145 -70q72 0 144 32q69 31 118 89l17 -8q-49 -61 -124 -97t-155 -36q-118 0 -159 78q-94 -66 -160 -135zM489 260l-2 -6q53 -8 103 -8q126 0 259 42t265 124q72 44 123 85q54 44 86 78l-20 5q-145 42 -240 63 q-152 34 -275 43l-6 2l-26 -29l-25 -26q-92 -100 -149 -188q-58 -88 -93 -185zM1505 483l33 41l-6 2l-12.5 3l-19.5 4.5l-17.5 4t-18.5 3.5q-20 4 -26.5 5.5t-14 3t-8.5 1.5l-57 14q-1 0 -3.5 1.5t-8.5 2.5q-102 -105 -227 -180q-127 -76 -269 -120q-143 -44 -266 -44 q-53 0 -103 8q-24 -69 -24 -143q0 -99 57 -154q56 -55 156 -55q80 0 186 39q107 39 199 100q60 44 116 92t111 107l107 119l86 102zM1989 1051h4l4 4q101 87 147 112l-8 -2q-90 -18 -168 -18q-96 0 -188 16l-94 17q-113 22 -197 22q-129 0 -251 -42q-121 -42 -195 -111 q-74 -71 -74 -144q0 -17 4 -26l4 4q116 76 227 121q107 43 187 43q65 0 105 -34t40 -89q0 -70 -44 -156q-45 -87 -128 -176l-4 -4q3 0 5.5 -0.5t3.5 -1.5q3 0 5.5 -0.5t3.5 -1.5q6 -2 7 -2q2 0 3.5 -0.5t2.5 -1.5l30 -9q4 -1 101 -22q6 -1 16 -3q4 -1 14 -3l19 22l16 23 q5 5 34 42q21 29 56 71l28.5 37l25.5 33q23 29 24 30q114 138 213 227l4 4q-90 -3 -176 -53t-145 -133l-15 8q30 52 91 100q60 46 127 71q70 26 135 26zM1606 532q80 -16 151 -16q68 0 148 19l6 2q20 34 20 67q0 90 -123 90q-25 0 -53 -2l12 23h23q69 0 115 9q45 7 92 30 q47 22 90 55q40 29 115 98q-18 54 -68 87q-50 32 -127 38l-4 -4q-33 -33 -98 -113q-4 -6 -18.5 -22.5t-74.5 -89.5l-41 -53q-22 -28 -30 -39l-119 -156l-14 -18q0 1 -2 -5zM727 686l4 4h-16q-137 0 -241 -30q-106 -32 -162 -86q-58 -55 -58 -128q0 -60 48 -108t130 -72l8 -2 l6 -2v6q34 113 102 214q69 102 179 204zM440 242q-2 2 -6 2l-8 2q-89 25 -143 79q-52 52 -52 121q0 75 61 136q60 60 171 95q108 34 250 34q15 0 35 -2h6l4 4q66 57 108 90l74 55l16 10q-6 20 -6 35q0 46 26 93q26 46 73 84q45 38 120 73q60 28 116 44q57 17 121 28 q59 10 124 10q71 0 153 -12q5 0 55 -11l89 -20q66 -13 108 -18q45 -5 76 -5q61 0 118 15q53 12 140 49l4 -12q-10 -9 -39 -21q-48 -22 -109 -66q-62 -45 -102 -85q70 -6 122 -40q50 -34 73 -89l25 22l24 23q96 89 141 126q45 38 99 72q95 62 166 62q33 0 54 -15 q21 -16 21 -45q0 -35 -26 -67l-17 10q23 31 23 57q0 20 -15 30q-16 11 -40 11q-105 0 -281 -170l-104 -102l-18 -14.5l-17 -14.5q-16 -13 -21 -18l-4 -4q4 -15 4 -43q0 -97 -78 -186q-79 -88 -206 -130q-27 -63 -146 -200l-90 -105q-67 -75 -98 -135q-10 -16 -10 -31 q0 -28 22 -28q37 0 116 72q74 66 179 194l16 20l15 -12q-3 -3 -4.5 -5t-4.5 -5l-4 -4l-4 -4l-43 -54q-93 -114 -168 -172q-58 -51 -98 -51q-51 0 -51 59q0 43 44 111q43 67 146 182q107 124 127 152l2 4q-67 -16 -137 -16q-62 0 -166 18l-4 -4q-60 -78 -117 -143.5 t-119 -127.5q-121 -121 -241 -206q-117 -83 -231 -128q-112 -44 -209 -44q-114 0 -179 71t-65 193q0 58 14 117z" />
<glyph unicode="L" horiz-adv-x="1942" d="M932 -39q-80 55 -172 86q-93 31 -174 31q-70 0 -111 -16q-43 -16 -43 -46q0 -36 71 -62q72 -26 181 -26q65 0 132 10q67 9 116 23zM1810 827l-6 -10q62 -59 94 -127l5 4q60 48 136 118q73 68 116 115q49 53 88 109q59 89 59 127q0 47 -53 47q-48 0 -125 -51 q-78 -52 -158 -135q-85 -89 -149 -188zM1792 801l-27 -43l-28 -41l-70 -107l-61 -102l-11 -12q53 23 137 78q82 52 150 104q-28 62 -90 123zM1890 657l-0.5 -0.5l-1.5 -1.5l-0.5 -0.5l-1.5 -1.5l-8 -6q-156 -121 -309 -192q-40 -76 -108 -159q-66 -81 -134 -138 q-4 -4 -5.5 -6t-4.5 -5q52 -4 82 -4q148 0 268 50q117 49 182 140q64 89 64 206q0 58 -23 118zM1010 309h-6q93 -115 270 -153q124 120 205 256q-106 -45 -235 -73q-71 -16 -120.5 -22t-113.5 -8zM963 330q-37 62 -37 145q0 64 27 122q27 59 73 99t102 52l5 -17 q-87 -28 -137 -97q-50 -70 -50 -161q0 -78 41 -143h10q117 1 250 32t252 82l25 41l26 41l100 153q46 66 107 146l4 4q-75 64 -173 108q-102 44 -224 68q-126 23 -254 23q-135 0 -256 -29q-118 -28 -207 -81q-88 -52 -136 -121q-48 -70 -48 -150q0 -52 25 -101q24 -49 74 -90 q51 -42 116 -67q72 -28 146 -43q69 -14 139 -16zM977 309h-6q-232 5 -380 102q-149 98 -149 242q0 109 89 201q88 91 242 143q153 52 339 52q205 0 379 -53q172 -52 283 -150q1 1 4 6t6 8q61 78 126 146.5t130 119.5q130 103 209 103q32 0 54 -17q21 -18 21 -51 q0 -65 -110 -196q-36 -45 -80.5 -92t-107 -103t-113.5 -96l-6 -4q26 -69 26 -131q0 -184 -153 -303q-140 -113 -379 -113q-59 0 -105 8q-37 -32 -80 -61q-53 -35 -104 -61q-61 -31 -96 -44l-6 -4q3 -1 8.5 -4t10.5 -6q6 -3 12.5 -7t9.5 -7l63 -46q7 -3 16 -10q9 -8 33 -24 l33 -23q151 -106 251 -150q99 -44 189 -44q115 0 179 67l12 -12q-45 -42 -88 -58q-45 -18 -113 -18q-225 0 -549 240l-65 47q-3 3 -8 6q-14 8 -19 12l-29 19h-4q-123 -35 -258 -35q-130 0 -207 30t-77 78q0 40 48 61t134 21q182 0 393 -123l14 7q147 53 252 153l6 4 q-194 50 -280 170z" />
<glyph unicode="M" horiz-adv-x="2173" d="M1886 526q-2 -1 -4 -3t-4 -3l-6 -4l-51 -39l-86 -65q-84 -67 -157 -138q-69 -68 -108 -122q-40 -55 -40 -95q0 -34 30 -34q39 0 95 44q57 45 117 115q58 66 118 163q58 93 96 181zM782 709l-6 -7h6q57 -7 164 -24q96 -17 197 -41l127 -27l57 -12l6 -2l4 6q79 87 121 168 q43 82 43 141q0 7 -2 15q-74 -22 -157 -74q-80 -52 -130 -111l-16 15q37 41 80 75q47 36 102 65q56 29 117 48q-23 74 -131 74q-83 0 -179 -37q-100 -38 -202 -106q-105 -72 -201 -166zM762 682h-6l-4 -4q-80 -82 -124 -138q-39 -51 -91 -132q-58 -92 -78 -152 q49 -10 119 -10q95 0 189 21q93 21 188 62q89 39 175 95q79 51 156 125l25 24q1 1 2.5 3t3.5 4h-6l-25 6q1 0 -5.5 1t-16.5 3l-129 26q-42 11 -118 27l-108 21q-78 14 -147 18zM1628 588l-4 -4q131 19 214 81q81 62 81 140q0 39 -27 76l-4 -7q-38 -38 -176 -190zM700 682 l7 4q-4 1 -11.5 1.5t-13.5 0.5h-29q-123 0 -219 -30q-97 -31 -152 -85q-55 -55 -55 -122q0 -65 53 -115q53 -52 148 -74q19 64 62 143q40 74 98 151q53 70 112 126zM1518 508l45 47h-7q-14 -2 -28 -2q-83 0 -189 20l-4 -4q-56 -56 -114.5 -103t-119 -84.5t-128.5 -69.5 q-195 -89 -395 -89q-71 0 -127 10q-23 -87 -23 -135q0 -93 56 -152t143 -59q79 0 175 36q92 33 193 100q102 69 228 186l118.5 115.5l133.5 134.5zM1876 889l4 4q-65 65 -190 65q-73 0 -162 -24l-6 -2v-19q0 -65 -41 -147q-43 -83 -121 -170l-4 -4q4 0 20 -2q81 -15 148 -15 q39 0 61 3q8 10 12 14l13 12q5 5 16 18t18 20l27 30l31 33l74 79q29 32 49 52zM1890 911l4 -4l4 4l17 17q151 151 244 219q91 68 139 88q-25 -30 -94 -137q-13 -21 -38 -69q-13 -24 -42 -85q-29 -63 -72 -166q-10 -27 -24.5 -61.5t-16.5 -38.5q-7 -18 -13.5 -32t-8.5 -19 l-4 -4l6 2l76.5 56.5l64.5 47.5l127 96q68 51 108 84q144 115 275 232q72 62 92 88h23q-34 -38 -91 -119q-2 -3 -7.5 -10.5l-10.5 -14l-13 -16.5l-50 -65l-29.5 -39.5l-39.5 -52.5q-6 -9 -24.5 -33l-33.5 -43l-125 -164l-127 -166l-113 -150l-92 -125q-107 -146 -107 -180 q0 -26 23 -26q34 0 121 81q86 80 190 205l15 -12q-245 -293 -328 -293q-45 0 -45 47q0 44 51 135q49 84 100 154q101 142 152 201l135 162l127 153l135 160q63 76 94 119q-17 -19 -71 -66q-3 -2 -23.5 -19l-77.5 -65l-47.5 -39l-19.5 -16l-25 -19l-135 -104 q-162 -126 -237 -180l-54 -37l-6 -4l-2 -6q-58 -121 -122 -218q-62 -94 -142 -186q-54 -62 -96 -98q-46 -39 -80 -58q-38 -20 -66 -20q-24 0 -37 16q-14 17 -14 41q0 42 52 112q51 69 145 155q85 79 209 170l73 51q2 2 7 5.5l12 8.5l8 17q74 161 121 253q64 131 127 232 q66 109 73 119l-18 -15q-105 -77 -211 -174l-17.5 -17.5l-19.5 -19.5l-22.5 -22.5l-24.5 -24.5q-3 -2 -8 -7q-2 -2 -3.5 -4t-4.5 -5q32 -40 32 -92q0 -56 -44 -109t-121 -89q-77 -35 -175 -46l-55 -63l-55 -62l-141 -155q-52 -55 -94 -93q-50 -45 -91 -78 q-102 -79 -195 -132q-98 -54 -179 -80q-85 -27 -162 -27q-103 0 -162 65t-59 179q0 64 16 131q-97 21 -156 79q-61 58 -61 130q0 61 43 113q44 53 123 89q123 56 293 56h36q6 0 14 -0.5t13 -1.5q64 62 158 131q86 61 171 106q86 44 166 68q84 26 144 26q119 0 152 -88 q89 29 174 29q121 0 198 -68z" />
<glyph unicode="N" horiz-adv-x="1993" d="M1884 494q-97 -114 -211 -275q-40 -54 -74 -121q-16 -28 -16 -55q0 -25 19 -25q29 0 78 49q48 47 85 111q78 128 119 316zM709 682l4 4l-6 2q-28 2 -64 2q-114 0 -204 -29q-87 -28 -137 -81t-50 -119q0 -60 52 -109q52 -50 136 -71l6 -2l3 6q31 97 103 206 q75 112 157 191zM1300 557l7 4l-7 2q-16 1 -133 29l-104 29q-6 2 -82.5 19.5t-95.5 21.5q-56 14 -113 18l-4 2l-6 -4q-75 -78 -126 -140q-50 -62 -83 -120q-40 -68 -74 -146q64 -8 121 -8q65 0 114 7q49 6 108 20q57 14 118 37q84 31 189 98q100 64 171 131zM1522 504l41 51 q-46 -6 -97 -6t-129 8l-6 2l-4 -6q-101 -98 -221 -166q-119 -69 -253 -106q-129 -37 -255 -37q-64 0 -125 8l-4 -16q-20 -85 -20 -132q0 -98 59 -160q58 -61 154 -61q224 0 505 242q70 59 157 151.5t198 227.5zM1628 594l-6 -8q79 20 134 55q56 35 85 82t29 102q0 38 -17 66 l-4 -4l-20 -26q-10 -12 -31 -42l-94 -123zM1354 580l-4 -5h6q69 -8 102 -8q52 0 123 11q5 7 14 16l13 16q25 33 49 60q25 33 33 41l94 120l31 37l28 37q-61 70 -192 70q-47 0 -109 -12q4 -13 4 -35q0 -44 -23 -102q-22 -57 -66 -120q-41 -61 -103 -126zM788 702l-4 -4l7 -2 q4 0 45.5 -7l76.5 -13q57 -10 160 -39q195 -49 250 -57l2 2l1 1l1 1v0l19 18q88 93 133 175q47 85 47 149q0 5 -4 30q-84 -22 -168 -83q-84 -63 -131 -130l-17 9q125 169 310 221q-31 55 -125 55q-259 0 -603 -326zM1966 614l23 27l22 27l134 146l102 106q108 108 195 177 q91 71 154 100q67 32 122 32q46 0 74 -19t28 -53q0 -20 -18 -49l-19 12q15 29 15 39q0 47 -80 47q-193 0 -621 -473l-74 -84l-34 -35l-33 -36v-7l-17 -55q-40 -144 -112 -278q-50 -98 -116 -168t-107 -70t-41 41q0 36 32 94q49 84 168 238l58 76q26 33 39 48l34 40 q2 6 3.5 13t3.5 15q4 15 12 56q46 221 79 319q33 104 89 205q-5 -3 -37 -35q-12 -12 -19 -20q-17 -17 -26 -27q-36 -39 -41 -47l-68 -78l-20 -25v-3l-0.5 -1t-1.5 -2q22 -32 22 -84q0 -91 -74 -159q-74 -70 -206 -101h-6l-15.5 -22t-15.5 -21l-17 -22q-105 -145 -222 -263 q-115 -117 -232 -198q-121 -85 -233 -128q-114 -46 -212 -46q-70 0 -123 33t-81 94q-29 63 -29 141q0 72 16 127l-8 4q-94 26 -147 81q-54 54 -54 120q0 55 37 105q37 52 97 83q47 28 121 43q72 15 157 15q60 0 88 -4l4 4q79 73 169 137q89 63 177 108q90 46 167 69 q80 24 145 24q110 0 143 -68q62 14 115 14q147 0 204 -71l13 14l12 14q63 82 135 154l66 65q28 28 49 41q-3 -9 -6 -12l-21 -41q-6 -15 -12 -32q-6 -15 -10 -26t-13 -30q-20 -53 -51 -184l-12 -62l-7 -37q-4 -16 -18 -90q-2 -14 -8 -50q-5 -20 -6 -32z" />
<glyph unicode="O" horiz-adv-x="1401" d="M1315 1106l-4 -4q53 -68 53 -176v-13q78 29 141 69q61 39 100 86q37 44 37 83q0 27 -22 43t-59 16q-92 0 -246 -104zM1294 1090l-6 -5q-111 -84 -268 -247l-12 -12l-9 -9l-5 -5l-7 -7q10 2 23.5 5.5t22 6t18.5 4.5l79 21q47 12 203 61l8 4l2 6v17q0 96 -49 160zM578 125 l-3 -6q136 26 267 101q64 35 127 83.5t116 101.5q110 110 177 234q67 123 79 246l-6 -2q-103 -39 -348 -99l-22 -6l-13 -14l-57 -72q-92 -117 -148 -206q-58 -91 -102 -185q-42 -89 -67 -176zM571 98q-10 -47 -10 -78q0 -66 30 -102q28 -37 79 -37q97 0 254 127 q156 126 340 352q190 235 291 431q100 193 100 323v12q-9 -40 -48 -84q-40 -44 -100 -81q-55 -34 -145 -68q-9 -116 -71 -240q-31 -63 -75 -123.5t-100 -119.5q-114 -125 -257 -206q-141 -80 -288 -106zM537 115q12 91 57 197q42 103 119 220q78 118 172 224l4 4l-6 -2 q-138 -36 -256 -87q-117 -52 -201 -114q-85 -63 -130 -130q-46 -67 -46 -136q0 -86 61 -132q62 -48 170 -48q37 0 56 4zM535 92q-41 -4 -56 -4q-113 0 -180 55q-68 56 -68 148q0 73 47 146q48 72 133 134q83 61 212 118q127 55 282 95h6l4 7q171 182 357 315l6 4 q-63 66 -172 66q-103 0 -204 -55q-103 -56 -170 -147q-68 -91 -79 -188h-16q5 76 46 148q41 74 110 134q71 60 152 94t161 34q115 0 188 -76l6 4q162 105 265 105q54 0 82 -33q28 -32 28 -92q0 -76 -33 -177q-35 -103 -96 -215q-61 -114 -156 -243q-89 -121 -196 -238 q-90 -102 -195 -190q-102 -87 -186 -133q-84 -45 -139 -45q-45 0 -76 22q-33 22 -49 64q-17 45 -17 102q0 25 3 41z" />
<glyph unicode="P" horiz-adv-x="1761" d="M1440 485q34 22 82 58l77 59q49 37 105 88q53 48 96 94q133 136 133 191q0 29 -24 29q-32 0 -85 -38t-116 -107q-64 -70 -117 -148l-73 -105q-59 -84 -78 -121zM510 319l-2 -6q-39 -105 -39 -188q0 -112 59 -177t160 -65q64 0 141 31q79 30 146 84q69 52 160 162 q17 20 56 71l60 78l17 27l18 26q-78 -46 -186 -88q-177 -67 -316 -67q-180 0 -274 112zM498 371l2 6l10 24q42 99 115 198q68 93 172 189q79 77 197 157q115 80 216 128l7 2q-56 29 -136 29q-113 0 -226 -48q-112 -49 -200 -133q-87 -82 -140 -186q-52 -103 -52 -211 q0 -85 35 -155zM489 350q-45 71 -45 176q0 145 93 284q91 137 241 225q149 87 305 87q86 0 150 -39q6 3 6 4l18 9q149 71 293 107q146 36 279 36q143 0 222 -57t79 -160q0 -55 -24 -112q-24 -56 -69 -112q-46 -55 -114 -108q-52 -37 -100 -62q-52 -27 -104 -43 q-57 -18 -103 -22l2 17q66 5 146 41q83 36 145 88q84 70 132 154q46 82 46 167q0 191 -277 191q-135 0 -273 -37q-139 -37 -284 -113q82 -61 82 -182q0 -93 -60 -191q-62 -100 -157 -159l-10 16q102 72 156 159q53 88 53 179q0 107 -80 170l-6 -4q-126 -70 -195 -117 q-69 -45 -139 -108q-135 -115 -230 -238q-92 -119 -149 -252l-2 -6q37 -50 112 -82q72 -31 156 -31q101 0 239 45q135 43 277 121l11 6l4 6l4 5q63 89 184 243q148 192 250 283q104 88 154 88q47 0 47 -47q0 -38 -60 -116q-59 -78 -161 -171q-43 -37 -112.5 -91.5 l-119.5 -90.5q-75 -56 -104 -74l-11 -14q-390 -553 -702 -553q-109 0 -172 74t-63 204q0 99 40 207z" />
<glyph unicode="Q" horiz-adv-x="1315" d="M537 250h24l6 14q56 113 115 201q57 83 139 174q41 46 117 118q76 73 138 125q63 53 134 105q2 1 20 14q14 10 32 21l18 14.5t12.5 10.5t12.5 10q-61 24 -154 24q-132 0 -269 -60q-139 -62 -251 -159q-114 -101 -181 -219q-69 -120 -69 -235q0 -73 42 -115 q40 -43 114 -43zM1483 801v-13l4 5q101 104 170 205q63 95 63 143q0 28 -17 45q-17 16 -48 16q-43 0 -120 -34q-72 -31 -161 -91q-3 -2 -5.5 -3.5t-5.5 -3.5l-17 -11q66 -38 101 -104q36 -67 36 -154zM1454 733l-4 -6q-61 -61 -181 -167q-125 -110 -198 -169l-136 -103 q-43 -32 -122 -85q-118 -82 -141 -99q-14 -10 -94 -59q-41 -23 -43 -25v-20q0 -58 27 -89q26 -32 77 -32q89 0 210 77q119 76 259 222q143 153 232 295q91 147 114 260zM621 260l4 2q54 15 110 44q52 26 101 63q51 37 102 88q82 79 136 155q57 79 83 148l21 -4 q-33 -86 -94 -169q-59 -81 -143 -157q-82 -74 -166 -123q-86 -50 -167 -69l-2 -7q-55 -99 -67 -184l6 4l184 116q65 43 150 107q131 94 284 220l76 66l30.5 27l28.5 25q62 54 101 93l55 55l4 6q4 25 4 35q0 83 -35 147q-34 62 -100 99l-12 -11q-264 -201 -455 -430 q-21 -25 -61 -77l-69 -96q-39 -55 -65 -99q-38 -63 -44 -74zM1325 1071l37 21q97 62 158 90q93 39 137 39q36 0 59 -22q23 -23 23 -58q0 -32 -25 -82q-25 -52 -70 -113t-108 -129l-51 -53l-4 -4q-11 -88 -57 -191q-46 -105 -126 -216q-39 -55 -80.5 -104t-91.5 -99 q-37 -35 -98 -88q-46 -39 -106 -84q-54 -39 -93 -60q-104 -59 -184 -59q-60 0 -98 38q-36 36 -41 107l-55 -31l-56 -32l-102 -54q14 2 24 2q93 0 183 -39q65 -26 111 -58q48 -33 167 -134q74 -63 130 -99q59 -38 106 -54q49 -17 98 -17q144 0 238 133l14 -10 q-36 -65 -109 -105q-74 -41 -157 -41q-70 0 -136 24q-65 23 -143 78q-74 53 -160 132q-87 81 -118 104q-52 33 -111 51q-60 17 -111 17q-56 0 -108 -23l-6 17q42 19 92 47l88 47q6 4 27 16q16 8 41 23l24 14l23 13l4 4q3 70 31 145l14 45l2 10h-10q-82 0 -132 50 q-49 49 -49 133q0 227 248 452q89 81 176 131q94 54 184 80q93 27 185 27q111 0 172 -31z" />
<glyph unicode="R" horiz-adv-x="1849" d="M1432 485q18 10 84 58l77 59q40 30 99 83q56 50 102 99q133 140 133 191q0 29 -26 29q-22 0 -57 -20q-36 -21 -82 -64q-49 -45 -90 -94q-46 -55 -87 -115l-74 -105q-56 -79 -79 -121zM1280 362q-66 -40 -188 -88q-92 -34 -167 -51q-73 -16 -147 -16q-179 0 -276 112 l-2 -6q-37 -98 -37 -188q0 -112 59 -177t160 -65q63 0 140 31q77 30 147 84q71 53 159 162q114 147 115 149l19 27zM1204 1073l4 2q-52 29 -133 29q-149 0 -295 -84q-147 -85 -235 -218q-90 -135 -90 -276q0 -43 10 -80q9 -40 24 -75l3 6l10 24q92 209 289 387 q79 77 197 157q115 80 216 128zM1608 559l2 21q68 5 148 41q83 36 145 88q86 72 132 156q46 82 46 165q0 191 -277 191q-130 0 -273 -38q-136 -36 -286 -112q84 -63 84 -182q0 -94 -61 -192q-62 -99 -158 -158l-8 16q102 75 155 160q54 87 54 178q0 109 -82 170l-4 -4 q-124 -70 -194 -116q-69 -47 -142 -109q-272 -236 -377 -490l-2 -6q25 -35 67 -60q41 -25 93 -39q54 -14 108 -14q99 0 238 45q72 23 143 54.5t135 66.5l11 6l4 6l4 5q48 68 182 243q80 102 142 171.5t110 111.5q100 88 154 88q47 0 47 -47q0 -40 -61 -116 q-63 -80 -163 -171q-73 -68 -229 -182q-27 -21 -104 -74l-11 -14q-390 -553 -702 -553q-112 0 -174 74t-62 204q0 101 39 207q-21 36 -33 81t-12 95q0 146 93 284t243 225t305 87q86 0 150 -39q6 3 6 4l16 9q150 71 295 107q146 36 277 36q144 0 223 -57q80 -57 80 -160 q0 -83 -54 -169q-57 -88 -153 -163q-65 -47 -136 -78q-74 -32 -143 -45q72 -33 72 -141q0 -75 -33 -213l-26 -109q-43 -185 -43 -272q0 -109 54 -170q53 -63 142 -63q73 0 150 41q78 41 129 110l16 -6q-37 -67 -124 -116q-89 -50 -171 -50q-71 0 -127 39t-86 111 q-30 70 -30 161q0 69 11 130q12 62 46 176l29 88q36 110 36 174q0 93 -75 102z" />
<glyph unicode="S" horiz-adv-x="2044" d="M2144 760q62 41 124 99q63 59 114 122q51 60 87 119q34 55 34 82q0 11 -8 19q-7 7 -19 7q-32 0 -81 -43q-50 -44 -97 -112q-86 -120 -154 -293zM1720 514l2 6q-270 -102 -497 -102q-172 0 -310 61q-27 -62 -43 -132q-16 -65 -16 -116q0 -19 2 -57q96 -27 189 -27 q128 0 254 46q129 45 237 130q110 84 182 191zM2056 657l15 33q-13 -4 -19 -10l-20 -12q-166 -95 -271 -133l-6 -3l-2 -4q-61 -94 -140 -167t-172 -125q-89 -50 -194 -79q-100 -28 -205 -28q-45 0 -93 6q-52 6 -87 19q49 -271 340 -271q97 0 224 48q128 48 219 120 q85 69 147 146q68 84 130 192q61 106 134 268zM1245 866l-4 -2q-102 -71 -185 -166t-132 -202q69 -30 144.5 -44t158.5 -14q225 0 508 107l6 2q39 65 60 130q20 68 20 120q0 94 -54 146q-55 52 -153 52q-76 0 -169 -29q-90 -28 -177 -83l-4 -4q50 -27 89 -66q36 -36 58 -85 q21 -48 21 -99q0 -39 -17 -78l-16 2q14 54 14 78q0 72 -44 136q-45 63 -124 99zM831 186q-4 20 -4 68q0 132 47 246l-6 2q-148 82 -204 227q-35 -48 -53 -105q-19 -57 -19 -114q0 -107 62 -192q62 -84 177 -132zM1208 879l4 2q-81 28 -170 28q-106 0 -202 -43t-162 -121 q25 -74 77 -132q49 -58 126 -97q48 102 134 197q87 97 193 166zM1233 893l4 4q59 35 126 63q68 29 131 42q67 14 118 14q107 0 169 -58q62 -59 62 -159q0 -105 -69 -234l-2 -6l6 2q94 42 171 82q95 49 134 74l6 10l27 55q107 216 199 331q93 114 163 114q45 0 45 -45 q0 -27 -28 -79q-27 -51 -74 -108q-47 -58 -88 -99q-47 -47 -95 -88q-57 -47 -98 -75l-8 -6q-18 -37 -45 -111q-58 -156 -132 -273t-181 -218q-124 -118 -281 -190t-293 -72q-97 0 -175 35q-76 34 -124 100q-49 67 -65 160l-2 6q-79 28 -139 80q-58 51 -90 120t-32 146 q0 130 84 238q-14 50 -14 98q0 87 40 155q41 71 110 110q70 40 155 40q60 0 114 -24q53 -23 85 -62l-12 -10q-34 36 -83 57t-102 21q-80 0 -145 -37q-67 -37 -105 -102q-38 -67 -38 -144q0 -47 10 -86q155 164 372 164q101 0 189 -35z" />
<glyph unicode="T" horiz-adv-x="1747" d="M782 256q176 28 355 174q94 78 165 160q73 87 112 162q40 77 40 133q0 37 -20 57q-20 19 -58 19q-75 0 -184 -68q-108 -68 -203 -176q-93 -104 -146 -225q-54 -121 -61 -236zM2116 1161q74 -12 135 -12q135 0 135 47q0 25 -57 25q-50 0 -109 -15q-59 -17 -104 -45z M780 236v-5q0 -72 26 -144q25 -69 66 -110l5 3q149 71 292 215q67 69 104 112q34 40 130 164q120 161 198 255q75 91 146 165q108 108 174 162q30 26 45 37l23 18l24 18l15 11l-21 2q-15 3 -41 7l-14 2t-16 2.5l-15 2.5l-131 25q-163 30 -297 30q-362 0 -649 -198 q-155 -108 -250 -257q-94 -148 -94 -288q0 -66 28 -113q29 -49 79 -74q50 -26 120 -26h35q7 126 62 249q54 122 151 232q99 111 210 180q112 68 191 68q99 0 99 -98q0 -88 -92 -221q-90 -130 -238 -252q-56 -46 -121 -84q-65 -37 -125 -59q-67 -24 -119 -31zM893 -35l-6 -2 q80 -69 188 -69q67 0 115 18q45 17 108 65l13 -16q-98 -88 -236 -88q-122 0 -207 82l-6 -4q-165 -76 -330 -76q-113 0 -202 40q-91 41 -141 112q-52 70 -52 159q0 61 27 118q25 56 73 96q46 38 103 49l2 -17q-76 -12 -130 -85t-54 -163q0 -59 27 -112q27 -52 78 -93 q50 -39 119 -61q66 -22 144 -22q162 0 322 71l6 2q-88 94 -94 264h-37q-111 0 -176 63q-66 63 -66 169q0 96 44 199q44 101 125 196q79 94 188 168q304 211 716 211q168 0 373 -43l135 -25l17 -4q18 9 16 9l35 18q89 47 192 47q86 0 86 -47q0 -32 -53 -52q-54 -20 -145 -20 q-71 0 -148 11q-52 -33 -100 -73t-92 -85q-48 -50 -105 -118.5t-106 -135.5l-119 -158q-186 -248 -330 -380q-146 -136 -317 -218z" />
<glyph unicode="U" horiz-adv-x="1745" d="M1425 195q9 6 17 14l37 43l65 67q7 11 21 26q11 14 34 40q4 4 16 18q6 8 11 14t10 11l125 145q28 33 74 96l92 131q45 67 62 99q36 68 36 88q0 21 -16 21t-51 -27q-38 -32 -79 -78q-42 -47 -103 -129q-66 -90 -86 -120q-31 -45 -57 -87l-26.5 -43l-31.5 -51l-39 -63 q-72 -124 -111 -215zM1251 741l2 7q60 99 60 163q0 34 -20 52q-19 18 -60 18q-90 0 -226 -86q-67 -43 -133 -100.5t-122 -120.5q-57 -62 -108 -137q-50 -74 -85 -148q-32 -67 -53 -143q18 -2 33 -2q210 0 446 205q132 110 211 213q6 9 10.5 14t8.5 11q8 11 24 36h-14 q-47 0 -106 -27q-58 -27 -117 -75q-60 -50 -99 -103l-16 10q42 59 101 108q65 53 125 79q63 28 114 28q10 0 24 -2zM1333 567l-4 -6l-22 -24q-11 -15 -31 -36q-34 -36 -37 -40q-3 -3 -23 -25t-24 -26q-94 -103 -135 -153q-46 -57 -73 -96q-33 -48 -48 -81q-31 -62 -31 -111 v-4l4 4q71 48 145 122q79 81 140 167q64 93 96 164q31 68 43 145zM1352 653q47 52 98 119q64 90 95 153q28 57 28 107q0 88 -57 134q-56 46 -164 46q-164 0 -365 -99q-202 -99 -356 -255q-238 -244 -238 -448q0 -61 25 -102q26 -42 67 -54q67 232 254 436q83 92 174 162 t176 109q85 38 146 38q48 0 73 -22t25 -66q0 -73 -57 -168l-2 -6q59 -18 78 -84zM883 -49q-2 14 -2 33q0 93 65 200q29 47 64 92q35 46 98 117l33.5 37.5t19.5 21.5l36.5 38.5l78.5 82.5q52 53 55 58l4 4q-15 68 -73 84l-2 -4q-50 -78 -139 -168q-93 -96 -193 -170 q-89 -68 -193 -112q-102 -42 -186 -42q-35 0 -51 4q-17 -73 -17 -141q0 -97 50 -153t135 -56q101 0 217 74zM889 -72q-125 -71 -225 -71q-94 0 -148 63q-55 62 -55 172q0 66 16 133l2 6q-52 19 -81 71t-29 126q0 239 249 473q78 72 174 134q99 62 193 105q90 41 195 68 q99 25 178 25q107 0 171 -54q64 -55 64 -147q0 -51 -21 -113q-23 -63 -61 -120q-66 -102 -149 -199l-4 -4q-6 -82 -44 -172q-40 -90 -120 -203q-63 -84 -139 -159q-83 -80 -148 -121q18 -64 72 -64q55 0 147 58q96 60 199 157l14 12q26 75 60 147q31 66 86 162 q47 81 112 174q63 89 117 154q72 91 137 163q55 60 98 92q37 28 64 28q31 0 31 -35q0 -52 -137 -252q-26 -38 -97 -133q-38 -51 -133 -164q-87 -102 -182 -202l-51 -54l-23 -24l-8 -10q-3 -3 -6 -6.5t-8 -8.5l-2 -6q-43 -111 -61 -191q-21 -86 -21 -159q0 -97 50 -156 t134 -59q79 0 167 57q89 58 171 160l12 -10q-70 -100 -169 -164q-97 -64 -181 -64q-66 0 -113 33q-49 34 -74 94q-26 63 -26 144q0 47 9 103q8 55 30 140l2 6l-6 -4q-75 -64 -147 -116q-62 -44 -111 -65q-45 -19 -84 -19q-64 0 -90 69z" />
<glyph unicode="V" horiz-adv-x="1575" d="M1579 1079l-4 -4q20 -48 20 -110q0 -19 -2 -35l6 4q86 45 142 86q62 46 92 83q33 41 33 73q0 18 -11 26t-30 8q-38 0 -107 -36q-66 -34 -139 -95zM1561 1063q-82 -71 -172 -223q46 14 178 78l6 2q4 32 4 47q0 48 -16 96zM780 346l6 2l15 4q113 37 231 152 q116 113 156 225l-8 -4q-118 -60 -192 -111q-76 -53 -122 -106q-77 -83 -86 -162zM780 324q6 -78 109 -78q86 0 166 41l43 22q1 0 2 1q1 0 2 1l8 23l10 22l43 111l70 165q26 58 76 146l4 6l-43 -18l-43 -18q-4 -2 -7.5 -4t-5.5 -3q-20 -63 -66 -130q-44 -64 -106 -126 q-58 -56 -128 -100q-67 -42 -134 -61zM1569 897l-39 -18l-37 -17l-22.5 -10t-26.5 -13l-20.5 -9t-10.5 -5q-29 -9 -39 -14l-6 -10l-21 -44t-16 -34q-4 -9 -11.5 -24t-17.5 -37q-4 -10 -10.5 -24.5l-11.5 -26l-11 -25.5q-4 -10 -15 -35l-18 -42t-26 -60l-20 -48l-21 -49 q152 107 264 259q112 150 136 286zM760 340q6 69 59 142q55 73 146 140q97 69 227 132l6 2q14 47 14 88q0 50 -31 80t-83 30q-51 0 -113 -27q-61 -27 -115 -75q-53 -45 -92 -107l-16 13q60 92 157 155q95 60 179 60q65 0 100 -34q35 -35 35 -97q0 -34 -10 -70v-4l4 2 q30 15 96 41l6 2l6 8q92 149 211 256l4 4q-27 59 -93 92t-161 33q-183 0 -377 -102q-193 -102 -318 -261q-126 -159 -126 -311q0 -91 53 -147q52 -55 142 -55q53 0 90 10zM760 319q-46 -10 -90 -10q-99 0 -159 66t-60 176q0 114 70 238q69 125 186 219q114 97 279 157 q162 60 302 60q103 0 169 -31q67 -31 108 -100l6 4q71 59 141 96t113 37q27 0 45 -15t18 -38q0 -56 -76 -126q-78 -72 -215 -141l-6 -4q-10 -72 -48 -153q-39 -82 -96 -159q-58 -78 -130 -147t-158 -126l-6 -3l-2 -6l-29 -59l-30 -64q-79 -146 -127 -210l-25 -35l-8 -11 l10 11l39 35l57 51q18 14 64 57l78 74l28.5 26t28.5 27l68.5 67l71.5 73.5l78.5 82l129.5 137.5l168 181q140 153 315 317q99 91 179 150q79 56 143 83q65 27 119 27q46 0 71 -22t25 -62q0 -36 -20 -71l-19 10q17 29 17 59q0 66 -78 66q-100 0 -254 -115q-109 -79 -264 -231 l-29 -29l-31 -31l-32 -32l-33 -33l-93 -99l-172 -186q-199 -215 -321 -334q-15 -15 -113 -106q-83 -79 -112 -103q-26 -21 -56 -49q-15 -11 -26 -21q-4 -4 -9.5 -8t-9.5 -8l-53 -45l-41 -35q-3 -3 -14 -10l-11 15q75 75 138.5 178.5t115.5 234.5l7 19q-106 -58 -203 -58 q-57 0 -89 25q-34 24 -40 67z" />
<glyph unicode="W" horiz-adv-x="1917" d="M1532 465q7 7 9 8t5 4l37 31l66 55q61 49 166 152q33 33 61 71q23 31 41 69q16 32 16 52q0 31 -37 31q-42 0 -104 -52q-63 -51 -117 -130q-39 -58 -75 -132q-34 -66 -68 -159zM1581 1083l-4 -4q20 -51 20 -110q0 -19 -2 -37l7 4q119 59 192 126q74 68 74 114q0 34 -45 34 q-42 0 -110 -35q-66 -35 -132 -92zM1561 1063l-5 -4l-16 -17q-74 -74 -139 -184q-6 -12 -10 -16l14 4q83 34 160 72l8 4q4 36 4 51q0 51 -16 90zM780 348q134 42 245 148q112 106 163 233l-4 -2l-68 -35q-74 -38 -131.5 -80.5t-102.5 -88.5q-90 -91 -102 -175zM780 326 q9 -80 103 -80q87 0 174 45l20 10q19 8 25 10l8 25l8 22q87 212 109 258q34 77 86 166l2 4l-6 -4q-32 -11 -84 -34l-8 -5q-37 -93 -105 -181q-69 -87 -153 -147q-81 -60 -179 -89zM1569 897l-6 -2q-33 -15 -53 -26q-18 -9 -19 -9l-80 -33l-22 -10q-6 -2 -9.5 -3.5t-4 -2 t-1.5 -0.5l-6 -10l-39 -84q-57 -115 -121 -268l-18 -48l-19 -47q55 38 99 76.5t86 83.5q82 88 140 191q55 98 73 192zM756 340l2 2q5 65 59 137q54 71 156 146t221 129l4 4l2 6q14 42 14 76q0 23 -8 47q-7 23 -21 36q-14 14 -35 21q-24 8 -46 8q-88 0 -176 -55 q-86 -54 -146 -149l-18 8q58 95 153 157q95 60 187 60q63 0 97 -36q34 -35 34 -99q0 -38 -10 -68l6 2q37 18 96 41h4l4 8q92 150 213 260l4 2q-63 121 -254 121q-92 0 -192 -28t-198 -80q-101 -54 -183 -125q-114 -94 -183 -213q-69 -118 -69 -217t53 -155t148 -56 q39 0 82 10zM760 319q-39 -10 -86 -10q-105 0 -163 64q-60 63 -60 174q0 123 72 246q36 62 83.5 117t109.5 104q121 97 272 154q152 57 306 57q199 0 275 -127q58 51 136 92q77 39 120 39q63 0 63 -53q0 -57 -86 -134q-36 -33 -81 -62q-45 -31 -122 -69l-6 -2 q-17 -104 -79 -215q-63 -112 -158 -212q-93 -99 -201 -163l-2 -6q-37 -84 -96 -186q-58 -102 -99 -150q3 2 43 39l16.5 14l18 15t11.5 10l98 86l108 97l95 77q64 58 104 84q26 70 57.5 134t78.5 138q82 128 168 208q85 79 147 79q51 0 51 -51q0 -79 -123 -205 q-102 -104 -305 -266l-10 -6q-2 -5 -4 -9t-3 -7q0 -1 -1.5 -2.5t-2.5 -3.5l-26 -76q-51 -124 -105 -234q-19 -40 -69 -114q-13 -14 -19 -25l-6 -8q4 3 47 39q9 9 15 14q8 8 24 21l119 105l106 103l322 334q402 434 588 588q65 56 132 100q63 41 115 60q50 18 93 18 q46 0 74 -23q26 -24 26 -63q0 -32 -21 -73l-20 10q16 31 16 61q0 66 -80 66q-103 0 -276 -135q-41 -32 -92 -77l-107 -98l-138.5 -137.5l-129.5 -134.5l-168 -178l-66.5 -70l-97.5 -103l-155 -161l-90 -86l-136 -123q-4 -3 -16 -15q-5 -5 -12 -11t-19 -15q-36 -33 -49 -43 l-47 -39l-47 -43l-10 -6l-11 10q83 86 131 181q51 92 99 217q28 82 41 125l-17 -15l-67 -57l-94 -78q-37 -30 -107 -92l-98 -86q-85 -76 -109 -100q-61 -56 -59 -56l-31 -35q-4 -4 -10 -12l-14 15l10 10q77 85 132 175q55 91 101 212l6 16l7 17q-62 -30 -110 -43 q-43 -13 -101 -13q-49 0 -80 25q-32 24 -39 67z" />
<glyph unicode="X" horiz-adv-x="1542" d="M496 242q33 -9 53 -9q103 0 238 72q135 73 270 199q148 137 215 270q39 77 39 133q0 70 -72 70q-80 0 -201 -76t-247 -205q-208 -212 -295 -454zM506 -63l10 4q139 67 270 163q218 164 443 365l100 92l20 18q20 18 25 23l45 39q5 11 8 21q23 43 54 125q33 86 45 126 q18 65 18 127q0 84 -49 124t-156 40q-112 0 -249 -51q-141 -53 -269 -145q-200 -140 -315 -310q-50 -73 -81 -154q-32 -84 -32 -141q0 -53 24 -95q24 -43 60 -58q46 130 136 260q90 132 204 243q54 53 111.5 98.5t115.5 79.5q113 66 199 66q42 0 65 -23t23 -67 q0 -102 -94 -229q-89 -126 -214 -233q-128 -110 -251 -169q-127 -63 -223 -63q-32 0 -62 10l-2 -8q-20 -72 -20 -135q0 -94 41 -143zM526 -78l-4 -2q40 -31 107 -31q73 0 149 36q76 37 174 118q92 77 152 160l14 -10q-48 -79 -176 -183q-94 -74 -167 -107q-74 -34 -148 -34 q-83 0 -125 43q-118 -51 -226 -51q-74 0 -121 36q-46 36 -46 93q0 74 79 131q80 58 189 59l-2 -18q-75 -4 -129 -29q-56 -23 -86 -62q-33 -40 -33 -81q0 -50 43 -80q43 -31 113 -31q90 0 204 49q-41 58 -41 148q0 81 23 153q-96 47 -96 185q0 68 27 147q27 80 73 154 q47 74 111 141q74 77 170 146q93 67 197 117q96 47 201 77q99 27 187 27q121 0 179 -51q57 -52 57 -160q0 -41 -17 -123q-19 -84 -40 -133l-19 -47l-2 -7l4 5q3 3 7.5 7l12.5 11q4 3 40 37l106 96q9 7 16.5 14t13.5 12q9 9 19.5 17.5t30.5 26.5l134 116.5t81 65.5 q254 195 399 195q49 0 80 -23q29 -24 29 -65q0 -39 -41 -89l-14 15q34 43 34 71q0 32 -22 51t-62 19q-123 0 -323 -141l-97.5 -74.5l-136 -114l-129.5 -112.5q-26 -25 -62 -56q-36 -33 -46 -43q-73 -61 -90 -81l-4 -5l-5 -10q-2 -3 -4 -7t-4 -7q-12 -28 -59 -129 q-1 -2 -3.5 -8l-3.5 -8.5l-6 -14.5l-18 -39q-10 -22 -12 -30q-1 -2 -3 -6.5t-5 -10.5q-51 -109 -82 -188q-31 -81 -31 -125q0 -51 39 -51q28 0 65 28q33 25 113 105q29 26 94 102q14 14 45 53l15 -12q-82 -97 -150 -168q-71 -71 -113 -103q-38 -28 -71 -28q-31 0 -49 27 q-19 26 -19 73q0 98 103 314l51 110l18 37l17 37l-4 -4l-60 -55l-96 -86l-135 -119l-156 -130q-86 -71 -164 -126q-76 -54 -135 -90q-60 -36 -123 -66z" />
<glyph unicode="Y" horiz-adv-x="1679" d="M1270 741q57 93 57 164q0 74 -74 74q-62 0 -142 -36q-84 -39 -164 -104q-83 -67 -161 -157q-94 -105 -152 -222q-59 -120 -71 -222q102 1 230 66q129 65 249 172q124 110 218 247q-14 2 -21 2q-80 0 -172 -56q-91 -57 -147 -143l-15 11q30 53 88 102q57 48 122 77 q65 27 124 27q13 0 31 -2zM1518 332l-9 -15l13 11q45 42 119 121l139 159q70 86 104 131q35 48 74 109q36 57 55 94q17 37 17 51q0 19 -19 19q-20 0 -59 -39q-101 -104 -223 -284q-61 -90 -112 -176.5t-99 -180.5zM1182 -207q-23 0 -95 8q-104 12 -165 17q-123 8 -154 8 q-157 0 -294 -41q-136 -41 -212 -111q-78 -71 -78 -155q0 -51 33 -88q34 -40 93 -59q59 -21 139 -21q232 0 454 168q81 62 154 135q80 78 125 139zM1358 588v4l-45 -49l-47 -49l-103 -111q-66 -69 -99 -113q-32 -42 -52 -84q-27 -54 -27 -86q0 -37 21 -63q96 62 178 159 q81 95 128 199q46 102 46 193zM1364 664l4 4q118 124 163 205q44 82 44 163q0 84 -53 128q-52 42 -160 42q-112 0 -229 -40t-238 -116q-61 -39 -116 -83.5t-103 -92.5q-78 -76 -140 -164q-58 -84 -90 -162q-32 -79 -32 -142q0 -52 13 -84q14 -35 41 -54q31 -21 73 -28v10 q11 74 44 153q34 84 85 161q52 81 118 153q73 82 160 148q87 65 161 97q81 35 144 35q95 0 95 -90q0 -34 -15 -81q-17 -47 -43 -91q50 -17 74 -71zM983 23l6 4q-26 26 -26 79q0 47 19 98t54 103q12 19 43 59q8 11 46 53q21 23 114 118l98 98q8 8 9 8l4 4q-21 56 -70 72 l-4 -4l-8 -15q-43 -63 -112 -138q-66 -74 -132 -128q-250 -214 -465 -217v-4l-2 -6v-25q0 -108 54 -170q52 -61 149 -61q103 0 223 72zM1006 12l-7 -4q-124 -78 -239 -78q-108 0 -165 67q-58 67 -58 185v33l2 4q-70 7 -109 57t-39 134q0 94 42 194q41 98 119 195 q78 96 185 178q100 77 206 132q111 56 218 87q106 31 197 31q116 0 178 -50q61 -49 61 -145q0 -87 -56 -197q-57 -109 -159 -219l-4 -4v-22q0 -91 -46 -198q-46 -106 -128 -205q-82 -98 -178 -162q15 -7 35 -7q53 0 157 65t218 167l16 12l5 5l9 9l2 5q72 143 174 307 q51 83 115 172q62 88 121 158q99 112 137 112q15 0 24 -9q9 -10 9 -26q0 -61 -115 -221q-48 -70 -137 -178q-88 -105 -147 -164l-72 -72q-8 -10 -47 -47q-47 -47 -48 -49.5t-4 -7.5q-5 -10 -8 -17q-7 -12 -11 -23q-7 -17 -19 -36q-29 -57 -56 -117q-59 -126 -73 -154 q-23 -45 -56 -95l-4 -7h25q234 0 299 113l18 -8q-62 -125 -313 -125h-35h-6q-85 -127 -220 -233t-285 -164q-151 -60 -285 -60q-87 0 -152 24q-64 22 -99 66q-34 43 -34 101q0 66 47 127q47 60 132 105q86 45 195 69q110 24 234 24q19 0 38.5 -1t54.5 -3.5t81 -5.5 q10 0 22 -1.5t22 -2.5q6 -1 12.5 -1.5l13.5 -1t16 -1.5q56 -6 60 -6q20 -2 29 -3t17 -2q4 0 11 -0.5t11 -1.5q8 -1 20 -1q4 0 9 -0.5t7 -1.5q49 59 113 166t131 245l2 6q-8 -8 -12 -11q-3 -3 -6.5 -5.5t-6.5 -5.5q-108 -97 -204 -152q-97 -57 -152 -57q-29 0 -55 14z" />
<glyph unicode="Z" horiz-adv-x="1735" d="M735 436v-24q128 17 305 141q122 87 215 209q78 107 78 186q0 76 -80 76q-81 0 -182 -61q-100 -59 -188 -160q-73 -82 -110 -176q-38 -96 -38 -191zM905 178l-4 -4q68 -27 164 -27q94 0 188 27q95 27 183 81q90 55 161 126q111 111 164 218q54 108 54 220q0 106 -56 168 l-6 -4q-44 -36 -143 -129q-161 -159 -178 -178l-140 -144l-142 -142q-70 -67 -133 -121q-63 -55 -112 -91zM1761 1014l4 4q76 60 203 141l14 8q-96 -26 -206 -26q-82 0 -187 12l-100 14q-10 2 -25 3q-16 2 -36 3q-19 2 -48 3q-73 6 -118 6q-287 0 -504 -164 q-83 -64 -139 -133q-59 -73 -89 -147q-30 -75 -30 -150q0 -87 49 -133q50 -47 139 -47h25v24q0 108 46 213q44 105 126 191q71 71 128 112q65 47 126 72q62 24 116 24q48 0 74 -25q27 -25 27 -71q0 -90 -91 -209q-90 -119 -231 -215q-88 -61 -159 -93q-70 -33 -136 -42 q9 -54 27 -91q16 -36 46 -66q26 -26 69 -50l4 4q71 55 149 128q69 66 242 245q153 159 274 272q152 134 191 166l4 4q-45 39 -119 39q-92 0 -168 -61l-10 16q87 66 176 66q78 0 137 -47zM1780 1004l-6 -5q28 -28 45 -80q16 -51 16 -108q0 -120 -66 -243q-33 -61 -79 -118 t-100 -104q-113 -101 -250 -159q-139 -60 -275 -60q-110 0 -184 33l-90 -64q-51 -35 -66 -41q60 11 106 11q147 0 314 -95l84 -47q60 -34 130 -54q69 -20 124 -20q108 0 176 74l14 -10q-27 -43 -94 -70q-66 -28 -147 -28q-123 0 -246 78l-80 51q-86 53 -154 78 q-70 24 -135 24q-46 0 -112 -17q-66 -18 -121 -46l-9 18q69 30 145 75q82 48 140 93q-59 33 -95 90q-37 54 -46 127h-15q-3 0 -7 -0.5t-7 -1.5q-102 0 -158 54q-55 54 -55 153q0 86 42 176q40 87 118 170t178 143q62 38 123 63q69 29 124 43q64 17 136 27q72 9 145 9 q115 0 256 -25q117 -20 154 -24q37 -5 96 -5q66 0 124 14q54 14 126 48l10 4l9 -18l-15 -7q-82 -39 -155.5 -84t-135.5 -94z" />
<glyph unicode="[" horiz-adv-x="682" d="M174 -211h-264l1227 1645h262l-17 -23h-190l-1192 -1599h190z" />
<glyph unicode="\" d="M719 1434h20l-90 -1645h-22z" />
<glyph unicode="]" horiz-adv-x="682" d="M977 1434h262l-1225 -1645h-264l19 23h190l1192 1599h-190z" />
<glyph unicode="^" horiz-adv-x="451" d="M506 309l14 -10q-10 -10 -10 -12l-64 -78q-72 -88 -159 -168q-53 -47 -88 -47q-41 0 -41 51t37 115q-11 -10 -13 -10l-41 -44q-51 -56 -95 -84q-47 -30 -81 -30q-26 0 -40 17q-15 17 -15 44q0 40 28 90q26 49 95 138l203 262h51l-248 -324q-7 -8 -19 -28q-13 -19 -24 -33 q-62 -89 -62 -113q0 -12 8 -23q7 -10 21 -10q54 0 148 90q104 102 206 240l72 94q6 9 19 26q3 3 5.5 7t9.5 13t9 12l13 17.5t6 8.5q3 4 7 10q1 2 2.5 4l6.5 9h53q-4 -7 -6.5 -10.5t-3.5 -4.5q-4 -4 -12 -17q-4 -6 -35 -46q-16 -16 -33 -41l-120 -161q-67 -91 -93 -132 q-35 -53 -35 -88q0 -27 19 -27q27 0 73 43q75 63 158 164l62 74z" />
<glyph unicode="_" horiz-adv-x="1024" d="M0 -322v48h1024v-48h-1024z" />
<glyph unicode="`" horiz-adv-x="467" d="M330 692l-8 -14l-123 57q-41 21 -53 33q-11 9 -11 23q0 10 8 16t19 6q24 0 74 -41z" />
<glyph unicode="a" horiz-adv-x="481" d="M-57 53q0 -37 30 -37q45 0 151 93q108 94 204 217q106 134 106 180q0 29 -24 29q-36 0 -119 -64q-84 -63 -170 -154q-77 -80 -125 -152q-49 -75 -53 -112zM537 311l14 -12l-152 -172q-66 -69 -102 -95q-37 -28 -66 -28q-20 0 -34 14q-13 13 -13 35q0 46 54 140l-13 -11 q-55 -59 -135 -127q-77 -59 -117 -59q-25 0 -40 18q-15 17 -15 45q0 50 37 117q36 66 102 135q84 89 198 166q110 76 157 76q43 0 43 -45q0 -7 -6 -27l45 62h51q-8 -13 -8 -11l-31 -40l-35 -48l-25 -32l-176 -244q-61 -83 -61 -117q0 -28 24 -28q30 0 89 53q87 81 202 221z " />
<glyph unicode="b" horiz-adv-x="389" d="M197 227v-14q71 76 140 176q69 101 69 127q0 14 -13 14q-31 0 -102 -92q-94 -124 -94 -211zM532 905l-258 -354q108 89 224 205q112 112 202 223q55 67 92 127q35 59 35 82q0 6 -5 14q-4 6 -13 4q-26 -2 -58 -31q-33 -29 -102 -116l-53 -68l-37 -49zM444 311l15 -12 q-46 -57 -81 -90q-35 -34 -67 -49q-31 -15 -63 -15q-37 0 -58 29l-6 -6l-17.5 -17.5l-17.5 -17.5q-11 -12 -38 -39q-48 -43 -91 -74q-34 -20 -61 -20q-47 0 -47 49q0 56 100 201l37 55l35 49l291 398l131 176q68 88 121 149q124 148 184 148q37 0 37 -35q0 -42 -64 -134 q-62 -91 -176 -214q-107 -114 -203 -202t-167 -138l-222 -309q-79 -104 -79 -146q0 -27 24 -27q33 0 115 70q72 65 104 103q-4 12 -4 32q0 82 78 197q89 129 141 129q33 0 33 -31q0 -21 -16 -52q-18 -34 -60 -95q-61 -92 -143 -180l-4 -5q13 -22 43 -22q43 0 87 34 q44 32 109 111z" />
<glyph unicode="c" horiz-adv-x="358" d="M414 311l14 -12l-12 -14q-106 -129 -210 -207q-105 -78 -175 -78q-80 0 -80 90q0 70 53 153q53 84 152 169q74 68 138 105q65 38 99 38q35 0 35 -37q0 -27 -22 -55q-19 -25 -39 -25q-19 0 -19 17q0 15 19 28q34 25 34 41q0 13 -12 13q-26 0 -90 -46q-61 -44 -123 -106 q-52 -52 -95 -105q-47 -57 -71 -102q-33 -60 -33 -102q0 -23 16 -39q15 -17 38 -17q66 0 169 78q102 77 214 213z" />
<glyph unicode="d" horiz-adv-x="426" d="M-57 49q0 -29 24 -29q29 0 97 49q71 52 151 132q98 95 160 182q59 85 59 125q0 24 -20 24q-40 0 -135 -74q-94 -73 -189 -177q-147 -160 -147 -232zM338 756h-21q13 100 89 215q49 72 106 124q55 52 118 86q58 31 105 31q88 0 88 -98q0 -157 -176 -432 q-46 -73 -100.5 -147t-111 -140t-114 -126t-126.5 -122q-163 -147 -232 -147q-23 0 -33 16q-12 15 -12 41q0 53 53 141q51 83 133 162q83 79 175 136t135 57t43 -41q0 -16 -4 -31l6 11l53 67q287 385 287 553q0 78 -66 78q-54 0 -115 -37t-121 -103q-61 -67 -101 -141 q-41 -75 -58 -153z" />
<glyph unicode="e" horiz-adv-x="393" d="M106 303q77 24 153 66q74 39 124 83q47 41 47 66q0 19 -22 19q-18 0 -50 -16q-29 -15 -61 -38q-59 -43 -109 -91t-82 -89zM451 311l12 -12l-8 -12q-107 -128 -219 -209q-112 -80 -181 -80q-42 0 -68 30q-26 29 -26 78q0 148 219 326q64 53 131 89q68 36 107 36 q45 0 45 -35q0 -32 -51 -79q-53 -47 -136 -90q-90 -46 -178 -70l-10 -2q-94 -125 -94 -195q0 -66 63 -66q41 0 109 38q64 36 144 106q77 68 141 147z" />
<glyph unicode="f" horiz-adv-x="406" d="M569 795l-182 -252q90 73 177 157t177 183q138 153 189 247q22 41 22 56q0 20 -18 20q-33 0 -105 -78q-45 -50 -90 -107.5l-127 -168.5zM-535 -653l623 846q-41 36 -41 81q0 29 14 49q13 19 31 19q12 0 12 -12q0 -7 -8 -23q-12 -21 -12 -43q0 -24 18 -51l426 582 q109 149 194 250q74 90 130 138q53 44 84 44q39 0 39 -37q0 -83 -217 -324q-110 -120 -221 -221q-112 -103 -191 -158l-217 -297q30 -14 72 -14q72 0 135 31q64 32 113 90l12 14l14 -12q-37 -43 -63 -66q-96 -75 -211 -75q-51 0 -84 16l-602 -827h-50z" />
<glyph unicode="g" horiz-adv-x="459" d="M6 -178l10 14q-5 -2 -10 -5t-15 -8l-69 -42l-100 -62q-159 -97 -239 -173q-81 -77 -81 -130q0 -43 41 -43q52 0 119 46q65 43 143 129q72 80 148 194zM78 -123l-4 -2q-54 -101 -121 -197q-59 -90 -135 -164q-75 -74 -150 -118q-73 -43 -125 -43q-29 0 -45 16t-16 45 q0 52 53 113q37 41 100 89q64 48 181 120l100 61q4 3 17 11.5t17 10.5l32 21q29 18 45 27l12 6q41 77 96 164q21 33 25 40q18 31 20 34q3 4 16 26l8.5 14t4.5 9l8 12l-10 -10q-99 -93 -170 -135q-44 -29 -70 -29q-55 0 -55 61q0 48 49 127q49 82 117 148q95 93 209 157 q115 64 186 64q33 0 49 -13q17 -14 17 -40q0 -24 -17 -63q-18 -38 -47 -70l-18 12q59 65 59 117q0 37 -43 37q-73 0 -186 -77q-114 -79 -224 -204q-54 -65 -86 -120q-34 -58 -34 -85q0 -31 22 -31q30 0 93 45q61 42 132 113l46 45q14 14 36 39q11 14 11 16l18 27 q33 56 72 98q36 39 55 39q8 0 8 -10q0 -21 -45 -72q-69 -78 -106 -112q-14 -17 -11 -17l-32 -53l-45 -80l-43 -71l-45 -84l-17 -29l-2 -6l6 4q104 70 200 161q36 34 99 103t109 125l10 12l14 -12l-10 -12q-55 -68 -111 -130q-51 -57 -108 -111q-64 -59 -112 -95 q-62 -45 -109 -74z" />
<glyph unicode="h" horiz-adv-x="461" d="M336 627q39 27 139 112q77 66 129 115l102 100q39 40 91 99q77 89 77 123q0 10 -6 16t-16 6q-60 0 -240 -213q-72 -84 -176 -221q-75 -97 -100 -137zM-127 0h-47l412 555l61 82q59 83 119 156q55 69 137 163q225 261 299 261q19 0 30 -11t11 -28q0 -42 -70 -121 q-103 -124 -282 -285q-79 -71 -118 -101q-50 -39 -112 -81l-14 -10l-129 -177l-23 -28q56 56 121 104q89 68 138 68q55 0 55 -55q0 -40 -27 -84q-27 -43 -98 -119l-64.5 -71l-38.5 -42q-67 -76 -80 -95q-14 -22 -14 -42q0 -11 9 -20t20 -9q48 0 156 99q105 95 188 196l4 6 l14 -12l-4 -6q-104 -125 -192 -203q-113 -98 -166 -98q-55 0 -55 53q0 39 27 82q30 48 100 121q82 84 145 160q49 59 49 92q0 26 -31 26q-48 0 -170 -101q-63 -54 -110.5 -103t-93.5 -109l-82 -113q-20 -24 -39 -51l-18 -24.5z" />
<glyph unicode="i" horiz-adv-x="219" d="M432 748q-1 -21 -18 -39q-16 -19 -33 -19q-21 0 -21 19q0 22 18 41q17 20 34 20q20 0 20 -22zM274 309l13 -10q-13 -15 -27 -33q-18 -23 -49 -57q-108 -118 -150 -152q-59 -53 -100 -53q-47 0 -47 47q0 36 37 101q31 55 61 99l148 202q37 48 61 82l6 8l52 2l-9 -10 q-5 -6 -80 -109l-36 -48l-33 -42q-184 -241 -184 -289q0 -22 24 -22q51 0 160 114q30 30 115 127q16 18 17 19q2 2 10 12q8 8 11 12z" />
<glyph unicode="j" horiz-adv-x="256" d="M-203 -61q-37 -21 -61 -39l-72 -47q-152 -104 -225 -162q-68 -54 -137 -131q-78 -86 -78 -142q0 -41 43 -41q47 0 114 46q69 47 143 129q74 81 138 182l51 78l43 63l31 49q1 1 2 3t3 4q0 1 5 8zM453 748q-1 -21 -18 -39q-16 -19 -32 -19q-20 0 -20 19t17 41q17 20 34 20 q9 0 15 -6q5 -9 4 -16zM139 496l-16 10q44 62 101 102q56 39 102 39q55 0 55 -57q0 -46 -41 -119q-39 -71 -117 -158q-81 -90 -175 -175q-91 -82 -187 -152l-15 -11q-8 -13 -8 -14l-26 -43l-31 -59q-52 -98 -124 -199q-68 -93 -138 -160q-74 -68 -139 -105q-67 -38 -113 -38 q-32 0 -48 18q-18 16 -18 47q0 72 133 205q134 126 320 244l76 47l84 57q7 7 12 9q1 2 11 17q3 6 7 12.5t9 13.5l34 51l62 86q69 98 129 174q120 155 145 184q32 33 41 33q8 0 8 -8q0 -16 -51 -84q-70 -90 -119 -133q-20 -22 -38 -44t-76 -100q-70 -95 -109 -157l-8 -15 l12 11l64 51q89 72 173 159q88 91 138 154q47 61 73 113q29 58 29 88q0 37 -36 37q-39 0 -89 -37q-53 -38 -96 -94z" />
<glyph unicode="k" horiz-adv-x="457" d="M539 905l-258 -354q109 90 221 202q40 40 101.5 107l105.5 119q55 69 89 126q36 59 36 83q0 7 -5 14q-6 6 -14 4q-23 -1 -56 -31q-30 -28 -102 -116l-53 -68q-6 -6 -39 -49l-6.5 -9.5t-3.5 -5.5t-3 -4q-1 -1 -2.5 -3.5t-4.5 -6.5zM512 311l14 -12l-12 -14 q-126 -153 -197 -211q-93 -78 -151 -78q-22 0 -36 14q-13 13 -13 33q0 28 18 58q17 31 60 77q53 64 53 86q0 23 -22 36t-64 13q-11 0 -29 -2l2 19q49 2 80 18t70 58l41 43q95 104 155 104q43 0 43 -39q0 -24 -15 -42q-16 -19 -34 -19t-18 16q0 11 18 23q23 20 23 28 q0 15 -17 15q-35 0 -100 -68l-37 -41q-67 -76 -127 -98q59 -18 59 -76q0 -19 -11 -43q-14 -26 -40 -59q-57 -70 -66 -82q-12 -16 -12 -29q0 -23 23 -23q53 0 147 82q66 58 183 197zM-127 0h-47l555 752l65 90q50 68 125 160l101 120q54 59 87 81q31 22 58 22q37 0 37 -35 q0 -41 -65 -135q-62 -90 -175 -213q-107 -117 -196 -197q-97 -88 -174 -143z" />
<glyph unicode="l" horiz-adv-x="215" d="M389 702l-51 -67q84 66 219 192q297 285 297 351q0 22 -20 22q-34 0 -105 -72q-48 -48 -147 -171q-98 -123 -148 -193l-30 -41q-10 -13 -15 -21zM270 311l15 -12l-13 -14q-77 -98 -136 -159q-65 -68 -104 -95q-43 -31 -73 -31q-47 0 -47 49q0 71 162 287l221 301l57 78 l62 82q160 216 297 350q72 72 125 72q38 0 38 -39q0 -33 -48 -96q-49 -64 -160 -175q-202 -201 -367 -331l-219 -302l-72 -98q-69 -94 -69 -131q0 -11 7 -18q6 -9 17 -9q35 0 107 66q41 41 99 105q56 63 91 106z" />
<glyph unicode="m" horiz-adv-x="879" d="M307 12l-8 -12h-53q6 6 9 11t7 9l103 138l100 137l78 111q53 76 53 102q0 20 -21 20q-27 0 -66 -24q-39 -23 -93 -74q-47 -47 -119 -131q-87 -102 -119 -145l-55 -72l-30 -42q-17 -23 -21 -28l-9 -12h-59l111 141l157 215q76 110 76 146q0 24 -26 24q-62 0 -218 -186 l-51 -61l-10 -11l-14 11q87 107 147 170q50 50 86 74q35 24 62 24q47 0 47 -51q0 -48 -45 -119l-17 -27q-1 -1 -2 -3.5t-6 -8.5l4 4l3 3l3 3l2 2l45 47q65 71 123 111q59 41 94 41q22 0 34 -13t12 -36q0 -21 -18 -62q-17 -39 -44 -76l-12 -18q0 -1 -2 -3t-2.5 -3t-1.5 -2 q8 8 10 8l63 70q38 39 78 68q39 29 79 48q39 17 65 17q25 0 41 -15t16 -40q0 -35 -33 -82q-31 -47 -121 -140q-102 -104 -141 -155q-37 -47 -37 -74t25 -27q58 0 176 115q27 25 137 141q24 26 35 41l14 -12q-89 -107 -176 -188q-126 -117 -188 -117q-54 0 -54 55q0 29 13 56 q13 26 42 61q22 26 113 123q102 106 136 151q26 40 26 62q0 24 -29 24q-33 0 -85 -31q-47 -28 -101 -79q-26 -26 -36 -37q-16 -16 -46 -49q-98 -112 -137 -162q-72 -86 -119 -156z" />
<glyph unicode="n" horiz-adv-x="643" d="M698 311l15 -12l-15 -16q-126 -151 -213 -222q-80 -65 -129 -65q-55 0 -55 57q0 56 96 162l148 160q78 84 78 125q0 13 -10 20q-11 8 -23 8q-54 0 -184 -116q-99 -89 -156 -160q-70 -87 -113 -148l-67 -94v0l-1 -1t-1.5 -2t-1.5 -2l-2 -2l-3 -3h-47l262 365q72 98 72 133 q0 16 -6 23q-7 7 -20 7q-22 0 -54 -23q-33 -25 -92 -87q-65 -70 -127 -144l-6 -6l-14 13l6 4q37 46 55 65q108 121 153 158q45 39 79 39q20 0 34 -14q13 -13 13 -35q0 -56 -60 -148q60 63 125 113q105 84 160 84q25 0 41 -16t16 -42q0 -63 -110 -184l-133 -145 q-76 -80 -76 -117q0 -27 26 -27q25 0 71 29q47 31 91 72q74 69 166 180z" />
<glyph unicode="o" horiz-adv-x="432" d="M180 137q-24 19 -34 38q-9 18 -9 44q0 38 20 89q20 50 50 89l26 35q4 4 6 7q1 2 2.5 3.5t2.5 3.5l-8 -8q-99 -92 -156 -166q-121 -151 -121 -219q0 -15 9 -27t24 -12q35 0 123 68l42 35.5t23 19.5zM195 154q56 51 111 123q55 71 91 136q35 64 35 93q0 22 -22 22 q-33 0 -79 -31t-89 -83q-38 -47 -61 -100q-23 -54 -23 -93q0 -45 37 -67zM203 129l-4 -2q-83 -76 -128 -104q-47 -29 -79 -29q-28 0 -44 19q-18 18 -18 50q0 69 53 154q53 83 152 170q86 76 164 119q77 43 121 43q47 0 47 -47q0 -49 -73 -153q-73 -105 -169 -199l-4 -5h19 q109 0 241 156l6 10l15 -12q-8 -12 -13 -14q-69 -84 -127 -121t-120 -37q-21 0 -39 2z" />
<glyph unicode="p" horiz-adv-x="467" d="M-115 10l-485 -663h-53l1030 1403h47l-309 -424l22 22q113 113 174 156t107 43q27 0 43 -16t16 -44q0 -24 -9 -45q-8 -20 -41 -61q-24 -29 -79 -90l-61 -68l-88 -100q-27 -34 -35 -49q-10 -17 -10 -31q0 -10 9 -19q7 -10 19 -10q44 0 135 79q95 82 193 204l12 14l15 -12 l-11 -12q-115 -142 -204 -216q-88 -75 -140 -75q-55 0 -55 57q0 39 39 91q34 48 174 200q63 69 88 102q21 30 21 54q0 26 -31 26q-59 0 -172 -100q-80 -71 -151 -148.5t-134 -162.5z" />
<glyph unicode="q" horiz-adv-x="463" d="M-84 -281l78 76l61 62l148 147q89 90 126 146q36 53 36 98q0 30 -17 47q-6 -8 -8 -10l-76 -99l-90 -120l-92 -123q-5 -6 -9.5 -12.5l-8.5 -12.5l-27 -37q-25 -30 -31 -39q-57 -74 -90 -123zM401 432h52q0 -1 -2 -3t-3 -4l-2.5 -2.5l-2.5 -2.5t-1 -2l-75 -99q0 -3 -7 -10 q25 -18 25 -57q0 -68 -74 -160q-24 -30 -82 -88l-8.5 -8.5l-9.5 -9.5l-12 -12l-13 -13q-40 -40 -45 -43l-78 -78l-61 -61l-85 -87q-25 -27 -89 -102l-96 -116l-88 -117l-9 -10h-49l15 18q16 22 20 27t25 33q43 58 52 69l48 62l20 26.5l13 18t14.5 19.5l12.5 16l38 51 q26 32 39 50q10 15 27 36l133 178l129 172q2 3 3.5 5.5t3.5 5.5t3.5 5.5t3.5 5.5l-18 -16q-149 -131 -219 -131q-45 0 -45 53q0 62 61 153q63 92 164 177q91 76 179 119q87 43 149 43q38 0 60 -19t22 -53q0 -57 -60 -131l-16 14q55 73 55 117q0 51 -61 51q-38 0 -95 -26 q-58 -27 -118 -72q-61 -45 -131 -115q-89 -89 -136 -158q-49 -70 -49 -108q0 -10 7 -17q6 -8 14 -8q31 0 99 44q70 46 135 107q72 69 122 134q-50 -3 -102 -35q-51 -33 -88 -88l-13 15q18 30 58 63q39 31 78 47q42 17 75 17h9l8 10q39 50 71 100z" />
<glyph unicode="r" horiz-adv-x="461" d="M516 311l14 -12l-22 -27q-78 -100 -150 -100q-26 0 -41 18q-16 17 -16 46q0 42 37 104q-32 -25 -84 -80q-62 -65 -127 -154l-39 -51q-12 -15 -17.5 -22.5t-8.5 -12.5q-1 -3 -4.5 -8l-8.5 -12h-53l8 10q1 2 15 19l36 47l43 59l78 103q57 71 98 129q41 57 58 87 q14 26 14 44q0 24 -24 24t-58 -23q-34 -24 -87 -78q-56 -59 -128 -147l-6 -6l-14 13l6 6q60 74 104 123t78 78q62 55 109 55q43 0 43 -45q0 -15 -6 -32q-5 -11 -33 -67q-35 -63 -58 -92q82 72 109 90q22 36 86 103q78 78 98 78q8 0 8 -11q0 -21 -55 -76q-52 -53 -127 -106 q-3 -6 -5 -8.5t-3 -3.5q-61 -88 -61 -137q0 -43 38 -43q56 0 138 94l10 14q2 2 8 10z" />
<glyph unicode="s" horiz-adv-x="317" d="M109 344l-11 -12q-2 -4 -3 -5t-2 -3q-2 -4 -3 -5l-29 -32l-28 -33q-4 -4 -10 -12l-15 12l10 12q19 21 27 31q7 9 14 16q24 26 35 41q-14 2 -20 2q-57 0 -119 -71q-39 -46 -59 -93q-21 -49 -21 -92q0 -84 70 -84q46 0 102 35q52 33 88 88q34 47 58 129q17 72 28 123 q11 61 37 135l-137 -168q14 -17 14 -47q0 -63 -41 -128q-40 -66 -104 -105l-8 14q58 39 97 100q38 61 38 117q0 17 -8 35zM106 369l181 221q35 71 82 133q44 57 63 57q8 0 8 -10q0 -15 -45 -77t-100 -118v-4q-1 -1 -1 -2t-1 -2q-15 -43 -19 -58q-3 -13 -6 -48l-6 -78 q-10 -149 -104 -262q-51 -60 -103 -92q-54 -33 -104 -33q-96 0 -96 106q0 55 33 116q32 63 83 112q53 47 105 47q12 0 30 -8z" />
<glyph unicode="t" horiz-adv-x="256" d="M535 903l-203 -280h170l-13 -19h-170l-235 -323l-47 -66q-49 -68 -71 -106q-19 -34 -19 -56q0 -35 30 -35q26 0 73 32q48 33 103 86q57 56 111 120l39 45l8 10l13 -12l-9 -10q-71 -86 -97 -115q-24 -27 -62 -63q-119 -113 -179 -113q-26 0 -40 17q-15 17 -15 44 q0 72 88 191l41 53l219 301h-108l12 19h109l206 282z" />
<glyph unicode="u" horiz-adv-x="629" d="M684 311l14 -12q-9 -9 -55 -68q-49 -61 -88 -102q-42 -44 -86 -80q-58 -49 -90 -49q-45 0 -45 47q0 60 55 148l-10 -13q-68 -78 -145 -133q-76 -53 -121 -53q-26 0 -43 18q-17 17 -17 45q0 41 35 94q34 51 123 142l72 74q4 5 10.5 12l40.5 45q32 35 44 52q9 14 9 30 q0 24 -33 24q-59 0 -170 -108q-74 -74 -131 -145l-14 12q76 95 151 164q106 98 172 98q27 0 44 -14q16 -13 16 -37q0 -35 -43 -90q-27 -35 -141 -154q-94 -98 -122 -134q-34 -43 -34 -73q0 -35 35 -35q36 0 109 53q71 53 153 144l65 75l101 122q65 80 100 133h53 q-8 -8 -10 -13l-65 -88l-84 -108q-105 -134 -145 -197q-36 -58 -36 -92q0 -27 19 -27q28 0 96 62q56 50 86 86q19 19 72 82l49 57z" />
<glyph unicode="v" horiz-adv-x="584" d="M373 178q95 100 164 211q53 89 53 113q0 25 -17 22q-37 0 -116 -112q-86 -122 -86 -209q1 -1 1.5 -4t0.5 -6v-15zM371 145q-64 -64 -133 -106q-68 -43 -111 -43q-26 0 -43 20q-16 19 -16 52q0 43 38 102q35 55 130 156q68 74 97 115q27 39 27 63q0 22 -24 22 q-38 0 -105 -58t-176 -185l-12 -15l-14 13l12 14q60 73 102 117.5t80 77.5q68 57 117 57q47 0 47 -51q0 -64 -121 -201l-63 -72q-62 -73 -83 -106q-24 -37 -24 -66q0 -35 31 -35q37 0 110 48q72 46 121 102q-8 18 -8 37q0 54 33 124q33 69 88 136q64 82 107 82q34 0 34 -39 q0 -15 -8 -36q-6 -15 -31 -62q-68 -120 -184 -242l-4 -6q15 -15 35 -15q41 0 93 38q51 38 116 116l10 12l14 -12q-1 -1 -1.5 -2t-1.5 -2q-3 -3 -3 -4l-33 -39q-44 -55 -100 -92q-55 -35 -94 -35q-26 0 -49 20z" />
<glyph unicode="w" horiz-adv-x="842" d="M639 182q75 78 147 188q70 106 70 142q0 16 -14 16q-28 0 -72 -47q-45 -49 -86 -123q-49 -82 -49 -149q0 -15 4 -27zM633 150l-4 -5q-154 -147 -236 -147q-25 0 -39 14t-14 39q0 56 61 150q-80 -84 -161 -144q-84 -63 -136 -63q-24 0 -39 17q-16 16 -16 42q0 45 33 94 q31 48 119 138l75 80q64 64 85 92q22 29 22 47q0 24 -31 24q-37 0 -105 -48q-71 -50 -130 -124l-60 -71q-3 -6 -14 -17l-14 13l14 16q48 60 100 115t86 82q71 57 129 57q27 0 43 -14q15 -13 15 -39q0 -24 -15 -53q-19 -33 -50 -68q-20 -23 -118 -125q-92 -94 -122 -134 q-35 -47 -35 -75q0 -10 10 -19q9 -10 23 -10q36 0 124 64q76 57 169 151q94 96 141 160l51 72q39 57 45 69h55l-12 -16l-113 -152l-81 -111l-56 -77q-49 -75 -57 -89q-10 -19 -10 -38q0 -29 30 -29q36 0 103 45q69 46 125 105q-9 21 -9 45q0 76 80 201q39 61 82 99 q41 36 68 36q33 0 33 -39q0 -33 -54 -119q-56 -87 -82 -119q-32 -41 -82 -96l-8 -8v0l-1 -1l-1 -1l-2 -2q11 -14 37 -14q41 0 93 38q50 38 120 123l14 -12l-12 -14q-69 -85 -118 -120q-46 -34 -97 -34q-33 0 -51 19z" />
<glyph unicode="x" horiz-adv-x="504" d="M141 172l109 109l26 59q14 26 29 70l19 53q8 22 8 45q0 22 -21 22q-46 0 -178 -153l-4 -4q35 -17 35 -51q0 -35 -31 -75q-32 -41 -86 -79l-8 16q34 24 54 47q25 27 37 48q13 23 13 40q0 28 -28 35l-4 -6q-9 -7 -13 -14l-47 -58l-8 -8l-14 13l8 8q8 10 14 16.5t15 18.5 q12 15 15 18q4 4 5 6l4 4q-50 -11 -107 -57q-57 -45 -95 -108q-38 -62 -38 -109q0 -33 15 -47q13 -15 45 -15q36 0 96 39q59 39 135 117zM215 201l10 24l-63 -63q-83 -85 -146 -126q-61 -40 -108 -40q-37 0 -58 22q-22 21 -22 60q0 46 28 101q29 55 78 104q42 42 89 66 q46 24 86 26l4 6q71 85 124 131q47 39 76 39q22 0 34 -14q11 -16 11 -41q0 -37 -32 -138l-2 -6l41 43q87 87 141 124q53 36 90 36q39 0 39 -37q0 -34 -29 -61q-19 -21 -37 -21q-20 0 -20 21q0 18 24 30l17 11q18 9 18 20q0 7 -4 12q-5 5 -14 5q-28 0 -86 -43 q-16 -11 -68 -60q-58 -54 -61 -57l-74 -74l-49 -113q-45 -94 -45 -139q0 -31 31 -31q36 0 95 47q60 47 142 146l78 92l6 8l14 -12l-10 -10q-93 -115 -150 -176q-62 -65 -100 -90t-73 -25q-64 0 -64 68q0 48 39 135z" />
<glyph unicode="y" horiz-adv-x="602" d="M154 -164q-3 -2 -5.5 -3t-4.5 -2q-4 -2 -5 -3l-51 -31l-94 -57q-128 -78 -219 -150q-131 -101 -131 -172q0 -41 41 -41q51 0 124 52q76 53 148 135q42 46 137 180q25 35 60 92zM201 -135l-63 -113q-32 -57 -64 -101q-31 -44 -60 -75q-55 -61 -118 -114q-59 -50 -115 -77 q-55 -28 -94 -28q-66 0 -66 63q0 42 34 85q35 46 109 104q22 18 77.5 55l123.5 80q132 84 199 121l14 10l8 14q13 19 37 60l49 84l62 106l-17 -14q-129 -129 -208 -129q-58 0 -58 59q0 55 53 123q50 62 136 148q85 85 113 120q30 38 30 60t-33 22q-49 0 -118 -57 q-69 -56 -175 -186l-14 -17l-12 13q107 136 188 202q83 66 137 66q26 0 42 -13t16 -36q0 -38 -37 -84q-22 -29 -103 -115l-38.5 -41.5l-20.5 -21.5q-29 -31 -42 -46q-26 -28 -32 -34q-61 -70 -61 -111q0 -12 10 -22q9 -11 21 -11q43 0 128 67q84 66 160 157q40 68 80 122 l43 60q65 84 86 107q21 24 33 24q7 0 11 -3q3 -4 3 -11q0 -16 -45 -76q-32 -47 -127 -158q-26 -34 -63 -70q-1 -3 -3 -7q-1 -3 -3 -5l-56 -84l-67 -114q-43 -69 -51 -84q0 -2 -11 -19l-8 -20l4 4q93 64 150 110q51 40 108 101q94 99 174 196l13 -12q-9 -12 -13 -16l-69 -84 q-52 -64 -136 -142q-86 -80 -153 -125l-88 -61l-4 -4h-3l-1 -0.5t-2 -1.5z" />
<glyph unicode="z" horiz-adv-x="434" d="M121 -70l-15 -8l-63 -41q-76 -49 -100 -63l-97 -62q-120 -78 -182 -125q-100 -72 -150 -128q-53 -59 -53 -97q0 -33 45 -33t108 28q67 30 136 78q71 50 139 115q77 73 145 170q65 94 87 166zM182 -25l-4 -4q-7 -56 -36 -118q-30 -64 -78 -124q-48 -61 -117 -124 q-63 -59 -123.5 -104t-123.5 -81q-119 -67 -196 -67q-65 0 -65 55q0 48 63 111q60 66 170 145q63 44 162 107l98 63q42 26 97 64q35 20 54 34q23 15 48 33q8 35 8 66q0 94 -116 94q-14 0 -48 -2v20q94 10 155 37q59 26 124 88q48 44 83 89q31 41 56 87q21 42 21 66 q0 35 -35 35q-58 0 -141 -66q-71 -59 -181 -194l-14 -17l-12 13l12 14q53 66 100 116t88 83q86 69 148 69q63 0 63 -69q0 -51 -29 -107q-31 -58 -84 -109q-55 -54 -120 -89q-66 -36 -131 -48q49 -13 73 -48q24 -36 27 -95l6 4q62 50 133 121q77 73 154 168l18 20l15 -12 l-19 -20q-86 -105 -161 -177q-83 -82 -142 -127z" />
<glyph unicode="{" horiz-adv-x="514" d="M569 311l15 -12q-75 -93 -142 -160q-69 -69 -123 -104q-55 -37 -86 -37q-19 0 -31 12t-12 33q0 46 50 154l-8 -6l-1 -1l-2 -2l-45 -45q-46 -46 -129 -104q-59 -39 -98 -39q-47 0 -47 55q0 48 43 122q46 78 110 142q65 68 141 120q81 55 147 85q69 31 118 31q32 0 51 -15 t19 -40q0 -42 -54 -117q-4 -4 -6 -7t-6 -7l-14 14q31 40 47 69q12 23 12 46q0 34 -43 34q-57 0 -147 -54q-89 -52 -191 -150q-80 -75 -141 -160q-59 -83 -59 -121q0 -27 24 -27q28 0 90 41q61 40 125 101l53 51q13 12 36 35l14.5 14.5l11.5 11.5q42 70 82 115q42 49 57 49 q10 0 10 -10q0 -18 -37 -62q-32 -40 -88 -94q-5 -5 -7 -6t-9 -8l-8 -14q-80 -142 -80 -195q0 -31 25 -31q41 0 139 86q98 87 194 207z" />
<glyph unicode="|" horiz-adv-x="395" d="M428 756q49 29 140 101q86 68 145 124q63 60 109 120q44 59 44 83q0 8 -5 13t-13 5q-40 0 -154 -123q-55 -58 -138 -159q-85 -103 -128 -164zM203 229v-16q76 84 143 181q66 95 66 122q0 14 -13 14q-31 0 -102 -92q-94 -127 -94 -209zM360 717l7 4l26 35l29 35l80 102 q273 334 354 334q17 0 27 -9q10 -10 10 -26q0 -42 -71 -127q-69 -82 -189 -182q-68 -56 -120 -94t-114 -76l-10 -11l-20.5 -28.5l-22.5 -31l-48 -66.5l-99 -138q-16 -19 -29 -38q-16 -23 -29 -40q-4 -6 -8 -10.5t-8 -10.5q-8 -12 -11 -17q-3 -3 -5 -6.5t-5 -6.5l-69 -96 q-92 -121 -92 -166q0 -27 24 -27q33 0 115 70q72 65 104 103q-4 12 -4 32q0 82 78 197q89 129 141 129q33 0 33 -31q0 -26 -33 -82q-82 -136 -190 -250q10 -22 43 -22q77 0 197 145l14 -12q-46 -57 -81 -90q-35 -34 -67 -49q-31 -15 -63 -15q-37 0 -57 29l-7 -6 q-17 -19 -73 -74q-52 -47 -90 -74q-35 -20 -62 -20q-47 0 -47 49q0 39 37 109q54 92 90 139l129 174l109 141l19 25q3 3 5 6l4 6l29 37l-6 -2q-132 -61 -262 -61q-100 0 -162 43q-64 43 -64 112q0 61 50 114q49 52 135 82t188 30q108 0 201 -33l-10 -17q-87 31 -187 31 q-148 0 -251 -59q-103 -60 -103 -146q0 -59 56 -98q55 -39 145 -39q137 0 290 74z" />
<glyph unicode="}" horiz-adv-x="412" d="M467 311l14 -12l-10 -10q-58 -70 -116 -127q-54 -52 -105 -90q-56 -40 -99 -58q-48 -20 -85 -20q-43 0 -69 29t-26 77q0 71 42 147q39 74 118 148q47 44 102 81q56 38 105 60q50 21 80 21q45 0 45 -49q0 -55 -74 -150q-39 -48 -85 -81q-44 -31 -75 -31q-32 0 -32 37 q0 39 49 97t114 95l9 -14q-40 -26 -76 -60q-33 -32 -55 -63q-21 -30 -21 -53q0 -19 14 -19q48 0 121 84q45 48 67 88q23 41 23 70q0 31 -28 31q-52 0 -137 -64q-87 -66 -160 -158q-117 -148 -117 -235q0 -28 20 -48t48 -20q45 0 106 33q63 34 135 100q75 68 150 154z" />
<glyph unicode="~" horiz-adv-x="555" d="M43 268l-12 13l8 10l47 57q168 197 248 197q23 0 37 -13q14 -14 14 -36q0 -33 -23 -74q-15 -29 -108 -137q-101 -116 -127 -155q-29 -44 -29 -75q0 -37 29 -37q35 0 107 57q71 56 145 142q80 93 141 186q62 96 95 175q34 80 34 135q0 82 -71 82q-47 0 -98 -36 q-53 -38 -91 -95l-16 8q37 60 96 100q61 41 109 41q45 0 69 -27q23 -29 23 -79q0 -57 -35 -144q-38 -90 -100 -181q-66 -98 -142 -183q-88 -99 -156 -150q-69 -51 -110 -51q-59 0 -59 68q0 32 24 77q9 22 55 84l17 19.5l20 23.5q3 3 19 21t18 20l58 68q77 88 77 125 q0 22 -24 22q-34 0 -96 -51q-63 -51 -140 -143l-43 -51z" />
<glyph unicode="&#xa1;" horiz-adv-x="465" d="M842 1143q0 25 26 57q23 29 50 29q24 0 24 -27q0 -25 -22 -53q-27 -33 -52 -33q-26 0 -26 27zM807 1065l14 -10l-10 -15l-108 -141q-92 -121 -131 -177l-138 -197l-186 -273q-100 -150 -150 -209q-41 -53 -65 -53q-19 0 -19 22q0 13 9 29q8 14 45 70l53 73q5 9 47 64 q6 8 9 11t7 9q5 7 17 21l125 160l127 159l63 79l23 30l43 55l110 143l64 82l26 35q8 13 12 17q5 5 7 8q1 2 3 4t3 4z" />
<glyph unicode="&#xa2;" horiz-adv-x="440" d="M45 23l317 432q-67 0 -153 -80q-30 -29 -74 -83q-43 -54 -69 -93q-50 -71 -50 -125q0 -34 29 -51zM506 618l-111 -149q31 -15 31 -53q0 -65 -78 -142l-14 17q72 69 72 125q0 24 -23 35l-320 -435h7q86 0 243 142l15 -15q-89 -78 -149 -112q-64 -35 -109 -35q-11 0 -21 2 l-127 -174l-14 10l123 170q-41 21 -41 80q0 117 135 258q61 61 124 97q62 36 113 36h15l115 156z" />
<glyph unicode="&#xa3;" horiz-adv-x="844" d="M160 51q-86 37 -189 37q-42 0 -66 -9q-24 -10 -24 -28q0 -15 28 -25q26 -10 71 -10q54 0 88 7q40 8 92 28zM551 338h4q15 40 53 95q37 53 85 99q47 47 89 72l11 -16q-53 -36 -88 -71q-42 -42 -75 -88q-37 -53 -52 -91q107 6 176 78l14 -10q-72 -83 -201 -95 q-6 -30 -6 -43q0 -49 45 -49q43 0 100 42q56 40 115 114q60 76 99 163q38 90 38 148q0 38 -18 57t-49 19q-83 0 -158 -72q-40 -40 -100 -123t-127 -186l-12 -19q-7 -7 -13 -18q63 -6 70 -6zM416 315l-6 2h-11q-94 15 -145 15q-46 0 -86 -14q-38 -13 -60 -38t-22 -55 q0 -16 14 -30q13 -14 33 -19l-2 -18q-63 18 -63 67q0 57 62 98q62 39 151 39q73 0 155 -12l17 27q70 115 120 179q53 67 113 124q110 102 199 102q94 0 94 -110q0 -77 -42 -169q-45 -94 -116 -167q-126 -135 -215 -135q-31 0 -48 18q-17 17 -17 51q0 21 6 39h-6h-33 q-23 0 -49 2q-11 -18 -15 -22l-14 -25q-42 -63 -91.5 -114.5t-105.5 -88.5q58 -22 112 -34q60 -15 99 -15q44 0 73 10q32 12 67 37l12 -12q-65 -59 -178 -59q-48 0 -97 11t-128 42q-9 -4 -13 -4q-84 -30 -114 -36q-28 -7 -80 -7q-57 0 -91 15q-36 15 -36 42q0 60 137 60 q80 0 209 -39q36 22 88 71q29 29 46 53q12 16 58 93l11 14q1 1 3 3.5t5 8.5z" />
<glyph unicode="&#xa4;" horiz-adv-x="520" d="M215 440l-14 9q32 51 83 94q49 43 103 71q53 27 92 27q35 0 56 -24q20 -26 20 -66q0 -51 -22 -108q-22 -58 -66 -120q-43 -61 -105 -126q-96 -96 -167 -142q-76 -51 -123 -51q-42 0 -45 45q-2 -3 -6 -7l-2.5 -2.5l-2.5 -2.5q-3 -3 -6.5 -9t-6.5 -10l-30 -45 q-24 -35 -26 -41q-93 -136 -178 -241q-286 -361 -547 -361q-73 0 -117 32q-46 32 -53 87l18 2q25 -100 154 -100q142 0 285 112t307 351l98 145l72 102q100 147 135 191q132 170 239 246q34 22 63 35q21 9 58 14v-15q-74 -15 -141 -74q-27 -23 -53.5 -52.5t-53.5 -63 l-75 -96.5q-44 -59 -69 -98q-21 -30 -34 -58q-10 -21 -10 -37q0 -28 29 -28q42 0 131 71q58 48 136 138q78 92 126 167q65 107 65 162q0 58 -53 58q-55 0 -135 -54q-80 -56 -129 -127z" />
<glyph unicode="&#xa5;" horiz-adv-x="662" d="M338 254q15 -4 20 -4q62 -14 93 -14q50 0 94 16q44 17 71 45l13 -10q-28 -33 -85 -56q-57 -22 -118 -22q-55 0 -119 16l-6 -4q-32 -27 -125 -127q-46 -50 -78 -94h-59q33 44 105 118t112 105l12 10q-51 13 -100 13q-46 0 -81 -11q-33 -12 -75 -45l-12 11q38 38 87 54 q49 17 112 17q55 0 104 -12l14 12l17 13l98 80q83 64 113 92q-62 -51 -130 -83q-70 -32 -114 -32q-76 0 -76 86q0 57 27 100q-41 -29 -80 -51l-6 21q56 29 100 65l6 15l19 40q31 66 65 118q32 48 45 48q11 0 11 -12q0 -34 -37 -95q-40 -66 -92 -122q-37 -71 -37 -129 q0 -64 55 -64q94 0 254 127q177 141 283 295l16 -10q-60 -87 -117 -153q-71 -87 -202 -197l-89 -76l-43.5 -38l-29.5 -26z" />
<glyph unicode="&#xa7;" horiz-adv-x="610" d="M410 625l16 10q130 93 215 172q133 122 226 227q87 101 87 135q0 8 -7 15q-7 6 -17 6q-42 0 -144 -105q-71 -73 -140 -154t-134 -167l-47 -64q-38 -48 -55 -75zM-182 -170l-21 -14q-149 -101 -256 -187q-111 -90 -166 -152q-57 -65 -57 -98q0 -26 27 -26q28 0 89 44 q58 43 126 114q49 54 86 99l86 106zM715 625l16 10q90 63 172 132q78 67 184 175q39 39 90 97q43 50 64 83q19 35 19 47q0 8 -7 15q-7 6 -18 6q-42 0 -143 -105q-53 -53 -137 -152q-88 -102 -138 -169l-47 -64q-41 -53 -55 -75zM123 -170l-21 -14q-123 -85 -254 -185 q-113 -92 -169 -154q-56 -64 -56 -98q0 -26 27 -26q29 0 90 44q60 45 125 114q56 59 127 149q68 84 131 170zM-92 -90l4 2q51 33 203 145l154 118q55 44 120 106q64 61 104 106q44 51 93 117l8 8h-260l-23 -31l-20 -28l-84 -125l-76 -108.5l-87.5 -123l-56 -78l-63.5 -86.5 l-8 -12q-1 0 -8 -10zM-131 -141l-25 -33q-38 -53 -120 -156q-141 -177 -244 -262q-94 -76 -135 -76q-47 0 -47 50q0 28 28 68q30 41 96 104q74 71 183 151l124 87.5t101 66.5l14 10l11 14q2 3 5 8t11 17q19 27 33 49l90 135q30 47 76 113q48 73 69 98l76 109q35 52 66 92 l6 8h-88l10 18h92l27 37l26 35l117 151l109 134q80 94 163 182q72 75 115 107q44 34 74 34q43 0 43 -41q0 -37 -74 -126q-38 -45 -87.5 -96l-125.5 -124q-168 -159 -307 -237q-10 -19 -25 -39q0 -2 -1.5 -3.5t-2.5 -3.5q-3 -3 -6 -10h260l27 37l29 35l39 52.5l28.5 37.5 l24.5 32l74 94l57 69q82 97 166 182q129 141 188 141q19 0 30 -11t11 -30q0 -74 -287 -346q-77 -72 -157 -133q-91 -71 -150 -104q-12 -22 -24 -39l-11 -17h94l-12 -18h-94l-21 -31l-22 -28l-84 -125l-51.5 -76l-60 -85l-83.5 -116l-88 -119q-3 -5 -9 -13q-3 -5 -9 -13l4 4 l123 88.5t115.5 94t98.5 91.5t71 76l34 41l9 10l14 -12l-3.5 -3.5t-2.5 -3.5q-3 -3 -4 -5l-35 -41q-37 -45 -127 -131q-82 -76 -195 -158l-61 -43q-31 -21 -38 -27q-8 -6 -17 -12l-9 -4l-10 -6l-13 -19l-13 -18l-27 -35q-10 -15 -96 -123q-141 -177 -244 -262 q-91 -76 -135 -76q-47 0 -47 50q0 29 27 67q25 36 98 105q76 73 184 151q113 85 223 154l15 10q6 8 59 88l90 135l74 113q7 11 15.5 23t12.5 19l19 27l16 23l-24 -25q-122 -111 -222 -188q-115 -88 -182 -135t-127 -82l-6 -4v0l-1 -1q-2 -2 -5 -3z" />
<glyph unicode="&#xa8;" horiz-adv-x="578" d="M350 721q0 26 21 45q23 29 47 29q22 0 22 -23q0 -26 -22 -51t-45 -25t-23 25zM135 723q0 21 21 43q26 29 47 29q24 0 24 -23q0 -26 -22 -51t-45 -25q-25 0 -25 27z" />
<glyph unicode="&#xa9;" horiz-adv-x="653" d="M70 0h-56l230 313q106 145 106 185q0 32 -28 32q-25 0 -78 -47q-34 -29 -85.5 -84.5t-101.5 -115.5l-12 -15l-14 13l12 14q117 138 181 196q62 58 100 58q21 0 35 -14q12 -15 12 -37q0 -55 -68 -162q89 97 171 158q80 57 126 57q25 0 41 -15t16 -40q0 -68 -82 -172 l-94 -111l-63 -75q-24 -27 -39 -46q-94 -106 -124 -155q-32 -53 -32 -101q0 -33 18 -52q18 -20 46 -20q106 0 274 181l14 -15q-67 -80 -148 -132q-82 -54 -142 -54q-38 0 -61 27q-23 26 -23 71q0 49 21 99q22 51 70 114q53 71 142 170q20 21 70 78q40 45 47 54l31 40 q51 65 51 99q0 15 -9 25q-10 9 -26 9q-51 0 -152 -84q-112 -93 -217 -227l-69 -90q-67 -90 -90 -129z" />
<glyph unicode="&#xaa;" horiz-adv-x="350" d="M217 317q-41 -25 -110 -77q-59 -46 -103 -90q-61 -58 -61 -107q0 -33 34 -33q47 0 96 43q48 41 88 113q39 72 56 151zM266 354l-6 -2q-9 -146 -86 -243q-40 -50 -95 -84q-55 -33 -99 -33q-58 0 -58 51q0 57 96 147q19 18 134 107l33 25q6 5 11 8l10 6q16 11 17 12l6 23 q12 63 15 71q14 61 16 78q-6 -8 -8 -10l-10 -10l-3.5 -3.5l-3.5 -3.5l-2 -2l-2 -2l-188 -221l-14 13l176 208q4 4 16.5 18l30.5 34l20 22q2 2 4 3l2 2l1 1q29 68 80 136q50 65 73 65q10 0 10 -10q0 -17 -41 -70q-59 -79 -112 -135l-2 -14q-18 -58 -23 -131q0 -15 -2 -33l6 4 q68 56 122 112q50 53 88 109q35 52 55 105q18 51 18 94q0 82 -76 82q-89 0 -178 -113q-66 -86 -86 -145l-18 4q46 117 127 194q83 78 157 78q42 0 68 -26q24 -25 24 -74q0 -62 -35 -137q-35 -74 -104 -154q-68 -78 -164 -156z" />
<glyph unicode="&#xab;" horiz-adv-x="592" d="M319 291q89 12 170 58q80 44 125 104l15 -11q-19 -34 -57 -69q-37 -34 -78 -60q-39 -24 -86 -37q44 -50 47 -137h-17q-12 52 -38 88q-25 34 -81 64zM139 291q87 12 170 57q82 45 125 105l17 -11q-31 -53 -93 -100q-61 -46 -129 -66q44 -56 47 -137h-18q-11 53 -38 89 q-27 35 -81 63z" />
<glyph unicode="&#xac;" horiz-adv-x="211" d="M721 1204h49l-680 -909l-55 -76q-64 -87 -82 -116q-19 -31 -19 -54q0 -11 9 -20t20 -9q28 0 84 49q58 50 133 140l72 84l14 18l15 -12l-15 -16l-71 -86q-167 -197 -236 -197q-22 0 -34 14q-13 13 -13 35q0 31 13 61q12 32 43 79q39 59 89 126z" />
<glyph unicode="&#xad;" horiz-adv-x="803" d="M743 340l15 -10q-25 -51 -69 -76q-46 -27 -105 -27q-57 0 -113 29l-68 37q-76 39 -120 39q-78 0 -127 -76l-17 10q27 45 74 72t98 27q55 0 125 -39l68 -35q64 -35 110 -35q83 0 129 84z" />
<glyph unicode="&#xae;" horiz-adv-x="891" d="M788 -59l13 -13q-79 -91 -158 -143q-80 -53 -143 -53q-90 0 -90 100q0 89 90 211q25 33 82 96l157 176q69 74 99 116q28 40 28 65q0 30 -32 30q-55 0 -162 -92q-58 -50 -142 -144q-82 -93 -135 -165l-78 -109q-1 -1 -3.5 -4t-8.5 -12h-57l16 23l72 96l84 112l59 80l62 86 q55 79 55 107q0 22 -23 22q-50 0 -137 -84q-16 -13 -80 -80q-59 -61 -100 -114q-119 -147 -188 -248h-58l15 18l59 76l47 64q86 114 121 166q54 77 76 115q20 37 20 57q0 15 -6 22q-8 8 -18 8q-37 0 -99 -57q-64 -59 -172 -188l-10 -13l-14 13l12 14l18 22q89 103 156 164 q67 64 111 64q47 0 47 -53q0 -25 -13 -55t-51 -91l-6 -10l8 10l37 37l55 55q111 111 172 111q48 0 48 -45q0 -43 -64 -144l-10 -16l10 10q111 111 172 152q64 43 109 43q27 0 41 -14t14 -39q0 -39 -25 -82q-23 -40 -100 -129l-59 -68q-24 -28 -76 -84l-60 -67 q-46 -50 -82 -98q-30 -42 -46 -78q-15 -36 -15 -66q0 -32 19 -51t49 -19q55 0 124 45q72 47 164 142z" />
<glyph unicode="&#xaf;" horiz-adv-x="485" d="M47 0h-55q5 7 16 18q1 2 13 17q4 6 14.5 20.5l19.5 26.5l33 43q7 11 49 63q17 25 35 45q168 218 168 265q0 26 -23 26q-60 0 -223 -196l-41 -49l-10 -11l-12 13l8 10l45 55q75 90 139 145q63 54 99 54q43 0 43 -45q0 -19 -4 -31q-3 -9 -23 -49l-21 -39l-16 -31 q-4 -4 -10 -16q74 80 125 125q54 46 97 67q46 23 83 23q53 0 53 -33q0 -12 -9 -20q-10 -9 -22 -9q-16 0 -26 19q-10 18 -25 18q-40 0 -123 -65q-61 -55 -137 -136q-84 -92 -131 -153l-57 -74q-28 -34 -37 -49q-22 -26 -35 -47z" />
<glyph unicode="&#xb0;" d="M82 1352v-1338h655v1338h-655zM752 0h-684v1366h684v-1366z" />
<glyph unicode="&#xb1;" horiz-adv-x="418" d="M475 809l19 10q194 119 303 234q44 47 67 84q25 40 25 57q0 16 -17 16q-41 0 -139 -98q-92 -92 -172 -190q-63 -78 -86 -113zM371 719l-6 -6q-146 -98 -233 -200t-87 -177q0 -19 8 -37l17 23l57 77l7.5 10l16.5 22l18.5 25l20.5 29l66 85l88 112zM70 260l-4 -6 q-119 -154 -119 -207q0 -29 28 -29q40 0 114 59q71 56 165 163q74 82 126 160q48 74 48 104q0 31 -29 31q-30 0 -85 -37q-52 -35 -119 -99q-64 -61 -111 -123q8 -2 14 -2q52 0 113 46q63 46 100 110l17 -10q-34 -66 -103 -116q-68 -50 -123 -50q-14 0 -32 6zM31 266l10 15 q-16 23 -16 55q0 84 103 200q32 36 74 74.5t89.5 75t107.5 74.5l7 2l26 37l27 35q71 92 158 187q88 97 139 142q78 66 118 66q35 0 35 -31q0 -65 -119 -181q-57 -55 -133.5 -111.5t-152.5 -100.5q-48 -29 -62 -39l-10 -12q-13 -21 -39 -54q-17 -23 -24 -34q-2 -3 -25 -33 q-18 -25 -39 -51l-55 -78q-33 -41 -53 -74q140 125 206 125q50 0 50 -55q0 -58 -59 -149q-60 -90 -167 -191q-79 -79 -166 -131q-50 -31 -88 -31q-47 0 -47 47q0 77 94 207z" />
<glyph unicode="&#xb2;" horiz-adv-x="424" d="M-127 -4l-14 8q40 71 106 125q62 51 172 104t162 87q51 32 88 75q45 56 45 99q0 49 -63 49q-86 0 -166 -74q-66 -55 -66 -96q0 -17 21 -17q36 0 92 49q57 48 82 97l16 -4q-18 -37 -53 -77t-72 -62q-38 -23 -65 -23q-45 0 -45 39q0 27 26 65q25 35 66 64q79 61 172 61 q48 0 73 -21t25 -61q0 -41 -24 -77q-24 -37 -75 -72q-57 -39 -134 -74q-123 -56 -164 -77q-44 -23 -80 -50q-31 -25 -68 -65q31 16 78 16q35 0 59 -7q20 -6 60 -28q37 -20 61 -20q20 0 50 14l12 -12q-43 -35 -88 -35q-39 0 -117 35q-44 22 -80 22q-53 0 -92 -57z" />
<glyph unicode="&#xb3;" horiz-adv-x="422" d="M-197 -49l11 -14q-43 -43 -43 -82q0 -30 24 -49q24 -21 58 -21q46 0 108 30q59 27 117 79q129 116 129 227q0 78 -80 78q-28 0 -61 -9l-3 17q158 51 259 131q104 83 104 158q0 21 -17 35q-18 12 -44 12q-42 0 -84 -19q-43 -19 -84 -57q-60 -51 -60 -86q0 -25 21 -25 q34 0 84 44q50 45 86 106l14 -10q-28 -61 -85 -109q-58 -51 -103 -51q-43 0 -43 45q0 39 43 82q44 44 107 72q62 28 124 28q41 0 66 -18q24 -18 24 -49q0 -94 -147 -189q-103 -64 -183 -90q58 -5 85 -32q28 -28 28 -76q0 -54 -32 -112q-33 -57 -93 -108q-72 -60 -144 -92 q-74 -33 -132 -33q-48 0 -77 26q-30 25 -30 63q0 59 53 98z" />
<glyph unicode="&#xb4;" horiz-adv-x="487" d="M274 733l-129 -51l-8 18l115 76q53 35 78 35q10 0 16 -6q6 -7 6 -17q0 -14 -13 -23q-10 -8 -65 -32z" />
<glyph unicode="&#xb5;" horiz-adv-x="498" d="M459 559l-4 -6h8q52 0 63 -41l4 4q6 5 34 36q8 10 65 73l131.5 155l96.5 120.5t101 139.5q43 59 72 115q14 28 14 37q0 10 -12 10q-21 0 -80 -51q-211 -187 -465 -551zM459 535h-17l-4 -7q-36 -49 -90 -139q-26 -43 -69 -121l-9 -16l17 16q108 102 217 219l4 2 q-3 46 -49 46zM221 205l6 6l2 6q55 116 181 305l4 6q-38 -12 -76 -32q-37 -21 -75 -49q-40 -30 -87 -72q-46 -43 -88 -88q-158 -170 -158 -240q0 -27 23 -27q30 0 98 48q80 56 170 137zM209 166q-37 -34 -121 -98q-92 -68 -135 -68q-45 0 -45 51q0 39 25 90q22 49 71 110 q45 57 107 111q80 75 164 125q87 52 153 64l4 4l39 55l102 142q55 74 99 127q45 56 110 129q54 60 111 116q107 101 143 101q11 0 20 -9t9 -20q0 -42 -123 -213q-82 -114 -168 -219q-72 -89 -199 -229l-24 -25l-23 -25q-9 -79 -86 -174l-16 13q23 26 48 66q24 41 30 69 l-17 -19l-16 -18q-146 -153 -227 -219q-47 -102 -47 -154q0 -29 26 -29q25 0 92 50q43 30 119 106q37 37 109 123l10 12l14 -12l-10 -12q-61 -75 -117 -132q-51 -52 -116 -104q-66 -51 -103 -51q-45 0 -45 49q0 41 33 117z" />
<glyph unicode="&#xb6;" horiz-adv-x="213" d="M453 770q66 36 154 101q86 63 138 112q68 62 109 116q41 55 41 79q0 20 -21 20q-43 0 -126 -80q-54 -50 -185 -207q-41 -49 -110 -141zM371 721l6 2l6 10l8 8l12 15l21 27l20 26q167 209 263 301q110 107 172 107q39 0 39 -39q0 -41 -73 -123q-36 -41 -77.5 -79 t-113.5 -95q-120 -92 -238 -156l-377 -502q-61 -81 -79 -113q-23 -41 -23 -63q0 -11 7 -19q6 -10 17 -10q65 0 240 211l53 64l14 18l15 -12l-9 -10q-127 -153 -180 -205q-92 -86 -137 -86q-20 0 -32 15q-13 14 -13 38q0 44 40 111q39 68 150 213l80 104q16 19 26 32.5 l19 25.5l33 42q15 18 23 29l34 41l12.5 16.5l20.5 26.5l-6 -4q-162 -70 -285 -70q-100 0 -161 43q-62 42 -62 111q0 64 45 116q43 51 119 83q74 30 164 30q126 0 205 -43l-7 -18q-89 43 -202 43q-83 0 -152 -28q-68 -27 -110 -76q-41 -49 -41 -103q0 -64 53 -100 q52 -37 143 -37q64 0 144.5 20.5t173.5 61.5z" />
<glyph unicode="&#xb7;" horiz-adv-x="176" d="M31 254q0 23 23 49q22 25 46 25q25 0 25 -23q0 -28 -23 -49q-24 -27 -47 -27q-24 0 -24 25z" />
<glyph unicode="&#x2219;" horiz-adv-x="176" d="M31 254q0 23 23 49q22 25 46 25q25 0 25 -23q0 -28 -23 -49q-24 -27 -47 -27q-24 0 -24 25z" />
<glyph unicode="&#xb8;" d="M82 1352v-1338h655v1338h-655zM752 0h-684v1366h684v-1366z" />
<glyph unicode="&#xb9;" horiz-adv-x="231" d="M-37 10l-6 -10h-59l12 14l82 99l88 106q66 76 92 121l-12 -12q-95 -86 -168 -127l-8 16q57 36 125 94q58 49 130 124q74 78 109 126l14 -12l-8 -10l-104 -138l-103 -135l-102 -141q-15 -21 -17 -24l-17 -23q-5 -7 -15 -23q-17 -21 -33 -45z" />
<glyph unicode="&#xba;" horiz-adv-x="221" d="M276 610l127 176l-18 -18q-112 -106 -199 -166q45 8 90 8zM313 590h-4l-237 -326l-39 -53q-90 -123 -90 -166q0 -29 26 -29q25 0 90 56q57 47 152 161q41 50 57 68l8 10l15 -12l-10 -10l-56 -70q-181 -223 -258 -223q-22 0 -34 15q-13 13 -13 38q0 34 29 97q26 57 76 124 l235 320q-59 0 -119 -23l-8 17l8 8l70 51q76 58 164 139q76 70 106 109l11 12h45l-215 -295l12 -2l28 -2q54 -6 111 -6q87 0 146 35q57 34 79 100l17 -4q-5 -40 -45 -80q-43 -37 -90 -54q-48 -17 -117 -17q-23 0 -107 6z" />
<glyph unicode="&#xbb;" horiz-adv-x="592" d="M365 438h18q9 -106 104 -162q-70 -12 -139 -56q-68 -44 -94 -97l-16 8q15 40 65 88q55 52 105 76q-43 61 -43 129v14zM188 438h19q5 -56 28 -93q22 -37 74 -69q-46 -8 -94 -31q-51 -26 -86 -57q-37 -33 -51 -65l-17 8q15 41 65 89t105 75q-45 65 -45 127q1 2 1.5 4t0.5 3 v9z" />
<glyph unicode="&#xbf;" d="M1038 1135q0 26 25 57t49 31q25 0 25 -27t-23 -53q-22 -33 -49 -33t-27 25zM1006 1051l14 -13q-49 -76 -129 -162q-78 -84 -150 -133l-137 -96q-120 -84 -200 -157q-86 -77 -136 -146q-49 -68 -78 -137q-30 -67 -30 -113q0 -35 21 -55q20 -21 59 -21q89 0 196 62 q109 63 197 164q139 157 139 260q0 49 -49 49q-77 0 -231 -145q-56 -53 -92 -104q-37 -52 -72 -126l-19 8q19 53 73 126q50 67 114 128q150 135 225 135q35 0 55 -20q19 -20 19 -57q0 -50 -25 -107q-25 -58 -69 -117q-46 -60 -107 -112q-88 -77 -183 -122q-94 -44 -173 -44 q-123 0 -123 129q0 125 112 252q58 66 179 162q43 31 110 75q22 16 80 52q142 91 235 178q88 82 166 196z" />
<glyph unicode="&#xc0;" d="M82 1352v-1338h655v1338h-655zM752 0h-684v1366h684v-1366z" />
<glyph unicode="&#xc1;" d="M82 1352v-1338h655v1338h-655zM752 0h-684v1366h684v-1366z" />
<glyph unicode="&#xc2;" d="M82 1352v-1338h655v1338h-655zM752 0h-684v1366h684v-1366z" />
<glyph unicode="&#xc3;" d="M82 1352v-1338h655v1338h-655zM752 0h-684v1366h684v-1366z" />
<glyph unicode="&#xc4;" horiz-adv-x="395" d="M365 520l-459 -616l14 14l137 129q126 114 196 190q69 73 100 131q30 56 30 107q0 30 -18 45zM539 754l-15 -21q76 42 157 104q86 64 155 130q62 58 104 115q41 56 41 83q0 12 -7 19q-7 6 -22 6q-35 0 -123 -86q-49 -49 -121 -135q-58 -68 -122 -152zM-555 -653l874 1179 q-19 -4 -46 -20q-25 -15 -54 -39q-24 -20 -49 -47l-14 10q43 50 91 81q51 33 89 34l12 16l43 60q4 7 29 38l4 5l-6 -2q-124 -50 -238 -50q-94 0 -159 45q-64 45 -64 109q0 56 50 109q48 51 132 83q81 31 178 31q131 0 218 -45l-9 -16q-89 43 -207 43q-92 0 -170 -27 q-78 -28 -125 -75t-47 -103q0 -59 60 -97q61 -38 153 -38q40 0 117 17q75 17 137 42l5 6q15 21 43 56l45 56l41.5 51l39.5 47.5l64 74.5q111 124 197 193q44 34 79 34q41 0 41 -43q0 -37 -53 -107q-51 -68 -147 -151q-123 -110 -303 -211l-119 -159q26 -21 26 -64 q0 -81 -71 -173q-69 -92 -266 -267q-90 -82 -96 -88q-11 -9 -58 -60q-73 -79 -117 -133l-51 -65q-29 -37 -33 -41l-221 -299h-45z" />
<glyph unicode="&#xc5;" horiz-adv-x="424" d="M-137 -279l-15 5q-248 63 -411 63q-121 0 -224 -35q-101 -34 -159 -95q-58 -59 -58 -132q0 -79 64 -124q62 -46 174 -46q156 0 316 94q159 92 313 270zM434 500q3 35 -26 35q-32 0 -106 -54q-78 -56 -152 -133q-96 -96 -151 -177q-54 -79 -54 -122q0 -33 30 -33 q38 0 117 63q75 58 164 161q172 199 178 260zM-80 -266l-4 -4q137 -39 252 -39q87 0 153 22q67 21 113 64q66 61 72 135h20q-5 -69 -51 -124q-48 -56 -127 -87q-78 -31 -180 -31q-85 0 -234 35l-32 8l-4 -4l-21 -22q-110 -114 -218 -191q-112 -79 -217 -119 q-109 -41 -206 -41q-120 0 -190 51q-70 49 -70 136q0 80 61 145q62 67 166 104q106 38 230 38q44 0 119 -8q70 -8 153 -24q105 -21 150 -32l22 -6l10 12l90 111l95 125q4 4 8 9.5t9 11.5q6 7 12.5 15.5l9.5 12.5q4 6 7 9.5l5 6t4 4.5q29 38 51 72q-81 -73 -126 -102 q-47 -29 -75 -29q-59 0 -59 65q0 33 20 81q19 47 60 99q46 59 86 97q83 83 183 147q98 64 145 64q41 0 41 -45q0 -14 -4 -23q11 13 16 21q3 4 6.5 9.5t13.5 18.5l7 11h49l-357 -482q-9 -13 -29 -38l-20 -26t-16 -20q-4 -4 -16 -20l-24 -31q-22 -29 -42 -51 q-50 -65 -117 -141z" />
<glyph unicode="&#xc6;" horiz-adv-x="340" d="M106 82q-94 -28 -186 -84q-80 -45 -80 -86q0 -13 12 -22t27 -9q37 0 80 28q43 26 84 74q39 47 63 99zM395 311l15 -12q-9 -13 -9 -10l-36 -43q-31 -39 -87 -77q-55 -39 -120 -67q-47 -98 -130 -169q-83 -72 -151 -72q-24 0 -41 14q-16 13 -16 35q0 47 78 98q77 52 221 98 q4 12 24 82q40 135 73 210q33 79 75 134q-59 -36 -164 -163l-68 -82l-16 -19l-12 13q5 7 14 16l68 86q53 62 107 113q60 59 93 84q68 47 111 47q47 0 47 -39q0 -17 -10 -28q-10 -13 -25 -13q-18 0 -18 16v8l4 9q2 2 2 8q0 14 -16 14q-34 0 -68 -37q-33 -33 -56 -83 q-24 -53 -53 -150l-21 -71l-17 -58l-27 -74q69 29 117 67q47 35 104 105z" />
<glyph unicode="&#xc7;" horiz-adv-x="1335" d="M1241 829l68 17q2 18 2 43q0 87 -39 162q-58 -32 -128 -83q-63 -46 -142 -113q-69 -58 -109 -101l20 4l56 12l65 12q13 4 35 9q20 5 45 9q13 3 18 4t17 4t22 5zM504 98q125 20 262 89q62 31 129 76.5t123 95.5q56 49 103.5 104t84.5 115l2 6q-33 30 -90 30 q-71 0 -146 -42q-76 -44 -140 -120q-66 -77 -113 -178l-17 5q36 97 106 177q69 82 154 129q86 48 160 48q60 0 99 -33q1 3 3 7q1 1 3 5q59 102 80 209h-7l-124 -30l-138 -29l-77 -17q-1 0 -82 -18l-15 -2l-14 -14q-52 -58 -98.5 -116t-83 -111.5t-66.5 -104.5 q-87 -152 -98 -281zM766 692l4 4q-157 -43 -282 -116q-123 -72 -193 -157t-70 -171q0 -73 55 -116q55 -44 146 -44q15 0 47 4h6q3 146 77 299q74 152 210 297zM1223 567l-2 -6q-64 -91 -124 -154q-67 -71 -136 -122q-66 -51 -158 -101q-87 -46 -161.5 -72t-139.5 -34v-6 q0 -89 49 -138q48 -51 131 -51t174 48q92 46 180 135q95 95 155 209t60 200q0 55 -28 92zM1296 1065l-6 -4q41 -70 41 -168v-37l-2 -6q6 2 8 2l9 2q123 30 228 74q111 47 175 94q84 66 84 121q0 28 -26 43q-28 14 -78 14q-178 0 -433 -135zM551 -254l117 117q-91 8 -137 61 q-48 54 -52 152h-6q-32 -4 -49 -4q-98 0 -158 51q-61 49 -61 131q0 139 162 269q162 131 426 204h6l4 6q54 57 133 120q81 65 170 125q85 58 154 93q-33 45 -84 67q-54 23 -121 23q-101 0 -190 -47q-89 -46 -154 -131q-70 -91 -76 -182h-19q6 96 71 185q65 87 165 141 q101 53 205 53q151 0 221 -99l6 2q93 48 171 78q75 28 148 45q71 15 128 15q58 0 92 -20q32 -21 32 -58q0 -54 -63 -113q-63 -58 -180 -109q-115 -52 -264 -90q-17 -4 -21 -4q-21 -128 -92 -243q43 -55 43 -138q0 -52 -20 -112q-19 -56 -58 -119q-35 -57 -92 -118 q-62 -65 -119 -109q-155 -122 -293 -125l-94 -90q42 14 72 14q39 0 63 -18q23 -18 23 -50q0 -31 -28 -62q-29 -32 -74 -50q-45 -19 -97 -19q-82 0 -141 56l10 10q56 -43 123 -43q60 0 110 35q48 34 48 78q0 19 -13 29q-14 11 -34 11q-46 0 -99 -28z" />
<glyph unicode="&#xc8;" d="M82 1352v-1338h655v1338h-655zM752 0h-684v1366h684v-1366z" />
<glyph unicode="&#xc9;" horiz-adv-x="461" d="M432 768l14 8q89 55 167.5 117t140.5 127q34 36 59 67q23 29 36 54q13 23 13 37q0 10 -6 14q-7 4 -14 4q-29 0 -90 -49q-57 -48 -147 -155q-89 -106 -173 -224zM37 289l278 379q-124 -82 -204 -180t-80 -166q0 -18 6 -33zM68 262h10q2 0 3.5 -0.5t2.5 -1.5q42 0 97 43 q53 43 106 117l14 -12q-50 -74 -109 -120q-61 -46 -112 -46q-10 0 -27 4l-6 -6q-25 -30 -84 -117l-14.5 -20.5l-15.5 -21.5l-9.5 -12.5t-8.5 -12.5t-5 -7q-16 -20 -22 -30q-3 -5 -13 -19h-49l199 270q-13 26 -13 52q0 50 40 115q42 67 110 132q38 38 93 79q58 45 91 63 l25 32q29 41 96 123q81 104 159 186q79 86 132 124q55 41 86 41q15 0 26 -11t11 -26q0 -40 -58 -113q-58 -72 -151 -152q-69 -56 -135 -103q-60 -43 -136 -89l-237 -326q173 152 246 152q25 0 38 -16t13 -41q0 -71 -150 -230q-59 -61 -110 -119q-30 -34 -47 -62 q-13 -22 -13 -40q0 -29 25 -29q30 0 85 39q57 39 125 105q68 68 132 147l8 8l14 -12q-81 -100 -174 -188q-128 -119 -192 -119q-23 0 -36 16q-13 14 -13 39q0 37 26 80q14 26 42 58q20 24 102 112q89 95 121 136q30 41 30 65q0 14 -8 22t-20 8q-36 0 -98 -39 q-64 -42 -128 -106q-73 -70 -114 -121z" />
<glyph unicode="&#xca;" d="M82 1352v-1338h655v1338h-655zM752 0h-684v1366h684v-1366z" />
<glyph unicode="&#xcb;" d="M82 1352v-1338h655v1338h-655zM752 0h-684v1366h684v-1366z" />
<glyph unicode="&#xcc;" d="M82 1352v-1338h655v1338h-655zM752 0h-684v1366h684v-1366z" />
<glyph unicode="&#xcd;" d="M82 1352v-1338h655v1338h-655zM752 0h-684v1366h684v-1366z" />
<glyph unicode="&#xce;" d="M82 1352v-1338h655v1338h-655zM752 0h-684v1366h684v-1366z" />
<glyph unicode="&#xcf;" d="M82 1352v-1338h655v1338h-655zM752 0h-684v1366h684v-1366z" />
<glyph unicode="&#xd1;" horiz-adv-x="457" d="M334 627q40 28 141 112l132 119l100 98q47 49 88 97q77 89 77 123q0 10 -6 16t-16 6q-60 0 -240 -213q-72 -84 -176 -221q-75 -101 -100 -137zM-129 0h-45l410 555l61 82q52 72 126 163l130 156q224 261 301 261q18 0 29 -11q10 -11 10 -30q0 -40 -70 -119 q-53 -64 -113 -124q-58 -59 -169 -161l-114 -98q-45 -36 -114 -84l-16 -10l-152 -205q20 16 43 41q143 135 213 135q26 0 43 -14q15 -15 15 -41q0 -47 -28 -99t-93 -129l-36 -43q-32 -37 -38 -43l-14 -17q-7 -7 -10 -11t-10 -11l-15 -18q-22 -27 -33 -39q-77 -88 -94 -110 q-23 -29 -45 -68q-25 -51 -25 -86q0 -36 18 -55q18 -21 50 -21q33 0 82 24q50 24 102 69q50 41 99 100l12 -11q-73 -88 -155 -145q-79 -55 -136 -55q-45 0 -69 27q-25 25 -25 71q0 59 51 151q30 55 74 111q37 49 110 127q107 120 142 162q30 38 48 68q15 29 15 51 q0 16 -10 25t-27 9q-27 0 -77 -30q-51 -33 -107 -84q-90 -85 -155 -163q-67 -78 -177 -235z" />
<glyph unicode="&#xd2;" d="M82 1352v-1338h655v1338h-655zM752 0h-684v1366h684v-1366z" />
<glyph unicode="&#xd3;" d="M82 1352v-1338h655v1338h-655zM752 0h-684v1366h684v-1366z" />
<glyph unicode="&#xd4;" d="M82 1352v-1338h655v1338h-655zM752 0h-684v1366h684v-1366z" />
<glyph unicode="&#xd5;" d="M82 1352v-1338h655v1338h-655zM752 0h-684v1366h684v-1366z" />
<glyph unicode="&#xd6;" horiz-adv-x="461" d="M430 764l-10 -14l14 10q85 48 160 109t151 143q52 55 81 98q32 46 32 64t-18 18q-51 -3 -152 -107q-60 -63 -129 -153zM348 711l8 12q64 83 86 115q10 11 121 143q54 62 100 110q45 45 82 74q62 47 97 47q19 0 29 -9q10 -10 10 -27q0 -31 -59 -107q-59 -73 -144 -151 q-79 -73 -143 -118q-68 -50 -144 -89l-244 -336q56 56 121 104q89 68 138 68q55 0 55 -55q0 -40 -27 -84q-27 -43 -98 -119l-64.5 -71l-38.5 -42q-67 -76 -80 -95q-14 -22 -14 -42q0 -11 9 -20t20 -9q48 0 156 99q105 95 188 196l4 6l14 -12l-4 -6q-104 -125 -192 -203 q-113 -98 -166 -98q-55 0 -55 53q0 39 27 82q30 48 100 121q82 84 145 160q49 59 49 92q0 26 -31 26q-48 0 -170 -101q-63 -54 -110.5 -103t-93.5 -109l-82 -113q-20 -24 -39 -51l-18 -24.5l-17 -24.5h-47l500 682l-7 -2q-138 -59 -256 -59q-104 0 -165 41q-60 41 -60 108 q0 65 45 117q42 51 120 83q74 31 165 31q53 0 99 -10q45 -10 104 -35l-11 -18q-92 43 -192 43q-129 0 -220 -61t-91 -146q0 -65 54 -100q53 -35 152 -35q53 0 114 14q56 13 140 45q9 3 17 7q12 6 14 6z" />
<glyph unicode="&#xd7;" horiz-adv-x="0" />
<glyph unicode="&#xfd;" horiz-adv-x="0" />
<glyph unicode="&#xd8;" horiz-adv-x="457" d="M455 784l-13 -18q34 18 82 51q153 104 271 221q92 101 92 142q0 20 -25 20q-50 0 -156 -109t-251 -307zM61 317l254 345q-256 -174 -256 -318q0 -9 2 -27zM248 260v6q0 22 -22 35q-22 12 -64 12q-13 0 -31 -2l4 19q49 2 80 18t70 58l41 43q95 104 155 104q43 0 43 -39 q0 -24 -15 -42q-16 -19 -34 -19t-18 16q0 11 18 23q23 20 23 28q0 15 -17 15q-38 0 -100 -68l-37 -41q-71 -78 -127 -98q46 -13 57 -52q72 45 119 113l19 -10q-47 -66 -129 -119l-7 -4v-6q0 -35 -51 -100l-57 -72t-23 -39q0 -8 8 -16q7 -7 17 -7q53 0 147 82q66 58 183 197 l12 16l14 -12l-12 -14q-126 -153 -197 -211q-93 -78 -151 -78q-51 0 -51 49q0 26 17 55t63 78q32 35 45 60q-41 -19 -84 -19q-58 0 -90 39l-193 -258h-47l219 297q-6 24 -6 45q0 54 35 115t102 122q68 62 168 123l6 5l23 28l24 29l49 65q78 99 175 203q171 187 247 187 q39 0 39 -37q0 -35 -51 -103q-52 -67 -139 -139q-151 -127 -309 -219l-330 -447q27 -36 78 -36q41 0 92 22z" />
<glyph unicode="&#xd9;" d="M82 1352v-1338h655v1338h-655zM752 0h-684v1366h684v-1366z" />
<glyph unicode="&#xda;" d="M82 1352v-1338h655v1338h-655zM752 0h-684v1366h684v-1366z" />
<glyph unicode="&#xdb;" d="M82 1352v-1338h655v1338h-655zM752 0h-684v1366h684v-1366z" />
<glyph unicode="&#xdc;" horiz-adv-x="219" d="M471 788l-12 -18q37 19 96 59q53 36 104 76q50 39 93 78q68 63 108 117q41 53 41 78q0 8 -6 14t-16 6q-42 0 -113 -68q-54 -50 -131 -141q-112 -130 -164 -201zM319 647l33 39l-6 -2q-64 -43 -129 -104q-72 -68 -104 -113q-58 -76 -58 -139q0 -7 2 -21l4 6q5 6 29.5 38 l43.5 57l54 71l72 93q7 8 23 28.5zM72 260l-27 -37q-48 -64 -62 -86q-20 -31 -30 -53q-10 -21 -10 -37q0 -29 22 -29q32 0 97 58q64 57 145 153l53 64l14 18l15 -12l-8 -10l-106 -125q-42 -48 -77 -80q-92 -86 -137 -86q-19 0 -31 15q-12 14 -12 38q0 36 35 101 q33 61 90 137q-8 21 -8 39q0 106 168 262q115 104 190 149l4 2q5 8 54 68l63 78q61 76 158 182q139 148 211 148q41 0 41 -39q0 -31 -44 -87q-42 -55 -114 -121q-68 -62 -159 -127q-89 -63 -185 -118l-336 -446q6 -3 14 -3q57 0 152 113l12 -12q-36 -53 -85 -88 q-46 -33 -83 -33q-17 0 -24 4z" />
<glyph unicode="&#xdd;" horiz-adv-x="1679" d="M1625 1402l-129 -51l-8 18l115 76q53 35 78 35q10 0 16 -6q6 -7 6 -17q0 -14 -13 -23q-10 -8 -65 -32zM1270 741q57 93 57 164q0 74 -74 74q-62 0 -142 -36q-84 -39 -164 -104q-83 -67 -161 -157q-94 -105 -152 -222q-59 -120 -71 -222q102 1 230 66q129 65 249 172 q124 110 218 247q-14 2 -21 2q-80 0 -172 -56q-91 -57 -147 -143l-15 11q30 53 88 102q57 48 122 77q65 27 124 27q13 0 31 -2zM1518 332l-9 -15l13 11q45 42 119 121l139 159q70 86 104 131q35 48 74 109q36 57 55 94q17 37 17 51q0 19 -19 19q-20 0 -59 -39 q-101 -104 -223 -284q-61 -90 -112 -176.5t-99 -180.5zM1182 -207q-23 0 -95 8q-104 12 -165 17q-123 8 -154 8q-157 0 -294 -41q-136 -41 -212 -111q-78 -71 -78 -155q0 -51 33 -88q34 -40 93 -59q59 -21 139 -21q232 0 454 168q81 62 154 135q80 78 125 139zM1358 588v4 l-45 -49l-47 -49l-103 -111q-66 -69 -99 -113q-32 -42 -52 -84q-27 -54 -27 -86q0 -37 21 -63q96 62 178 159q81 95 128 199q46 102 46 193zM1364 664l4 4q118 124 163 205q44 82 44 163q0 84 -53 128q-52 42 -160 42q-112 0 -229 -40t-238 -116q-61 -39 -116 -83.5 t-103 -92.5q-78 -76 -140 -164q-58 -84 -90 -162q-32 -79 -32 -142q0 -52 13 -84q14 -35 41 -54q31 -21 73 -28v10q11 74 44 153q34 84 85 161q52 81 118 153q73 82 160 148q87 65 161 97q81 35 144 35q95 0 95 -90q0 -34 -15 -81q-17 -47 -43 -91q50 -17 74 -71zM983 23 l6 4q-26 26 -26 79q0 47 19 98t54 103q12 19 43 59q8 11 46 53q21 23 114 118l98 98q8 8 9 8l4 4q-21 56 -70 72l-4 -4l-8 -15q-43 -63 -112 -138q-66 -74 -132 -128q-250 -214 -465 -217v-4l-2 -6v-25q0 -108 54 -170q52 -61 149 -61q103 0 223 72zM1006 12l-7 -4 q-124 -78 -239 -78q-108 0 -165 67q-58 67 -58 185v33l2 4q-70 7 -109 57t-39 134q0 94 42 194q41 98 119 195q78 96 185 178q100 77 206 132q111 56 218 87q106 31 197 31q116 0 178 -50q61 -49 61 -145q0 -87 -56 -197q-57 -109 -159 -219l-4 -4v-22q0 -91 -46 -198 q-46 -106 -128 -205q-82 -98 -178 -162q15 -7 35 -7q53 0 157 65t218 167l16 12l5 5l9 9l2 5q72 143 174 307q51 83 115 172q62 88 121 158q99 112 137 112q15 0 24 -9q9 -10 9 -26q0 -61 -115 -221q-48 -70 -137 -178q-88 -105 -147 -164l-72 -72q-8 -10 -47 -47 q-47 -47 -48 -49.5t-4 -7.5q-5 -10 -8 -17q-7 -12 -11 -23q-7 -17 -19 -36q-29 -57 -56 -117q-59 -126 -73 -154q-23 -45 -56 -95l-4 -7h25q234 0 299 113l18 -8q-62 -125 -313 -125h-35h-6q-85 -127 -220 -233t-285 -164q-151 -60 -285 -60q-87 0 -152 24q-64 22 -99 66 q-34 43 -34 101q0 66 47 127q47 60 132 105q86 45 195 69q110 24 234 24q19 0 38.5 -1t54.5 -3.5t81 -5.5q10 0 22 -1.5t22 -2.5q6 -1 12.5 -1.5l13.5 -1t16 -1.5q56 -6 60 -6q20 -2 29 -3t17 -2q4 0 11 -0.5t11 -1.5q8 -1 20 -1q4 0 9 -0.5t7 -1.5q49 59 113 166t131 245 l2 6q-8 -8 -12 -11q-3 -3 -6.5 -5.5t-6.5 -5.5q-108 -97 -204 -152q-97 -57 -152 -57q-29 0 -55 14z" />
<glyph unicode="&#xdf;" horiz-adv-x="432" d="M-606 -133l8 -17q-35 -15 -35 -55q0 -29 25 -48q23 -19 61 -19q111 0 238 118q63 59 117 124q60 73 135 182l448 639q99 139 188 235q92 99 167 151q76 52 131 52q36 0 55 -19q18 -19 18 -57q0 -49 -31 -98q-33 -52 -98 -107q-68 -58 -182 -131q-85 -54 -123 -84 q-52 -37 -77 -82t-33 -114l-11 -103q-10 -93 -52 -188q-43 -93 -105 -160q-89 -88 -152 -88q-26 0 -39 16q-14 17 -14 43q0 42 30 94t82 100q53 50 109 77l8 -17q-49 -24 -101 -71q-49 -45 -78 -93q-30 -49 -30 -88q0 -41 33 -41q29 0 73 29q42 28 77 70q45 56 72 133 q26 77 42 192q15 104 30 147q14 44 48 87q34 44 133 110q156 107 225 175q127 118 127 198q0 47 -49 47q-71 0 -196 -119q-53 -50 -111.5 -122.5t-134.5 -184.5l-68 -100l-75 -113l-111 -165l-100 -144l-58 -80q-86 -120 -157 -205q-62 -72 -134 -135q-149 -131 -264 -131 q-48 0 -77 25q-31 25 -31 63q0 48 47 72z" />
<glyph unicode="&#xe0;" horiz-adv-x="481" d="M-57 53q0 -37 30 -37q45 0 151 93q108 94 204 217q106 134 106 180q0 29 -24 29q-36 0 -119 -64q-84 -63 -170 -154q-77 -80 -125 -152q-49 -75 -53 -112zM537 311l14 -12l-152 -172q-66 -69 -102 -95q-37 -28 -66 -28q-20 0 -34 14q-13 13 -13 35q0 46 54 140l-13 -11 q-55 -59 -135 -127q-77 -59 -117 -59q-25 0 -40 18q-15 17 -15 45q0 50 37 117q36 66 102 135q84 89 198 166q110 76 157 76q43 0 43 -45q0 -7 -6 -27l45 62h51q-8 -13 -8 -11l-31 -40l-35 -48l-25 -32l-176 -244q-61 -83 -61 -117q0 -28 24 -28q30 0 89 53q87 81 202 221z M551 692l-8 -14l-123 57q-41 21 -53 33q-11 9 -11 23q0 10 8 16t19 6q24 0 74 -41z" />
<glyph unicode="&#xe1;" horiz-adv-x="481" d="M-57 53q0 -37 30 -37q45 0 151 93q108 94 204 217q106 134 106 180q0 29 -24 29q-36 0 -119 -64q-84 -63 -170 -154q-77 -80 -125 -152q-49 -75 -53 -112zM537 311l14 -12l-152 -172q-66 -69 -102 -95q-37 -28 -66 -28q-20 0 -34 14q-13 13 -13 35q0 46 54 140l-13 -11 q-55 -59 -135 -127q-77 -59 -117 -59q-25 0 -40 18q-15 17 -15 45q0 50 37 117q36 66 102 135q84 89 198 166q110 76 157 76q43 0 43 -45q0 -7 -6 -27l45 62h51q-8 -13 -8 -11l-31 -40l-35 -48l-25 -32l-176 -244q-61 -83 -61 -117q0 -28 24 -28q30 0 89 53q87 81 202 221z M612 733l-129 -51l-8 18l115 76q53 35 78 35q10 0 16 -6q6 -7 6 -17q0 -14 -13 -23q-10 -8 -65 -32z" />
<glyph unicode="&#xe2;" horiz-adv-x="481" d="M-57 53q0 -37 30 -37q45 0 151 93q108 94 204 217q106 134 106 180q0 29 -24 29q-36 0 -119 -64q-84 -63 -170 -154q-77 -80 -125 -152q-49 -75 -53 -112zM537 311l14 -12l-152 -172q-66 -69 -102 -95q-37 -28 -66 -28q-20 0 -34 14q-13 13 -13 35q0 46 54 140l-13 -11 q-55 -59 -135 -127q-77 -59 -117 -59q-25 0 -40 18q-15 17 -15 45q0 50 37 117q36 66 102 135q84 89 198 166q110 76 157 76q43 0 43 -45q0 -7 -6 -27l45 62h51q-8 -13 -8 -11l-31 -40l-35 -48l-25 -32l-176 -244q-61 -83 -61 -117q0 -28 24 -28q30 0 89 53q87 81 202 221z M356 637l-10 16l275 201l-13 -205h-12l-25 121z" />
<glyph unicode="&#xe3;" horiz-adv-x="481" d="M-57 53q0 -37 30 -37q45 0 151 93q108 94 204 217q106 134 106 180q0 29 -24 29q-36 0 -119 -64q-84 -63 -170 -154q-77 -80 -125 -152q-49 -75 -53 -112zM537 311l14 -12l-152 -172q-66 -69 -102 -95q-37 -28 -66 -28q-20 0 -34 14q-13 13 -13 35q0 46 54 140l-13 -11 q-55 -59 -135 -127q-77 -59 -117 -59q-25 0 -40 18q-15 17 -15 45q0 50 37 117q36 66 102 135q84 89 198 166q110 76 157 76q43 0 43 -45q0 -7 -6 -27l45 62h51q-8 -13 -8 -11l-31 -40l-35 -48l-25 -32l-176 -244q-61 -83 -61 -117q0 -28 24 -28q30 0 89 53q87 81 202 221z M717 778l14 -8q-37 -78 -115 -78q-41 0 -115 33q-105 49 -131 49q-24 0 -40 -13q-19 -14 -35 -42l-21 8q20 36 51 55t66 19q44 0 170 -62q45 -20 74 -20q52 0 82 59z" />
<glyph unicode="&#xe4;" horiz-adv-x="481" d="M-57 53q0 -37 30 -37q45 0 151 93q108 94 204 217q106 134 106 180q0 29 -24 29q-36 0 -119 -64q-84 -63 -170 -154q-77 -80 -125 -152q-49 -75 -53 -112zM537 311l14 -12l-152 -172q-66 -69 -102 -95q-37 -28 -66 -28q-20 0 -34 14q-13 13 -13 35q0 46 54 140l-13 -11 q-55 -59 -135 -127q-77 -59 -117 -59q-25 0 -40 18q-15 17 -15 45q0 50 37 117q36 66 102 135q84 89 198 166q110 76 157 76q43 0 43 -45q0 -7 -6 -27l45 62h51q-8 -13 -8 -11l-31 -40l-35 -48l-25 -32l-176 -244q-61 -83 -61 -117q0 -28 24 -28q30 0 89 53q87 81 202 221z M604 721q0 26 21 45q23 29 47 29q22 0 22 -23q0 -26 -22 -51t-45 -25t-23 25zM389 723q0 21 21 43q26 29 47 29q24 0 24 -23q0 -26 -22 -51t-45 -25q-25 0 -25 27z" />
<glyph unicode="&#xe5;" horiz-adv-x="481" d="M-57 53q0 -37 30 -37q45 0 151 93q108 94 204 217q106 134 106 180q0 29 -24 29q-36 0 -119 -64q-84 -63 -170 -154q-77 -80 -125 -152q-49 -75 -53 -112zM537 311l14 -12l-152 -172q-66 -69 -102 -95q-37 -28 -66 -28q-20 0 -34 14q-13 13 -13 35q0 46 54 140l-13 -11 q-55 -59 -135 -127q-77 -59 -117 -59q-25 0 -40 18q-15 17 -15 45q0 50 37 117q36 66 102 135q84 89 198 166q110 76 157 76q43 0 43 -45q0 -7 -6 -27l45 62h51q-8 -13 -8 -11l-31 -40l-35 -48l-25 -32l-176 -244q-61 -83 -61 -117q0 -28 24 -28q30 0 89 53q87 81 202 221z M485 692q0 -30 29 -30q40 0 96 65q33 45 33 70q0 12 -8 23q-9 9 -23 9q-38 0 -88 -59q-39 -42 -39 -78zM456 707q0 30 23 65q21 31 58 55q35 21 71 21q55 0 55 -47q0 -46 -45 -96q-50 -62 -106 -62q-25 0 -40 18q-16 17 -16 46z" />
<glyph unicode="&#xe6;" horiz-adv-x="668" d="M578 518q-22 17 -54 17q-79 0 -182 -58q-105 -59 -215 -168q-79 -78 -127 -147q-47 -70 -47 -107q0 -30 29 -30q41 0 145 86q26 21 72 64q52 49 69 71l27 28l27 31l24 27q62 69 135 123q63 46 97 63zM588 496q-40 -23 -104 -81q-66 -61 -99 -106q107 28 213 97 q102 68 102 114q0 12 -20 12q-36 0 -74 -24v-12q0 -46 -43 -86l-12 12q34 41 37 74zM723 311l14 -12l-8 -8l-41 -51q-69 -83 -174 -160q-106 -78 -186 -78q-40 0 -69 29q-28 28 -28 73q0 25 23 97q-2 -3 -6 -7l-2.5 -2.5l-3.5 -3.5l-41 -38q-46 -41 -71 -61q-42 -35 -67 -52 q-50 -35 -90 -35q-55 0 -55 66q0 70 63 158q59 86 173 173q84 68 189 112q104 42 179 42q54 0 70 -27q55 29 100 29q43 0 43 -31q0 -27 -38 -67q-35 -38 -109 -82q-99 -59 -228 -92l-4 -9q-90 -115 -90 -186q0 -31 18 -48q19 -17 46 -17q60 0 164 68q49 33 96 74.5t86 88.5 l39 47z" />
<glyph unicode="&#xe7;" horiz-adv-x="358" d="M41 0l-47 -45q36 12 63 12q37 0 57 -16q21 -17 21 -43q0 -47 -54 -83t-124 -36q-72 0 -127 49l10 10q55 -38 109 -38q57 0 100 31t43 71q0 35 -43 35q-44 0 -88 -25l-12 10l69 68q-67 12 -67 90q0 70 53 153q53 84 152 169q74 68 138 105q65 38 99 38q35 0 35 -35 q0 -29 -22 -57q-19 -25 -39 -25q-19 0 -19 17q0 15 19 28q34 25 34 41q0 13 -12 13q-26 0 -90 -46q-61 -44 -123 -106q-52 -52 -95 -105q-47 -57 -71 -102q-33 -60 -33 -102q0 -23 16 -39q15 -17 38 -17q66 0 169 78q102 77 214 213l14 -12l-12 -14q-99 -122 -203 -202 q-104 -79 -172 -83z" />
<glyph unicode="&#xe8;" horiz-adv-x="393" d="M106 303q77 24 153 66q74 39 124 83q47 41 47 66q0 19 -22 19q-18 0 -50 -16q-29 -15 -61 -38q-59 -43 -109 -91t-82 -89zM451 311l12 -12l-8 -12q-107 -128 -219 -209q-112 -80 -181 -80q-42 0 -68 30q-26 29 -26 78q0 148 219 326q64 53 131 89q68 36 107 36 q45 0 45 -35q0 -32 -51 -79q-53 -47 -136 -90q-90 -46 -178 -70l-10 -2q-94 -125 -94 -195q0 -66 63 -66q41 0 109 38q64 36 144 106q77 68 141 147zM541 692l-8 -14l-123 57q-41 21 -53 33q-11 9 -11 23q0 10 8 16t19 6q24 0 74 -41z" />
<glyph unicode="&#xe9;" horiz-adv-x="393" d="M106 303q77 24 153 66q74 39 124 83q47 41 47 66q0 19 -22 19q-18 0 -50 -16q-29 -15 -61 -38q-59 -43 -109 -91t-82 -89zM451 311l12 -12l-8 -12q-107 -128 -219 -209q-112 -80 -181 -80q-42 0 -68 30q-26 29 -26 78q0 148 219 326q64 53 131 89q68 36 107 36 q45 0 45 -35q0 -32 -51 -79q-53 -47 -136 -90q-90 -46 -178 -70l-10 -2q-94 -125 -94 -195q0 -66 63 -66q41 0 109 38q64 36 144 106q77 68 141 147zM581 733l-129 -51l-8 18l115 76q53 35 78 35q10 0 16 -6q6 -7 6 -17q0 -14 -13 -23q-10 -8 -65 -32z" />
<glyph unicode="&#xea;" horiz-adv-x="393" d="M106 303q77 24 153 66q74 39 124 83q47 41 47 66q0 19 -22 19q-18 0 -50 -16q-29 -15 -61 -38q-59 -43 -109 -91t-82 -89zM451 311l12 -12l-8 -12q-107 -128 -219 -209q-112 -80 -181 -80q-42 0 -68 30q-26 29 -26 78q0 148 219 326q64 53 131 89q68 36 107 36 q45 0 45 -35q0 -32 -51 -79q-53 -47 -136 -90q-90 -46 -178 -70l-10 -2q-94 -125 -94 -195q0 -66 63 -66q41 0 109 38q64 36 144 106q77 68 141 147zM305 637l-10 16l275 201l-13 -205h-12l-25 121z" />
<glyph unicode="&#xeb;" horiz-adv-x="393" d="M106 303q77 24 153 66q74 39 124 83q47 41 47 66q0 19 -22 19q-18 0 -50 -16q-29 -15 -61 -38q-59 -43 -109 -91t-82 -89zM451 311l12 -12l-8 -12q-107 -128 -219 -209q-112 -80 -181 -80q-42 0 -68 30q-26 29 -26 78q0 148 219 326q64 53 131 89q68 36 107 36 q45 0 45 -35q0 -32 -51 -79q-53 -47 -136 -90q-90 -46 -178 -70l-10 -2q-94 -125 -94 -195q0 -66 63 -66q41 0 109 38q64 36 144 106q77 68 141 147zM528 721q0 26 21 45q23 29 47 29q22 0 22 -23q0 -26 -22 -51t-45 -25t-23 25zM313 723q0 21 21 43q26 29 47 29 q24 0 24 -23q0 -26 -22 -51t-45 -25q-25 0 -25 27z" />
<glyph unicode="&#xec;" horiz-adv-x="219" d="M274 311l13 -12q-13 -15 -27 -33q-18 -23 -49 -57q-108 -118 -150 -152q-59 -53 -100 -53q-47 0 -47 47q0 36 37 101q31 55 61 99l148 202q37 48 61 82l6 8l52 2l-9 -10q-5 -6 -80 -109l-36 -48l-33 -42q-184 -241 -184 -289q0 -22 24 -22q51 0 160 114q30 30 115 127 q33 38 38 45zM367 692l-8 -14l-123 57q-41 21 -53 33q-11 9 -11 23q0 10 8 16t19 6q24 0 74 -41z" />
<glyph unicode="&#xed;" horiz-adv-x="219" d="M274 311l13 -12q-13 -15 -27 -33q-18 -23 -49 -57q-108 -118 -150 -152q-59 -53 -100 -53q-47 0 -47 47q0 36 37 101q31 55 61 99l148 202q37 48 61 82l6 8l52 2l-9 -10q-5 -6 -80 -109l-36 -48l-33 -42q-184 -241 -184 -289q0 -22 24 -22q51 0 160 114q30 30 115 127 q33 38 38 45zM436 733l-129 -51l-8 18l115 76q53 35 78 35q10 0 16 -6q6 -7 6 -17q0 -14 -13 -23q-10 -8 -65 -32z" />
<glyph unicode="&#xee;" horiz-adv-x="219" d="M274 311l13 -12q-13 -15 -27 -33q-18 -23 -49 -57q-108 -118 -150 -152q-59 -53 -100 -53q-47 0 -47 47q0 36 37 101q31 55 61 99l148 202q37 48 61 82l6 8l52 2l-9 -10q-5 -6 -80 -109l-36 -48l-33 -42q-184 -241 -184 -289q0 -22 24 -22q51 0 160 114q30 30 115 127 q33 38 38 45zM178 637l-10 16l275 201l-13 -205h-12l-25 121z" />
<glyph unicode="&#xef;" horiz-adv-x="219" d="M274 311l13 -12q-13 -15 -27 -33q-18 -23 -49 -57q-108 -118 -150 -152q-59 -53 -100 -53q-47 0 -47 47q0 36 37 101q31 55 61 99l148 202q37 48 61 82l6 8l52 2l-9 -10q-5 -6 -80 -109l-36 -48l-33 -42q-184 -241 -184 -289q0 -22 24 -22q51 0 160 114q30 30 115 127 q33 38 38 45zM407 721q0 26 21 45q23 29 47 29q22 0 22 -23q0 -26 -22 -51t-45 -25t-23 25zM192 723q0 21 21 43q26 29 47 29q24 0 24 -23q0 -26 -22 -51t-45 -25q-25 0 -25 27z" />
<glyph unicode="&#xf1;" horiz-adv-x="643" d="M698 311l15 -12l-15 -16q-126 -151 -213 -222q-80 -65 -129 -65q-55 0 -55 57q0 56 96 162l148 160q78 84 78 125q0 13 -10 20q-11 8 -23 8q-54 0 -184 -116q-99 -89 -156 -160q-70 -87 -113 -148l-67 -94v0l-1 -1t-1.5 -2t-1.5 -2l-2 -2l-3 -3h-47l262 365q72 98 72 133 q0 16 -6 23q-7 7 -20 7q-22 0 -54 -23q-33 -25 -92 -87q-65 -70 -127 -144l-6 -6l-14 13l6 4q37 46 55 65q108 121 153 158q45 39 79 39q20 0 34 -14q13 -13 13 -35q0 -56 -60 -148q60 63 125 113q105 84 160 84q25 0 41 -16t16 -42q0 -63 -110 -184l-133 -145 q-76 -80 -76 -117q0 -27 26 -27q25 0 71 29q47 31 91 72q74 69 166 180zM836 778l14 -8q-37 -78 -115 -78q-41 0 -115 33q-105 49 -131 49q-24 0 -40 -13q-19 -14 -35 -42l-21 8q20 36 51 55t66 19q44 0 170 -62q45 -20 74 -20q52 0 82 59z" />
<glyph unicode="&#xf2;" horiz-adv-x="432" d="M180 137q-24 19 -34 38q-9 18 -9 44q0 38 20 89q20 50 50 89l26 35q4 4 6 7q1 2 2.5 3.5t2.5 3.5l-8 -8q-99 -92 -156 -166q-121 -151 -121 -219q0 -15 9 -27t24 -12q35 0 123 68l42 35.5t23 19.5zM195 154q56 51 111 123q55 71 91 136q35 64 35 93q0 22 -22 22 q-33 0 -79 -31t-89 -83q-38 -47 -61 -100q-23 -54 -23 -93q0 -45 37 -67zM203 129l-4 -2q-83 -76 -128 -104q-47 -29 -79 -29q-28 0 -44 19q-18 18 -18 50q0 69 53 154q53 83 152 170q86 76 164 119q77 43 121 43q47 0 47 -47q0 -49 -73 -153q-73 -105 -169 -199l-4 -5h19 q109 0 241 156l6 10l15 -12q-8 -12 -13 -14q-69 -84 -127 -121t-120 -37q-21 0 -39 2zM514 692l-8 -14l-123 57q-41 21 -53 33q-11 9 -11 23q0 10 8 16t19 6q24 0 74 -41z" />
<glyph unicode="&#xf3;" horiz-adv-x="432" d="M180 137q-24 19 -34 38q-9 18 -9 44q0 38 20 89q20 50 50 89l26 35q4 4 6 7q1 2 2.5 3.5t2.5 3.5l-8 -8q-99 -92 -156 -166q-121 -151 -121 -219q0 -15 9 -27t24 -12q35 0 123 68l42 35.5t23 19.5zM195 154q56 51 111 123q55 71 91 136q35 64 35 93q0 22 -22 22 q-33 0 -79 -31t-89 -83q-38 -47 -61 -100q-23 -54 -23 -93q0 -45 37 -67zM203 129l-4 -2q-83 -76 -128 -104q-47 -29 -79 -29q-28 0 -44 19q-18 18 -18 50q0 69 53 154q53 83 152 170q86 76 164 119q77 43 121 43q47 0 47 -47q0 -49 -73 -153q-73 -105 -169 -199l-4 -5h19 q109 0 241 156l6 10l15 -12q-8 -12 -13 -14q-69 -84 -127 -121t-120 -37q-21 0 -39 2zM606 733l-129 -51l-8 18l115 76q53 35 78 35q10 0 16 -6q6 -7 6 -17q0 -14 -13 -23q-10 -8 -65 -32z" />
<glyph unicode="&#xf4;" horiz-adv-x="432" d="M180 137q-24 19 -34 38q-9 18 -9 44q0 38 20 89q20 50 50 89l26 35q4 4 6 7q1 2 2.5 3.5t2.5 3.5l-8 -8q-99 -92 -156 -166q-121 -151 -121 -219q0 -15 9 -27t24 -12q35 0 123 68l42 35.5t23 19.5zM195 154q56 51 111 123q55 71 91 136q35 64 35 93q0 22 -22 22 q-33 0 -79 -31t-89 -83q-38 -47 -61 -100q-23 -54 -23 -93q0 -45 37 -67zM203 129l-4 -2q-83 -76 -128 -104q-47 -29 -79 -29q-28 0 -44 19q-18 18 -18 50q0 69 53 154q53 83 152 170q86 76 164 119q77 43 121 43q47 0 47 -47q0 -49 -73 -153q-73 -105 -169 -199l-4 -5h19 q109 0 241 156l6 10l15 -12q-8 -12 -13 -14q-69 -84 -127 -121t-120 -37q-21 0 -39 2zM313 637l-10 16l275 201l-13 -205h-12l-25 121z" />
<glyph unicode="&#xf5;" horiz-adv-x="432" d="M180 137q-24 19 -34 38q-9 18 -9 44q0 38 20 89q20 50 50 89l26 35q4 4 6 7q1 2 2.5 3.5t2.5 3.5l-8 -8q-99 -92 -156 -166q-121 -151 -121 -219q0 -15 9 -27t24 -12q35 0 123 68l42 35.5t23 19.5zM195 154q56 51 111 123q55 71 91 136q35 64 35 93q0 22 -22 22 q-33 0 -79 -31t-89 -83q-38 -47 -61 -100q-23 -54 -23 -93q0 -45 37 -67zM203 129l-4 -2q-83 -76 -128 -104q-47 -29 -79 -29q-28 0 -44 19q-18 18 -18 50q0 69 53 154q53 83 152 170q86 76 164 119q77 43 121 43q47 0 47 -47q0 -49 -73 -153q-73 -105 -169 -199l-4 -5h19 q109 0 241 156l6 10l15 -12q-8 -12 -13 -14q-69 -84 -127 -121t-120 -37q-21 0 -39 2zM666 778l14 -8q-37 -78 -115 -78q-41 0 -115 33q-105 49 -131 49q-24 0 -40 -13q-19 -14 -35 -42l-21 8q20 36 51 55t66 19q44 0 170 -62q45 -20 74 -20q52 0 82 59z" />
<glyph unicode="&#xf6;" horiz-adv-x="432" d="M180 137q-24 19 -34 38q-9 18 -9 44q0 38 20 89q20 50 50 89l26 35q4 4 6 7q1 2 2.5 3.5t2.5 3.5l-8 -8q-99 -92 -156 -166q-121 -151 -121 -219q0 -15 9 -27t24 -12q35 0 123 68l42 35.5t23 19.5zM195 154q56 51 111 123q55 71 91 136q35 64 35 93q0 22 -22 22 q-33 0 -79 -31t-89 -83q-38 -47 -61 -100q-23 -54 -23 -93q0 -45 37 -67zM203 129l-4 -2q-83 -76 -128 -104q-47 -29 -79 -29q-28 0 -44 19q-18 18 -18 50q0 69 53 154q53 83 152 170q86 76 164 119q77 43 121 43q47 0 47 -47q0 -49 -73 -153q-73 -105 -169 -199l-4 -5h19 q109 0 241 156l6 10l15 -12q-8 -12 -13 -14q-69 -84 -127 -121t-120 -37q-21 0 -39 2zM538 721q0 26 21 45q23 29 47 29q22 0 22 -23q0 -26 -22 -51t-45 -25t-23 25zM323 723q0 21 21 43q26 29 47 29q24 0 24 -23q0 -26 -22 -51t-45 -25q-25 0 -25 27z" />
<glyph unicode="&#xf7;" horiz-adv-x="705" d="M836 737l14 8q169 100 293 218q145 142 145 204q0 23 -24 23q-29 0 -79 -44q-54 -47 -145 -153q-128 -143 -204 -256zM672 520l-455 -614q43 45 98 96l68 61l57 52q79 75 122.5 123t72.5 88q59 83 59 145q0 30 -22 49zM367 518l-453 -604q5 5 7 6t5 4l64 62q31 31 65 59 q173 149 264 270q66 86 66 156q0 34 -18 47zM674 967l4 4q-66 8 -82 8q-84 0 -153 -28q-70 -28 -111 -77t-41 -104q0 -11 8 -45l6 2q48 4 92 13q26 5 115 34l4 2q8 8 8 10l8 11q9 9 34 40l48 58q29 38 60 72zM725 987l-4 -4l6 -2q17 -4 21 -6l-9 -17q-8 4 -13 5q-2 1 -6 1.5 t-7 0.5l-6 2l-5 -4l-51 -64l-32.5 -41.5l-40.5 -52.5q37 12 104 52q66 38 121 81q77 62 126 126q50 65 50 103q0 23 -23 23q-27 0 -74 -39q-53 -46 -124 -127q-29 -31 -33 -37zM649 551l86 115l-4 -2q-50 -18 -95 -31q-37 -10 -69 -15q-28 -4 -75 -4q-37 0 -52 4l-61 -81 q27 -22 27 -66q0 -36 -15 -74q63 78 122 118t110 40q5 0 26 -4zM414 643l20 29l23 26l20 27q3 3 5 5.5t6 8.5q7 8 8 11l-4 -2q-46 -17 -89 -26q-41 -9 -88 -13l-6 -2q34 -47 105 -64zM526 733l-73 -98q22 -2 47 -2q97 0 190 37l33 12q15 5 33 12q26 34 39 49q58 78 127 158 q132 159 213 229q86 78 135 78q39 0 39 -43q0 -37 -57 -111q-57 -73 -150 -153q-95 -81 -195 -143l-37 -23l-42 -24q-18 -11 -21 -13l-123 -159q31 -25 31 -68q0 -77 -86 -186q-59 -75 -176 -183l-60 -53q-106 -98 -157 -149q-52 -52 -107 -117q-56 -67 -127 -164l-203 -272 h-45l879 1188h-12q-42 0 -96 -36q-57 -39 -111 -104l-29 -33l-33 -38l-45 -56q-21 -30 -104 -114q-41 -41 -140 -127q-179 -155 -321 -344l-250 -336h-47l881 1181q-24 -1 -68 -32q-40 -29 -86 -78l-12 12q45 51 92 84q50 33 80 33h8l12 16l38.5 53l8.5 11q-81 24 -112 78 h-43q-159 0 -262 64q-105 63 -105 159q0 64 53 120q52 55 145 87t197 32q79 0 164 -17q83 -17 125 -42l-8 -18q-59 27 -130 42q-73 15 -153 15q-158 0 -266 -63q-108 -64 -108 -156q0 -87 99 -146q98 -59 247 -59q19 0 37 2q-9 26 -9 41q0 46 26 89q26 42 71 74 q46 32 104 50q59 18 125 18q20 0 90 -8h6l4 4q116 125 171 171t91 46q39 0 39 -39q0 -42 -38 -98q-38 -54 -104 -114q-64 -58 -144 -108q-85 -53 -158 -79l-8 -12q-4 -6 -7 -10l-6 -9q-1 -2 -3 -4t-3 -4z" />
<glyph unicode="&#xf8;" horiz-adv-x="432" d="M160 252l256 197l2 4q14 34 14 53q0 22 -22 22q-44 0 -97 -43t-97 -108q-42 -63 -56 -125zM-27 109l164 127q3 38 22 80q20 44 48 81l26 35q8 11 9 14l-6 -8l-50 -45q-73 -73 -127 -145q-60 -80 -86 -139zM137 213l-174 -133q-4 -25 -4 -27q0 -39 31 -39q37 0 125 68 l42 35.5t23 19.5q-25 21 -32 34q-10 14 -11 42zM397 414l-239 -185q-2 -6 -2 -10q0 -42 39 -65q54 49 114 127q65 84 88 133zM567 543l-110 -84q-16 -39 -55 -97q-39 -56 -86 -113t-95 -104h19q57 0 121 43q65 44 126 123l15 -12q-139 -172 -260 -172q-21 0 -39 2l-4 -2 q-76 -70 -125 -101q-50 -32 -82 -32q-52 0 -62 61l-96 -73l-10 12l106 82q13 128 156 268q90 87 186 146q97 59 148 59q47 0 47 -47q0 -7 -2 -17l90 70z" />
<glyph unicode="&#xf9;" horiz-adv-x="629" d="M684 311l14 -12q-9 -9 -55 -68q-49 -61 -88 -102q-42 -44 -86 -80q-58 -49 -90 -49q-45 0 -45 47q0 60 55 148l-10 -13q-68 -78 -145 -133q-76 -53 -121 -53q-26 0 -43 18q-17 17 -17 45q0 41 35 94q34 51 123 142l72 74q4 5 10.5 12l40.5 45q32 35 44 52q9 14 9 30 q0 24 -33 24q-59 0 -170 -108q-74 -74 -131 -145l-14 12q76 95 151 164q106 98 172 98q27 0 44 -14q16 -13 16 -37q0 -35 -43 -90q-27 -35 -141 -154q-94 -98 -122 -134q-34 -43 -34 -73q0 -35 35 -35q36 0 109 53q71 53 153 144l65 75l101 122q65 80 100 133h53 q-8 -8 -10 -13l-65 -88l-84 -108q-105 -134 -145 -197q-36 -58 -36 -92q0 -27 19 -27q28 0 96 62q56 50 86 86q19 19 72 82l49 57zM625 692l-8 -14l-123 57q-41 21 -53 33q-11 9 -11 23q0 10 8 16t19 6q24 0 74 -41z" />
<glyph unicode="&#xfa;" horiz-adv-x="629" d="M684 311l14 -12q-9 -9 -55 -68q-49 -61 -88 -102q-42 -44 -86 -80q-58 -49 -90 -49q-45 0 -45 47q0 60 55 148l-10 -13q-68 -78 -145 -133q-76 -53 -121 -53q-26 0 -43 18q-17 17 -17 45q0 41 35 94q34 51 123 142l72 74q4 5 10.5 12l40.5 45q32 35 44 52q9 14 9 30 q0 24 -33 24q-59 0 -170 -108q-74 -74 -131 -145l-14 12q76 95 151 164q106 98 172 98q27 0 44 -14q16 -13 16 -37q0 -35 -43 -90q-27 -35 -141 -154q-94 -98 -122 -134q-34 -43 -34 -73q0 -35 35 -35q36 0 109 53q71 53 153 144l65 75l101 122q65 80 100 133h53 q-8 -8 -10 -13l-65 -88l-84 -108q-105 -134 -145 -197q-36 -58 -36 -92q0 -27 19 -27q28 0 96 62q56 50 86 86q19 19 72 82l49 57zM733 733l-129 -51l-8 18l115 76q53 35 78 35q10 0 16 -6q6 -7 6 -17q0 -14 -13 -23q-10 -8 -65 -32z" />
<glyph unicode="&#xfb;" horiz-adv-x="629" d="M684 311l14 -12q-9 -9 -55 -68q-49 -61 -88 -102q-42 -44 -86 -80q-58 -49 -90 -49q-45 0 -45 47q0 60 55 148l-10 -13q-68 -78 -145 -133q-76 -53 -121 -53q-26 0 -43 18q-17 17 -17 45q0 41 35 94q34 51 123 142l72 74q4 5 10.5 12l40.5 45q32 35 44 52q9 14 9 30 q0 24 -33 24q-59 0 -170 -108q-74 -74 -131 -145l-14 12q76 95 151 164q106 98 172 98q27 0 44 -14q16 -13 16 -37q0 -35 -43 -90q-27 -35 -141 -154q-94 -98 -122 -134q-34 -43 -34 -73q0 -35 35 -35q36 0 109 53q71 53 153 144l65 75l101 122q65 80 100 133h53 q-8 -8 -10 -13l-65 -88l-84 -108q-105 -134 -145 -197q-36 -58 -36 -92q0 -27 19 -27q28 0 96 62q56 50 86 86q19 19 72 82l49 57zM479 637l-10 16l275 201l-13 -205h-12l-25 121z" />
<glyph unicode="&#xfc;" horiz-adv-x="629" d="M684 311l14 -12q-9 -9 -55 -68q-49 -61 -88 -102q-42 -44 -86 -80q-58 -49 -90 -49q-45 0 -45 47q0 60 55 148l-10 -13q-68 -78 -145 -133q-76 -53 -121 -53q-26 0 -43 18q-17 17 -17 45q0 41 35 94q34 51 123 142l72 74q4 5 10.5 12l40.5 45q32 35 44 52q9 14 9 30 q0 24 -33 24q-59 0 -170 -108q-74 -74 -131 -145l-14 12q76 95 151 164q106 98 172 98q27 0 44 -14q16 -13 16 -37q0 -35 -43 -90q-27 -35 -141 -154q-94 -98 -122 -134q-34 -43 -34 -73q0 -35 35 -35q36 0 109 53q71 53 153 144l65 75l101 122q65 80 100 133h53 q-8 -8 -10 -13l-65 -88l-84 -108q-105 -134 -145 -197q-36 -58 -36 -92q0 -27 19 -27q28 0 96 62q56 50 86 86q19 19 72 82l49 57zM715 721q0 26 21 45q23 29 47 29q22 0 22 -23q0 -26 -22 -51t-45 -25t-23 25zM500 723q0 21 21 43q26 29 47 29q24 0 24 -23q0 -26 -22 -51 t-45 -25q-25 0 -25 27z" />
<glyph unicode="&#xff;" horiz-adv-x="602" d="M154 -164q-3 -2 -5.5 -3t-4.5 -2q-4 -2 -5 -3l-51 -31l-94 -57q-128 -78 -219 -150q-131 -101 -131 -172q0 -41 41 -41q51 0 124 52q76 53 148 135q42 46 137 180q25 35 60 92zM201 -135l-63 -113q-32 -57 -64 -101q-31 -44 -60 -75q-55 -61 -118 -114q-59 -50 -115 -77 q-55 -28 -94 -28q-66 0 -66 63q0 42 34 85q35 46 109 104q22 18 77.5 55l123.5 80q132 84 199 121l14 10l8 14q13 19 37 60l49 84l62 106l-17 -14q-129 -129 -208 -129q-58 0 -58 59q0 55 53 123q50 62 136 148q85 85 113 120q30 38 30 60t-33 22q-49 0 -118 -57 q-69 -56 -175 -186l-14 -17l-12 13q107 136 188 202q83 66 137 66q26 0 42 -13t16 -36q0 -38 -37 -84q-22 -29 -103 -115l-38.5 -41.5l-20.5 -21.5q-29 -31 -42 -46q-26 -28 -32 -34q-61 -70 -61 -111q0 -12 10 -22q9 -11 21 -11q43 0 128 67q84 66 160 157q40 68 80 122 l43 60q65 84 86 107q21 24 33 24q7 0 11 -3q3 -4 3 -11q0 -16 -45 -76q-32 -47 -127 -158q-26 -34 -63 -70q-1 -3 -3 -7q-1 -3 -3 -5l-56 -84l-67 -114q-43 -69 -51 -84q0 -2 -11 -19l-8 -20l4 4q93 64 150 110q51 40 108 101q94 99 174 196l13 -12q-9 -12 -13 -16l-69 -84 q-52 -64 -136 -142q-86 -80 -153 -125l-88 -61l-4 -4h-3l-1 -0.5t-2 -1.5zM698 721q0 26 21 45q23 29 47 29q22 0 22 -23q0 -26 -22 -51t-45 -25t-23 25zM483 723q0 21 21 43q26 29 47 29q24 0 24 -23q0 -26 -22 -51t-45 -25q-25 0 -25 27z" />
<glyph unicode="&#x131;" horiz-adv-x="219" d="M274 311l13 -12q-13 -15 -27 -33q-18 -23 -49 -57q-108 -118 -150 -152q-59 -53 -100 -53q-47 0 -47 47q0 36 37 101q31 55 61 99l148 202q37 48 61 82l6 8l52 2l-9 -10q-5 -6 -80 -109l-36 -48l-33 -42q-184 -241 -184 -289q0 -22 24 -22q51 0 160 114q30 30 115 127 q33 38 38 45z" />
<glyph unicode="&#x2c6;" horiz-adv-x="549" d="M147 637l-10 16l275 201l-13 -205h-12l-25 121z" />
<glyph unicode="&#x2da;" horiz-adv-x="479" d="M166 692q0 -30 29 -30q40 0 96 65q33 45 33 70q0 12 -8 23q-9 9 -23 9q-38 0 -88 -59q-39 -42 -39 -78zM137 707q0 30 23 65q21 31 58 55q35 21 71 21q55 0 55 -47q0 -46 -45 -96q-50 -62 -106 -62q-25 0 -40 18q-16 17 -16 46z" />
<glyph unicode="&#x2dc;" horiz-adv-x="729" d="M578 778l14 -8q-37 -78 -115 -78q-41 0 -115 33q-105 49 -131 49q-24 0 -40 -13q-19 -14 -35 -42l-21 8q20 36 51 55t66 19q44 0 170 -62q45 -20 74 -20q52 0 82 59z" />
<glyph unicode="&#x410;" horiz-adv-x="1782" d="M760 702l-4 -4q53 -1 172 -24q136 -25 313 -88l51 -19l4 4l7 7q167 167 182 321q-51 -17 -110 -47q-53 -28 -97 -62q-42 -34 -61 -65l-17 8q34 51 109 102q76 50 170 80l6 3q-8 56 -38 81q-31 25 -93 25q-104 0 -242 -68q-95 -45 -179 -106q-81 -59 -173 -148zM741 680 h-4q-60 -60 -118 -138q-58 -77 -100 -154q-41 -72 -62 -140q34 -8 86 -8q126 0 257 35q127 34 245 100t208 153l7 7l-46 16q-130 52 -264 89q-125 34 -209 40zM2036 793l-39 -54l-39 -53l-131 -170l-8 -10l-9 -12q112 31 178 94q64 61 64 133q0 37 -16 72zM1278 526l-4 -4 q-103 -97 -222 -164q-125 -69 -249 -103q-127 -36 -258 -36q-30 0 -94 8q-21 -63 -21 -139q0 -203 203 -203q150 0 325 115q64 43 125 93t133 119t142 146l51 56l49 55q-73 15 -180 57zM1511 907l-6 -2q-3 -71 -50 -161q-47 -87 -136 -179l-6 -6q11 -4 10 -4l10 -4 q67 -25 135 -43l15 -4l6 -2l22 24l174 183q89 91 205 198l6 4q-81 29 -172 29q-47 0 -108 -8q-60 -9 -105 -25zM422 254q29 121 131 262q38 51 79 98q43 50 64 68l-6 2h-39q-127 0 -221 -31q-97 -31 -152 -88q-55 -56 -55 -127q0 -62 54 -112t145 -72zM2028 842l26 32l27 33 l153 180l90 109q-175 -79 -387 -276l-4 -5q52 -25 95 -73zM1735 479l4 4l43 58l14 17t9 11l7 9l12 14.5t11 14.5l43 54l37 44l49 61l51 61q-38 48 -96 74l-6 -4q-142 -137 -256 -264q-24 -25 -60 -66q-50 -54 -55 -59l-12 -16q79 -17 147 -17q39 0 58 4zM1712 449l4 6l-6 -2 q-30 -2 -70 -2q-20 0 -65 3q-49 3 -68 7h-6l-47 -55q-475 -541 -819 -541q-229 0 -229 241q0 80 10 123l2 7q-101 24 -156 79q-57 54 -57 125q0 76 58 135q56 59 161 94q104 33 235 33h50h6l4 5q87 81 168 139q80 59 170 106q88 47 160 68q73 22 137 22q136 0 149 -118 q61 19 114 26q58 8 107 8q103 0 187 -32l4 4q141 128 261 207q119 77 198 94l-2 -2l-2 -2q-1 -2 -3 -4l-67 -86q-22 -27 -27 -34q-10 -12 -13.5 -17.5t-6.5 -8.5q-5 -5 -88 -112q-10 -12 -19.5 -26t-36.5 -50l-30 -39l-31 -41q23 -46 23 -88q0 -84 -74 -152 q-76 -68 -207 -104l-47 -59l-45 -62l-20 -26.5l-15 -19.5l-19.5 -27l-17.5 -23q-61 -84 -73 -103q-25 -36 -37 -60q-11 -22 -11 -38q0 -22 21 -22q76 0 301 274l10 12l14 -12l-10 -14q-230 -281 -315 -281q-45 0 -45 49q0 43 58 143q54 96 173 253z" />
<glyph unicode="&#x411;" horiz-adv-x="2013" d="M1075 -127q-122 0 -207 82l-6 -4q-164 -76 -330 -76q-86 0 -158.5 24t-125 65.5t-82 98.5t-29.5 123q0 43 14.5 86t40.5 79.5t63.5 62.5t84.5 35l2 -17q-38 -6 -71.5 -29t-58.5 -57t-39.5 -76t-14.5 -86q0 -56 25.5 -107.5t73 -92t115.5 -64.5t154 -24q160 0 322 71l6 2 q-88 94 -94 264h-37q-56 0 -100.5 16.5t-76 47t-48.5 73t-17 95.5q0 94 44 199q44 101 125 196q40 48 86.5 89.5t101.5 78.5q153 106 330.5 159t385.5 52q170 0 373 -43l152 -29q18 9 16 9l35 18q45 23 92.5 35t99.5 12q86 0 86 -47q0 -17 -14 -30t-40 -22.5t-62.5 -14.5 t-81.5 -5q-35 0 -72.5 3t-75.5 8q-52 -33 -99.5 -73t-92.5 -85q-24 -24 -50.5 -54l-54 -64l-55 -68.5l-51.5 -67.5l-119 -158q-4 -5 -7.5 -10t-7.5 -10q51 36 100.5 54.5t91.5 25.5t74.5 6t50.5 -5q36 -8 66 -26.5t51.5 -45.5t33 -60.5t11.5 -69.5q0 -44 -14.5 -91.5 t-40.5 -95t-62 -93t-78 -84.5t-90 -72.5t-98 -57.5t-100.5 -37t-98.5 -13q-45 0 -77.5 18.5t-47.5 52.5q-92 -76 -222 -76zM780 236v-5q0 -35 6.5 -71t18.5 -70t29 -63t38 -50l5 3q149 71 292 215l59.5 62.5l44.5 49.5q2 2 16.5 20.5l37 47.5l51 65l58 74l58 74.5l51.5 66 l38 48.5l18 23l74.5 87l71.5 78q61 62 105.5 102.5l75.5 66.5t51 40.5l34 25.5l15 11l-21 2q-14 2 -36.5 6t-49.5 8l-131 25q-82 16 -156 22.5t-141 7.5q-363 0 -649 -198q-156 -109 -250 -257t-94 -288q0 -51 17 -91t47 -67t71.5 -41t91.5 -14h35q4 63 19 125t43 124 q27 61 64.5 119t86.5 113q99 111 210 180q111 66 191 68q99 0 99 -98q0 -87 -92 -221q-91 -131 -238 -252q-44 -36 -92.5 -66t-96.5 -52t-93.5 -36.5t-82.5 -19.5zM893 -35l-6 -2q79 -69 188 -69q33 0 59 3.5t50 12t49 23.5t56 38q-3 15 -3 32q0 45 22.5 100.5t63 111.5 t96.5 105.5t122 82.5q34 17 66.5 26t61.5 9q42 0 65.5 -19t23.5 -55q0 -27 -14.5 -60.5t-38 -68t-53.5 -66.5t-61 -56l-14 16q36 27 65.5 58.5t50.5 63t32.5 60.5t11.5 51q0 55 -70 55q-57 0 -121 -32t-124 -93q-160 -154 -160 -287q0 -104 111 -104q58 0 120 26t121 70 t112 101.5t92.5 120.5t62.5 127t23 122t-38.5 96t-104 45.5t-152 -22.5t-183.5 -109q-74 -94 -139.5 -167.5t-125.5 -127.5q-74 -69 -152.5 -123t-164.5 -95zM782 256q177 29 355 174q96 79 165 160q75 88 113.5 164t38.5 131q0 38 -20 57t-58 19q-74 0 -184 -68 q-108 -68 -203 -176q-94 -105 -146 -225q-26 -61 -42 -119.5t-19 -116.5zM2116 1161q73 -12 135 -12q135 0 135 47q0 25 -57 25q-25 0 -53 -4t-56 -12t-55 -19t-49 -25z" />
<glyph unicode="&#x412;" horiz-adv-x="1878" d="M1405 489l-8 -12l8 6q259 187 407 361q76 89 76 127q0 20 -20 20q-53 0 -193 -143q-67 -70 -130 -154q-61 -79 -140 -205zM463 373q50 129 153 257q103 127 246 239q55 43 98.5 72.5t105 65t105.5 56.5l7 4q-56 25 -127 25q-112 0 -225 -48q-112 -48 -201 -129 q-91 -85 -142 -185q-53 -104 -53 -206q0 -89 33 -151zM475 315l-2 -6q-35 -96 -35 -184q0 -113 55 -178q56 -66 148 -66q85 0 179 45q92 43 175 123q56 52 105 115l18 23.5l48.5 63l78.5 101.5l2 4l-4 -2q-102 -55 -183 -87q-81 -33 -157 -48q-74 -16 -151 -16 q-59 0 -110 12q-51 10 -92 36t-75 64zM1227 1065l-4 -2q80 -68 80 -176q0 -100 -63 -201q-62 -99 -161 -151l-8 16q59 30 107 86q48 55 76 122q28 65 28 128q0 53 -21 96q-20 42 -59 70l-6 -4q-152 -75 -292 -190q-73 -59 -135.5 -122.5t-115.5 -127.5q-108 -134 -166 -267 l-2 -6q85 -115 267 -115q203 0 465 141q35 18 59 33l59 82q66 87 68 90q28 36 41 54q65 82 133 156.5t120 122.5q119 110 171 110q19 0 30 -10q11 -11 11 -27q0 -76 -183 -252q-87 -84 -177.5 -156.5t-186.5 -134.5q-74 -109 -132 -178q-63 -75 -153 -162 q-115 -112 -226 -169q-114 -60 -210 -60q-107 0 -165 73q-60 72 -60 201q0 112 37 213q-43 73 -43 174q0 144 93 282q45 66 107 123.5t135 99.5q148 85 302 85q95 0 153 -35l4 2q98 47 202 82q96 32 195 50q90 16 185 16q99 0 169 -27q69 -28 106 -82q36 -54 36 -129 q0 -100 -68 -204q-66 -101 -179 -176t-226 -91q62 -14 99 -62q38 -50 38 -116q0 -77 -45 -163q-46 -87 -120 -158q-73 -72 -161 -115q-85 -43 -165 -43q-51 0 -83 30q-32 29 -32 80q0 58 38 132q38 73 105 137q53 53 113 84q59 30 109 30q35 0 55 -17t20 -48q0 -47 -42 -112 q-43 -66 -99 -109l-12 14q61 48 97 105q38 59 38 100q0 49 -59 49q-48 0 -101 -28q-54 -28 -106 -83q-135 -135 -135 -252q0 -92 94 -92q65 0 145 46q82 48 148 120q68 71 111 165q44 96 44 169q0 61 -43 95t-125 34q-8 0 -14 -2h-12l8 16q59 3 117 18q60 14 106 36 q82 39 151 112q68 72 108 162q40 87 40 170q0 184 -276 184q-116 0 -258 -35q-136 -33 -265 -94z" />
<glyph unicode="&#x413;" horiz-adv-x="1747" d="M782 256q177 29 355 174q96 79 165 160q75 88 113.5 164t38.5 131q0 38 -20 57t-58 19q-74 0 -184 -68q-108 -68 -203 -176q-94 -105 -146 -225q-26 -61 -42 -119.5t-19 -116.5zM2116 1161q73 -12 135 -12q135 0 135 47q0 25 -57 25q-25 0 -53 -4t-56 -12t-55 -19 t-49 -25zM780 236v-5q0 -35 6.5 -71t18.5 -70t29 -63t38 -50l5 3q149 71 292 215l59.5 62.5l44.5 49.5q2 2 16.5 20.5l37 47.5l51 65l58 74l58 74.5l51.5 66l38 48.5l18 23l74.5 87l71.5 78q61 62 105.5 102.5l75.5 66.5t51 40.5l34 25.5l15 11l-21 2q-14 2 -36.5 6t-49.5 8 l-131 25q-82 16 -156 22.5t-141 7.5q-363 0 -649 -198q-156 -109 -250 -257t-94 -288q0 -51 17 -91t47 -67t71.5 -41t91.5 -14h35q4 63 19 125t43 124q27 61 64.5 119t86.5 113q99 111 210 180q111 66 191 68q99 0 99 -98q0 -87 -92 -221q-91 -131 -238 -252 q-44 -36 -92.5 -66t-96.5 -52t-93.5 -36.5t-82.5 -19.5zM893 -35l-6 -2q79 -69 188 -69q34 0 60.5 3.5t51.5 13t51.5 25.5t59.5 41l13 -16q-97 -88 -236 -88q-122 0 -207 82l-6 -4q-164 -76 -330 -76q-86 0 -158.5 24t-125 65.5t-82 98.5t-29.5 123q0 43 14.5 86t40.5 79.5 t63.5 62.5t84.5 35l2 -17q-38 -6 -71.5 -29t-58.5 -57t-39.5 -76t-14.5 -86q0 -56 25.5 -107.5t73 -92t115.5 -64.5t154 -24q160 0 322 71l6 2q-88 94 -94 264h-37q-56 0 -100.5 16.5t-76 47t-48.5 73t-17 95.5q0 94 44 199q44 101 125 196q40 48 86.5 89.5t101.5 78.5 q153 106 330.5 159t385.5 52q170 0 373 -43l152 -29q18 9 16 9l35 18q45 23 92.5 35t99.5 12q86 0 86 -47q0 -17 -14 -30t-40 -22.5t-62.5 -14.5t-81.5 -5q-35 0 -72.5 3t-75.5 8q-52 -33 -99.5 -73t-92.5 -85q-24 -24 -50.5 -54l-54 -64l-55 -68.5l-51.5 -67.5l-119 -158 q-187 -249 -330 -380q-74 -69 -152.5 -123t-164.5 -95z" />
<glyph unicode="&#x414;" horiz-adv-x="1821" d="M772 -88q-14 4 -42 13l-58 16q-50 14 -51 14q-76 21 -127 30q-52 9 -107 9q-63 0 -98 -15t-35 -42q0 -29 62 -49q60 -19 157 -19q173 0 299 43zM1247 891q-28 31 -76 31q-61 0 -143 -55q-83 -56 -151 -140q-80 -95 -125 -202q-45 -106 -45 -201q0 -115 59 -195 q125 45 244 156q117 109 191 250q73 139 73 258q0 49 -17 81q-138 -113 -188 -301l-20 2q15 65 43 121q29 57 66 104q42 52 89 91zM1087 61l-4 -4q153 44 285 155q134 113 213 262q80 149 80 292q0 24 -6 57q-32 -37 -41 -51l-61 -89l-93 -146q-131 -220 -200 -301 q-76 -97 -173 -175zM1047 29l-7 -4q-86 -64 -178 -103q108 -31 219 -31q74 0 152 23q75 22 147 68q70 45 136 112q105 107 178 218q73 112 109 221q36 108 36 215q0 98 -41 192l-2 4l-6 -2q-78 -58 -117 -100q6 -43 6 -82q0 -118 -52 -238q-53 -122 -143 -226 q-89 -103 -203 -174q-112 -70 -234 -93zM1665 866q58 58 123 97q-55 114 -175 178q-120 63 -282 63q-124 0 -244 -37q-125 -38 -236 -109q-59 -37 -108.5 -78.5t-93.5 -88.5q-116 -125 -179 -262q-64 -135 -64 -264q0 -79 30 -136q27 -56 85 -89q55 -31 128 -31q45 0 96 14 q-59 82 -59 199q0 111 52 225q53 116 147 219q73 82 152 130q76 46 139 46q51 0 90 -39q48 38 109 60q59 22 114 22q132 0 176 -119zM1026 45l4 4q122 110 268 332l101 156q132 200 246 309l4 4q-37 115 -160 115q-110 0 -213 -76q20 -37 20 -94q0 -91 -42 -195 q-42 -105 -117 -204q-77 -101 -166 -173q-92 -74 -191 -110q71 -72 185 -72q13 0 61 4zM995 23q-12 -3 -32 -3q-59 0 -116 23q-55 22 -89 61l-6 -2q-60 -16 -109 -16q-122 0 -194 85q-72 86 -72 228q0 99 31 193q32 97 94 188q65 94 147 166q94 85 208 147q112 62 237 97 q123 33 235 33q168 0 290 -64q122 -65 187 -184l4 2l15 10q121 68 217 68q71 0 117 -34q45 -34 51 -93l-19 -4q-9 55 -47 84q-38 28 -104 28q-103 0 -225 -80q51 -109 51 -241q0 -115 -39 -232q-41 -120 -115 -225q-75 -106 -180 -195q-117 -97 -240 -146q-126 -50 -252 -50 q-113 0 -233 35q-76 -26 -161 -41q-88 -15 -171 -15q-111 0 -176 25q-66 24 -66 66q0 38 43 57q45 20 121 20q61 0 153 -16q93 -16 175 -39l88 -22q0 -1 21 -7q108 55 161 93z" />
<glyph unicode="&#x415;" horiz-adv-x="1296" d="M1153 1016q50 -52 78 -129l8 2l8 2q121 22 199 41q95 23 168 56q69 31 110 69q39 38 39 73q0 72 -141 72q-128 0 -255 -50q-123 -48 -214 -136zM1139 999l-4 -4q-61 -65 -82 -139l14 2q14 2 38 6q7 2 18.5 4t25.5 4l29 5l30 6q-24 68 -69 116zM471 76q7 -87 66 -140 t147 -53q105 0 220 71q114 72 187 177q74 107 74 205q0 51 -20 88l-2 -4q-69 -104 -170 -185q-97 -78 -212 -121q-114 -42 -224 -42q-47 0 -66 4zM1214 864l-32 -6q-3 0 -7.5 -0.5t-6.5 -1.5q-2 0 -5 -1t-6.5 -1.5t-7.5 -1.5q-40 -7 -50 -8q-20 -4 -32 -6l-16 -2 q-7 -18 -7 -27q0 -45 24 -77q23 -32 75 -56h14l41 4h21h6q6 44 6 72q0 53 -17 112zM420 115v9q0 2 -0.5 3.5t-1.5 1.5q0 93 50 187q50 92 136 165q86 74 204 123q116 48 245 62l43 6h14q-97 49 -106 153h-7q-109 -20 -266 -73q-143 -51 -238 -118q-97 -67 -148 -150 q-52 -82 -52 -173q0 -42 15 -80t45 -68q28 -29 67 -48zM1145 465q24 39 44 89q21 52 28 89q-26 4 -38 7q-9 3 -16 4t-8 1q-79 -3 -160 -19q-85 -16 -145 -42q-104 -40 -192 -119q-89 -80 -138 -175q-51 -97 -51 -191v-11q41 -6 72 -6q81 0 162 25q82 24 161 70 q78 45 145 109q66 61 119 142l5 4q-44 47 -113 47q-107 0 -208 -86t-130 -202l-18 4q10 71 66 145q56 72 137 116q80 44 157 44q70 0 121 -45zM1163 453l-2 -7q37 -49 37 -127q0 -77 -44 -157q-47 -82 -121 -148q-76 -69 -170 -111q-93 -42 -179 -42q-103 0 -174 62 q-72 63 -88 167q-69 31 -109 91q-41 61 -41 132q0 107 72 206q71 98 203 173q105 59 270 109q14 4 23.5 6t18 4.5t25 7t29.5 7.5q56 14 84 18l7 2q9 92 98 178l4 4q-34 29 -81 46q-45 16 -101 16q-85 0 -159 -36q-73 -36 -117 -95q-44 -61 -44 -130v-6l-18 -2q0 81 45 147 q44 65 122 104q78 38 171 38q113 0 198 -66q64 54 146 94q86 42 176 64q95 23 178 23q81 0 128 -26q46 -27 46 -71q0 -53 -67 -102q-70 -52 -193 -91q-131 -42 -287 -65q-6 -1 -8.5 -2.5t-3.5 -1.5q14 -58 14 -114q0 -23 -4 -64v-8h4h2q82 0 82 -23q0 -18 -55 -18 q-19 0 -41 2q-18 -95 -76 -188z" />
<glyph unicode="&#x416;" horiz-adv-x="2266" d="M2174 540q-18 -27 -43.5 -70t-52.5 -94l-54 -105.5t-48.5 -103.5t-35.5 -88.5t-15 -60.5q-3 -51 35 -51q14 0 28 4.5t34.5 19t50 40.5l75.5 69q11 9 25 22l32 31t40.5 43l52.5 59l15 -12q-140 -152 -224.5 -225.5t-131.5 -73.5q-32 0 -48.5 27.5t-12.5 75.5 q4 49 32 128.5t83 188.5q29 57 66.5 116t81.5 119q-60 -8 -108.5 -9t-71.5 1l-33 3l-81 -145q-76 -137 -144 -241.5t-131 -179.5q-64 -78 -132 -141t-148 -115l-34 -22q-77 -49 -156 -78.5t-161 -41.5q-85 -12 -160 2t-132.5 48.5t-94.5 87t-46 118.5q-4 29 -1 64 q-26 35 -40 83t-14 108q0 13 1 31.5t3 42.5l2 6q-116 26 -181 84.5t-65 136.5q0 48 26.5 95t75 87t118 71t155.5 47q43 8 99 13.5t126 8.5h7l2 2q88 73 198 135q106 60 212 96q107 35 175 35q21 0 50 -8l4 6q37 42 81.5 78t90.5 62.5t90 41.5t80 15q54 0 82 -34t28 -93 q0 -60 -21 -127t-62 -145q-19 -35 -46.5 -79l-62.5 -98q44 -8 86 -13.5t84 -9.5l58.5 91l57.5 83q52 70 90.5 116l65.5 76t45 47l30 29l15 14l14 10.5l20.5 16l18 15l7.5 6.5l33 21q41 29 86.5 48t96.5 26q4 -8 5 -9t0.5 -0.5t0 -0.5l4.5 -9q-24 -3 -51.5 -11t-54.5 -19.5 t-52 -26.5t-45 -31q-22 -15 -51.5 -40.5t-60 -56t-59 -62.5t-47.5 -59l-41 -60.5l-44.5 -69.5l-45 -73.5l-42.5 -73.5q59 -4 114.5 -2.5t106.5 9.5q46 60 96.5 118.5l101 113l100 103l94.5 89.5q123 111 217 170t167 70q48 8 80 -9.5t36 -59.5q4 -36 -33 -94l-15 12 q30 49 27 76q-3 31 -26.5 46.5t-63.5 8.5q-76 -12 -173 -73.5t-219 -188.5l-59 -65l-82 -95l-90 -107l-83 -100q75 19 136.5 53.5t109.5 89.5l-13 -30q-21 -30 -50 -54t-63.5 -42t-72 -30.5t-75.5 -21.5l-38 -47.5zM1266 -232q34 22 71 51t73.5 63t71.5 72.5t65 79.5 l50.5 69.5t37.5 55.5q2 3 18.5 31l40.5 70l53 92.5l57 98.5l51 88l36 61l-173 18l-8 -8q-5 -6 -18.5 -23.5l-32.5 -41l-40.5 -50l-41 -50.5l-35 -43l-22.5 -27l-4 -4q33 9 65.5 26.5t62 39.5t54 47t39.5 51l16 -11q-15 -29 -44 -58.5t-65 -54t-75.5 -42.5t-75.5 -25l-6 -6 q-5 -6 -26 -26.5l-46 -45.5l-48.5 -49t-35.5 -35q-106 -103 -214 -178q-110 -77 -205 -113q-100 -38 -183 -38q-57 0 -103.5 18.5t-80.5 54.5q-1 -11 -0.5 -20.5t2.5 -19.5q8 -55 40 -103t84.5 -81.5t123 -48t156.5 -2.5q161 23 309 113zM522 215l-6 2q-5 -23 -7.5 -49 t-2.5 -55q0 -77 25 -127q7 31 21 60t34 53.5t46.5 43.5t58.5 30l5 -16q-30 -9 -55 -28.5t-44.5 -46t-32.5 -59t-17 -66.5q28 -40 73.5 -61t108.5 -21q213 0 471 234q-1 -1 12 12l34.5 34l48 47.5l51.5 52l46 47.5t31 34q-118 20 -155 135l-6 -4q-77 -63 -156 -111 q-80 -48 -156 -75q-93 -35 -180 -53t-172 -17q-14 0 -33 1t-43 3zM1255 487l7 5q-9 25 -9 67q0 58 21 133l-6 2q-13 3 -43.5 8t-63.5 11t-62.5 10.5t-39.5 6.5q-47 6 -94 8.5t-95 4.5h-12l-4 -4l-81 -81.5t-63 -69.5q-52 -63 -96 -139q-35 -59 -59 -111.5t-35 -101.5h6 l43 -3.5t29 -1.5q86 0 173 18q82 16 174 53q45 18 86 38.5t79 43.5q37 21 73 47.5zM1671 653l6 -2l4 6q115 157 171 270q55 110 55 183q0 46 -23 72t-65 26q-34 0 -74 -13.5t-82 -38.5t-85 -60t-83 -78q61 -28 61 -107q0 -98 -86 -223l54 -10q23 -5 59.5 -11zM479 242 q23 119 115 260q91 139 213 237l4 2h-6q-81 -2 -152.5 -13t-134.5 -31q-126 -40 -196 -105.5t-70 -149.5q0 -36 17.5 -68t48 -58.5t72 -45.5t89.5 -28zM1280 725h4l2 4q21 57 53.5 112t75.5 111l43 56q-15 4 -33 4q-97 0 -223 -56q-31 -13 -70.5 -33l-78 -41.5t-69.5 -41 t-46 -31.5l-55 -45h6q35 0 74 -2t84 -6q115 -11 210 -27zM1288 489l-4 -4q20 -66 57.5 -93.5t100.5 -33.5q53 58 99 116.5l91 117.5l19 22l2 7h-6q-111 13 -189 30l-12 2q-25 -33 -65.5 -76t-92.5 -88zM1305 721l6 -2q37 -5 62.5 -10.5l39.5 -8.5l39 -8q35 57 60.5 111.5 t25.5 103.5q0 74 -57 94l-4 -4q-75 -92 -108 -144q-32 -50 -64 -132zM1278 506l4 4q45 40 80 77t61 72l-123 27l-6 2q-20 -65 -20 -127q0 -14 1 -27.5t3 -27.5z" />
<glyph unicode="&#x417;" horiz-adv-x="1335" d="M1145 187q-12 -20 -34 -45.5t-53 -56.5q16 -51 16 -113q0 -61 -17 -125.5t-52 -130.5l18 -2q22 -2 42 -3.5t39 -1.5q165 0 228 87l17 -10q-39 -52 -102 -73t-138 -21q-28 0 -56 3t-57 5q-10 -17 -21 -34t-24 -33q-54 -77 -135 -136t-175.5 -98.5t-197 -59.5t-200.5 -20 q-80 0 -146 14t-113 40t-72.5 64.5t-25.5 88.5q0 60 38.5 111.5t107.5 90t164 60.5t208 22q29 0 59 -2l62 -4q16 -2 36 -4t49.5 -6.5t71 -12.5t100.5 -21q39 -9 56 -12l35 -7q3 -2 21.5 -4.5l67.5 -9.5q91 127 91 262q0 20 -3.5 39.5t-9.5 39.5q-27 -26 -57 -51t-61.5 -48 t-62 -41.5t-57.5 -30.5q-71 -34 -148 -34q-46 0 -84 16t-65.5 45.5t-42.5 72t-15 96.5q0 81 24 153q-96 46 -96 185q0 33 7 70.5t20.5 77t32 78.5t41.5 75q46 73 111 141q80 81 171 146q46 34 94.5 63t102.5 54q48 23 97.5 42.5t103.5 34.5q99 27 187 27q67 0 115.5 -15 t79.5 -43t45.5 -68t14.5 -89q0 -105 -33 -207t-92 -197.5t-140 -183.5t-178 -166q-33 -27 -72.5 -54t-78.5 -47q16 -15 24.5 -31t22.5 -36q23 23 43 46t37 48q38 47 67.5 98.5t49.5 104.5q10 26 18 58t12.5 66t3.5 67.5t-10 61.5q-23 55 -73 68l-20 2q-7 1 -12 2t-9 -1 q-40 -2 -84 -19.5t-85.5 -46.5t-78 -67.5t-61.5 -81.5l-16 10q20 40 56 79t80 70.5t92.5 51.5t94.5 23h15.5t16.5 -1l20 -5q49 -12 77 -66l18 -52l1 -21q2 -46 -7 -96t-29 -104q-20 -55 -49 -108t-67 -105zM1021 115q-11 22 -33 41l-4 4q-39 -22 -79 -34t-69 -12 q-19 0 -30.5 5.5t-18 14t-9 17.5t-2.5 16q0 13 8 23.5t21 17t29.5 10t33.5 3.5q34 0 62.5 -8.5t50.5 -23.5l1 -1q37 22 75.5 47.5t74 52t67 53t55.5 51.5q67 70 121.5 146t92.5 158.5t59 172.5t21 188q0 85 -48.5 124.5t-156.5 39.5q-113 0 -249 -51q-72 -26 -138.5 -62.5 t-130.5 -82.5q-100 -72 -179 -148.5t-137 -161.5q-25 -36 -46 -76.5t-36 -80t-23.5 -75.5t-8.5 -63q0 -26 6.5 -50.5t18 -45t26.5 -35.5t33 -22q46 130 136 260q96 137 205 243q54 54 111 99t117 79q57 32 105.5 49t93.5 17q42 0 65 -22.5t23 -67.5q0 -52 -24.5 -109 t-70.5 -120q-90 -126 -215 -233q-130 -111 -251 -169q-66 -32 -120 -47.5t-103 -15.5q-36 0 -62 10l-2 -8q-21 -72 -21 -135q0 -93 41 -143l42 -40q40 -31 107 -31q72 0 149 36q48 22 108.5 64.5t120.5 102.5l-6 14t-7 15zM906 -286q-11 1 -45.5 8l-74 15.5t-73 15 t-41.5 8.5l-96 15t-66 9t-51 4.5t-50 1.5q-111 0 -203.5 -20.5t-159 -56.5t-103.5 -84.5t-37 -104.5q0 -45 27 -79.5t72 -58t104 -35.5t124 -12q101 0 204 29t197.5 79t175 116.5t137.5 141.5l1 1q-11 2 -21 3.5t-21 3.5zM498 259q33 -9 53 -9q103 0 238 72q69 36 135 86 t135 113q148 136 216 270q19 37 29.5 70.5t10.5 62.5q0 70 -72 70q-80 0 -201 -76q-61 -38 -123 -88.5t-125 -116.5q-209 -212 -296 -454zM940 187q-18 8 -37.5 13t-39.5 5q-33 0 -50.5 -11t-17.5 -25t12 -25t29 -11q25 0 53.5 13t70.5 30q-9 6 -20 11z" />
<glyph unicode="&#x418;" horiz-adv-x="1745" d="M1425 195q9 6 17 14l37 43l65 67q7 11 21 26q11 14 34 40q4 4 16 18q6 8 11 14t10 11l125 145q28 33 74 96l92 131q45 67 62 99q36 68 36 88q0 21 -16 21t-51 -27q-38 -32 -79 -78q-42 -47 -103 -129q-66 -90 -86 -120q-31 -45 -57 -87l-26.5 -43l-31.5 -51l-39 -63 q-72 -124 -111 -215zM1251 741l2 7q60 99 60 163q0 34 -20 52q-19 18 -60 18q-90 0 -226 -86q-67 -43 -133 -100.5t-122 -120.5q-57 -62 -108 -137q-50 -74 -85 -148q-32 -67 -53 -143q18 -2 33 -2q210 0 446 205q132 110 211 213q6 9 10.5 14t8.5 11q8 11 24 36h-14 q-47 0 -106 -27q-58 -27 -117 -75q-60 -50 -99 -103l-16 10q42 59 101 108q65 53 125 79q63 28 114 28q10 0 24 -2zM1333 567l-4 -6l-22 -24q-11 -15 -31 -36q-34 -36 -37 -40q-3 -3 -23 -25t-24 -26q-94 -103 -135 -153q-46 -57 -73 -96q-33 -48 -48 -81q-31 -62 -31 -111 v-4l4 4q71 48 145 122q79 81 140 167q64 93 96 164q31 68 43 145zM1352 653q47 52 98 119q64 90 95 153q28 57 28 107q0 88 -57 134q-56 46 -164 46q-164 0 -365 -99q-202 -99 -356 -255q-238 -244 -238 -448q0 -61 25 -102q26 -42 67 -54q67 232 254 436q83 92 174 162 t176 109q85 38 146 38q48 0 73 -22t25 -66q0 -73 -57 -168l-2 -6q59 -18 78 -84zM883 -49q-2 14 -2 33q0 93 65 200q29 47 64 92q35 46 98 117l33.5 37.5t19.5 21.5l36.5 38.5l78.5 82.5q52 53 55 58l4 4q-15 68 -73 84l-2 -4q-50 -78 -139 -168q-93 -96 -193 -170 q-89 -68 -193 -112q-102 -42 -186 -42q-35 0 -51 4q-17 -73 -17 -141q0 -97 50 -153t135 -56q101 0 217 74zM889 -72q-125 -71 -225 -71q-94 0 -148 63q-55 62 -55 172q0 66 16 133l2 6q-52 19 -81 71t-29 126q0 239 249 473q78 72 174 134q99 62 193 105q90 41 195 68 q99 25 178 25q107 0 171 -54q64 -55 64 -147q0 -51 -21 -113q-23 -63 -61 -120q-66 -102 -149 -199l-4 -4q-6 -82 -44 -172q-40 -90 -120 -203q-63 -84 -139 -159q-83 -80 -148 -121q18 -64 72 -64q55 0 147 58q96 60 199 157l14 12q26 75 60 147q31 66 86 162 q47 81 112 174q63 89 117 154q72 91 137 163q55 60 98 92q37 28 64 28q31 0 31 -35q0 -52 -137 -252q-26 -38 -97 -133q-38 -51 -133 -164q-87 -102 -182 -202l-51 -54l-23 -24l-8 -10q-3 -3 -6 -6.5t-8 -8.5l-2 -6q-43 -111 -61 -191q-21 -86 -21 -159q0 -97 50 -156 t134 -59q79 0 167 57q89 58 171 160l12 -10q-70 -100 -169 -164q-97 -64 -181 -64q-66 0 -113 33q-49 34 -74 94q-26 63 -26 144q0 47 9 103q8 55 30 140l2 6l-6 -4q-75 -64 -147 -116q-62 -44 -111 -65q-45 -19 -84 -19q-64 0 -90 69z" />
<glyph unicode="&#x419;" horiz-adv-x="1743" d="M1425 195q9 6 17 14l37 43l65 67q7 11 21 26q11 14 34 40q4 4 16 18q6 8 11 14t10 11l125 145q28 33 74 96l92 131q45 67 62 99q36 68 36 88q0 21 -16 21t-51 -27q-38 -32 -79 -78q-42 -47 -103 -129q-66 -90 -86 -120q-31 -45 -57 -87l-26.5 -43l-31.5 -51l-39 -63 q-72 -124 -111 -215zM1251 741l2 7q60 99 60 163q0 34 -20 52q-19 18 -60 18q-90 0 -226 -86q-67 -43 -133 -100.5t-122 -120.5q-57 -62 -108 -137q-50 -74 -85 -148q-32 -67 -53 -143q18 -2 33 -2q210 0 446 205q132 110 211 213q6 9 10.5 14t8.5 11q8 11 24 36h-14 q-47 0 -106 -27q-58 -27 -117 -75q-60 -50 -99 -103l-16 10q42 59 101 108q65 53 125 79q63 28 114 28q10 0 24 -2zM1333 567l-4 -6l-22 -24q-11 -15 -31 -36q-34 -36 -37 -40q-3 -3 -23 -25t-24 -26q-94 -103 -135 -153q-46 -57 -73 -96q-33 -48 -48 -81q-31 -62 -31 -111 v-4l4 4q71 48 145 122q79 81 140 167q64 93 96 164q31 68 43 145zM1352 653q47 52 98 119q64 90 95 153q28 57 28 107q0 88 -57 134q-56 46 -164 46q-164 0 -365 -99q-202 -99 -356 -255q-238 -244 -238 -448q0 -61 25 -102q26 -42 67 -54q67 232 254 436q83 92 174 162 t176 109q85 38 146 38q48 0 73 -22t25 -66q0 -73 -57 -168l-2 -6q59 -18 78 -84zM883 -49q-2 14 -2 33q0 93 65 200q29 47 64 92q35 46 98 117l33.5 37.5t19.5 21.5l36.5 38.5l78.5 82.5q52 53 55 58l4 4q-15 68 -73 84l-2 -4q-50 -78 -139 -168q-93 -96 -193 -170 q-89 -68 -193 -112q-102 -42 -186 -42q-35 0 -51 4q-17 -73 -17 -141q0 -97 50 -153t135 -56q101 0 217 74zM889 -72q-125 -71 -225 -71q-94 0 -148 63q-55 62 -55 172q0 66 16 133l2 6q-52 19 -81 71t-29 126q0 239 249 473q78 72 174 134q99 62 193 105q90 41 195 68 q99 25 178 25q107 0 171 -54q64 -55 64 -147q0 -51 -21 -113q-23 -63 -61 -120q-66 -102 -149 -199l-4 -4q-6 -82 -44 -172q-40 -90 -120 -203q-63 -84 -139 -159q-83 -80 -148 -121q18 -64 72 -64q55 0 147 58q96 60 199 157l14 12q26 75 60 147q31 66 86 162 q47 81 112 174q63 89 117 154q72 91 137 163q55 60 98 92q37 28 64 28q31 0 31 -35q0 -52 -137 -252q-26 -38 -97 -133q-38 -51 -133 -164q-87 -102 -182 -202l-51 -54l-23 -24l-8 -10q-3 -3 -6 -6.5t-8 -8.5l-2 -6q-43 -111 -61 -191q-21 -86 -21 -159q0 -97 50 -156 t134 -59q79 0 167 57q89 58 171 160l12 -10q-70 -100 -169 -164q-97 -64 -181 -64q-66 0 -113 33q-49 34 -74 94q-26 63 -26 144q0 47 9 103q8 55 30 140l2 6l-6 -4q-75 -64 -147 -116q-62 -44 -111 -65q-45 -19 -84 -19q-64 0 -90 69zM1756 1166q20 8 42.5 8h33.5 q13 0 40.5 -4.5t56 -10l52 -10t28.5 -4.5q42 0 80 19.5t66.5 48.5t45.5 62.5t17 60.5q0 15 -11 26t-26 11q-24 0 -51 -15.5t-51.5 -41.5t-43 -59t-26.5 -69l-19 5q5 30 23.5 64.5t45.5 64t59.5 49.5t64.5 20q55 0 55 -55q0 -26 -17.5 -64.5t-49.5 -74.5t-76.5 -62t-98.5 -26 q-44 0 -106 20l-25 10q-17 7 -31.5 11t-27.5 4q-35 0 -82 -29l-10 16z" />
<glyph unicode="&#x41a;" horiz-adv-x="1985" d="M2212 868l-4 -4q-67 -54 -112 -83q-49 -32 -102 -52t-110 -29q78 -25 78 -108q0 -19 -6 -43q117 43 187 123q71 82 71 172q0 10 -2 24zM805 711l-6 -4h6q51 -4 128 -17q65 -13 169 -36q103 -25 209 -54l14 -4l14 -4l4 4q77 82 125 171q45 86 45 155q0 48 -33 76 q-32 28 -91 28q-83 0 -181 -40q-96 -38 -223 -124l-6 -4q40 -70 145 -70q72 0 144 32q69 31 118 89l17 -8q-49 -61 -124 -97t-155 -36q-118 0 -159 78q-94 -66 -160 -135zM489 260l-2 -6q53 -8 103 -8q126 0 259 42t265 124q72 44 123 85q54 44 86 78l-20 5q-145 42 -240 63 q-152 34 -275 43l-6 2l-26 -29l-25 -26q-92 -100 -149 -188q-58 -88 -93 -185zM1505 483l33 41l-6 2l-12.5 3l-19.5 4.5l-17.5 4t-18.5 3.5q-20 4 -26.5 5.5t-14 3t-8.5 1.5l-57 14q-1 0 -3.5 1.5t-8.5 2.5q-102 -105 -227 -180q-127 -76 -269 -120q-143 -44 -266 -44 q-53 0 -103 8q-24 -69 -24 -143q0 -99 57 -154q56 -55 156 -55q80 0 186 39q107 39 199 100q60 44 116 92t111 107l107 119l86 102zM1989 1051h4l4 4q101 87 147 112l-8 -2q-90 -18 -168 -18q-96 0 -188 16l-94 17q-113 22 -197 22q-129 0 -251 -42q-121 -42 -195 -111 q-74 -71 -74 -144q0 -17 4 -26l4 4q116 76 227 121q107 43 187 43q65 0 105 -34t40 -89q0 -70 -44 -156q-45 -87 -128 -176l-4 -4q3 0 5.5 -0.5t3.5 -1.5q3 0 5.5 -0.5t3.5 -1.5q6 -2 7 -2q2 0 3.5 -0.5t2.5 -1.5l30 -9q4 -1 101 -22q6 -1 16 -3q4 -1 14 -3l19 22l16 23 q5 5 34 42q21 29 56 71l28.5 37l25.5 33q23 29 24 30q114 138 213 227l4 4q-90 -3 -176 -53t-145 -133l-15 8q30 52 91 100q60 46 127 71q70 26 135 26zM1606 532q80 -16 151 -16q68 0 148 19l6 2q20 34 20 67q0 90 -123 90q-25 0 -53 -2l12 23h23q69 0 115 9q45 7 92 30 q47 22 90 55q40 29 115 98q-18 54 -68 87q-50 32 -127 38l-4 -4q-33 -33 -98 -113q-4 -6 -18.5 -22.5t-74.5 -89.5l-41 -53q-22 -28 -30 -39l-119 -156l-14 -18q0 1 -2 -5zM727 686l4 4h-16q-137 0 -241 -30q-106 -32 -162 -86q-58 -55 -58 -128q0 -60 48 -108t130 -72l8 -2 l6 -2v6q34 113 102 214q69 102 179 204zM440 242q-2 2 -6 2l-8 2q-89 25 -143 79q-52 52 -52 121q0 75 61 136q60 60 171 95q108 34 250 34q15 0 35 -2h6l4 4q66 57 108 90l74 55l16 10q-6 20 -6 35q0 46 26 93q26 46 73 84q45 38 120 73q60 28 116 44q57 17 121 28 q59 10 124 10q71 0 153 -12q5 0 55 -11l89 -20q66 -13 108 -18q45 -5 76 -5q61 0 118 15q53 12 140 49l4 -12q-10 -9 -39 -21q-48 -22 -109 -66q-62 -45 -102 -85q70 -6 122 -40q50 -34 73 -89l25 22l24 23q96 89 141 126q45 38 99 72q95 62 166 62q33 0 54 -15 q21 -16 21 -45q0 -35 -26 -67l-17 10q23 31 23 57q0 20 -15 30q-16 11 -40 11q-105 0 -281 -170l-104 -102l-18 -14.5l-17 -14.5q-16 -13 -21 -18l-4 -4q4 -15 4 -43q0 -97 -78 -186q-79 -88 -206 -130q-27 -63 -146 -200l-90 -105q-67 -75 -98 -135q-10 -16 -10 -31 q0 -28 22 -28q37 0 116 72q74 66 179 194l16 20l15 -12q-3 -3 -4.5 -5t-4.5 -5l-4 -4l-4 -4l-43 -54q-93 -114 -168 -172q-58 -51 -98 -51q-51 0 -51 59q0 43 44 111q43 67 146 182q107 124 127 152l2 4q-67 -16 -137 -16q-62 0 -166 18l-4 -4q-60 -78 -117 -143.5 t-119 -127.5q-121 -121 -241 -206q-117 -83 -231 -128q-112 -44 -209 -44q-114 0 -179 71t-65 193q0 58 14 117z" />
<glyph unicode="&#x41b;" horiz-adv-x="1781" d="M782 709l-6 -7h6q25 -3 65.5 -9t89 -14.5t101.5 -19t105 -22.5l190 -41l4 6q40 43 70.5 86.5t51.5 83t31.5 75t10.5 64.5q0 5 -2 15q-36 -11 -76 -30t-78.5 -44t-73 -53.5t-59.5 -57.5l-16 15q59 63 131.5 110.5t167.5 77.5q-23 74 -131 74q-84 0 -179 -37 q-101 -39 -202 -106q-54 -36 -103.5 -77.5t-97.5 -88.5zM762 682h-6l-4 -4l-71 -76t-53 -62q-20 -25 -45.5 -63l-50.5 -78.5t-45 -79t-28 -63.5q47 -10 119 -10q94 0 189 21q92 21 188 62q89 39 175 95q78 50 156 125l25 24q1 1 2.5 3t3.5 4h-6q-7 1 -10 1.5t-6.5 1.5 t-10 2.5t-20.5 4.5l-129 26q-53 13 -105.5 24t-100.5 19.5t-90.5 14.5t-76.5 8zM1634 593l-10 -9q64 9 118 30t93.5 50t61.5 65t22 76q0 38 -27 76l-4 -7q-19 -19 -63 -66.5l-113 -123.5zM700 682l7 4q-4 1 -11.5 1.5t-13.5 0.5h-29q-96 0 -174.5 -18.5t-134.5 -50.5 t-86.5 -75.5t-30.5 -92.5q0 -66 54.5 -116.5t146.5 -72.5q18 61 59 138.5t101 155.5q26 35 54 66.5t58 59.5zM1518 508l45 47h-7q-7 -1 -14 -1.5t-14 -0.5q-80 0 -189 20l-4 -4q-43 -43 -86 -79.5t-87.5 -68t-91 -58.5t-97.5 -51q-193 -89 -395 -89q-35 0 -67 2.5t-60 7.5 q-23 -89 -23 -135t15 -85t41 -67t62.5 -43.5t80.5 -15.5q79 0 175 36q46 17 94 41.5t99 58.5q102 69 228 186l47.5 46.5l71 70l75 74l58.5 59.5zM1877 891l9 8q-32 32 -82.5 45.5t-113.5 13.5q-74 0 -162 -24l-6 -2v-19q0 -66 -42 -148.5t-120 -168.5l-4 -4q2 0 7 -0.5 t13 -1.5q48 -9 90 -12.5t81 -3.5q17 0 27.5 3.5t22.5 14.5l13 12q23 23 38 40.5l35 41t52.5 58.5l89.5 92zM1894 907l21 21q60 60 112 106.5t104 86t106.5 73.5t117.5 69q-11 -12 -26.5 -37.5l-34.5 -56.5l-40 -64t-43 -61q-29 -36 -67.5 -93.5t-97.5 -137.5l-238 -327 l-46.5 -66l-58.5 -83l-87 -123q-100 -143 -103 -178q0 -24 20 -24q15 0 43.5 22t66.5 60t83.5 90t93.5 113l14 -10q-228 -291 -303 -294q-41 -2 -39 44q1 20 15 53.5t35 73.5t46 81.5t49 76.5l83 119.5t61 78.5l245 313l111.5 145.5l86 118.5t58.5 84.5t30 44.5l-89.5 -62 l-70 -50.5l-58.5 -45.5t-55 -47.5l-59.5 -56l-72.5 -71.5q32 -41 32 -92q0 -42 -25 -82.5t-70 -74t-107.5 -56.5t-137.5 -31l-110 -125l-128.5 -142.5t-106.5 -105.5l-48 -42.5l-43 -35.5q-102 -80 -195 -132q-99 -55 -179 -80q-86 -27 -162 -27q-104 0 -162.5 65t-58.5 179 q0 66 16 131q-49 10 -89 31t-68.5 49t-44 61t-15.5 68q0 55 35.5 102.5t97 82t145.5 54t181 19.5h36q6 0 14 -0.5t13 -1.5q32 31 71 63.5t87 67.5q43 31 85.5 57t85.5 49q43 22 86 39.5t83.5 29.5t76 18.5t64.5 6.5q119 0 152 -88q90 29 174 29q121 0 198 -68z" />
<glyph unicode="&#x41c;" horiz-adv-x="2173" d="M1886 526q-2 -1 -4 -3t-4 -3q-6 -4 -57 -43l-86 -65q-84 -67 -157 -138q-69 -68 -108 -122q-40 -55 -40 -95q0 -34 30 -34q39 0 95 44q57 45 117 115q58 66 118 163q58 93 96 181zM782 709l-6 -7h6q57 -7 164 -24q96 -17 197 -41l127 -27l57 -12l6 -2l4 6q79 87 121 168 q43 82 43 141q0 7 -2 15q-74 -22 -157 -74q-80 -52 -130 -111l-16 15q37 41 80 75q47 36 102 65q56 29 117 48q-23 74 -131 74q-83 0 -179 -37q-100 -38 -202 -106q-105 -72 -201 -166zM762 682h-6l-4 -4q-80 -82 -124 -138q-39 -51 -91 -132q-58 -92 -78 -152 q49 -10 119 -10q95 0 189 21q93 21 188 62q89 39 175 95q79 51 156 125l25 24q1 1 2.5 3t3.5 4h-6l-25 6q1 0 -5.5 1t-16.5 3l-129 26q-42 11 -118 27l-108 21q-78 14 -147 18zM1628 588l-4 -4q131 19 214 81q81 62 81 140q0 39 -27 76l-4 -7q-38 -38 -176 -190zM700 682 l7 4q-4 1 -11.5 1.5t-13.5 0.5h-29q-123 0 -219 -30q-97 -31 -152 -85q-55 -55 -55 -122q0 -65 53 -115q53 -52 148 -74q19 64 62 143q40 74 98 151q53 70 112 126zM1518 508l45 47h-7q-14 -2 -28 -2q-83 0 -189 20l-4 -4q-56 -56 -114.5 -103t-119 -84.5t-128.5 -69.5 q-195 -89 -395 -89q-71 0 -127 10q-23 -87 -23 -135q0 -93 56 -152t143 -59q79 0 175 36q92 33 193 100q102 69 228 186l118.5 115.5l133.5 134.5zM1876 889l4 4q-65 65 -190 65q-73 0 -162 -24l-6 -2v-19q0 -65 -41 -147q-43 -83 -121 -170l-4 -4q4 0 20 -2q81 -15 148 -15 q39 0 61 3q8 10 12 14l13 12q5 5 16 18t18 20l27 30l31 33l74 79q29 32 49 52zM1890 911l4 -4l4 4l17 17q151 151 244 219q91 68 139 88q-25 -30 -94 -137q-13 -21 -38 -69q-13 -24 -42 -85q-29 -63 -72 -166q-10 -27 -24.5 -61.5t-16.5 -38.5q-7 -18 -13.5 -32t-8.5 -19 l-4 -4l6 2l76.5 56.5l64.5 47.5l127 96q68 51 108 84q144 115 275 232q72 62 92 88h23q-34 -38 -91 -119q-2 -3 -7.5 -10.5l-10.5 -14l-13 -16.5l-50 -65l-29.5 -39.5l-39.5 -52.5q-6 -9 -24.5 -33l-33.5 -43l-125 -164l-127 -166l-113 -150l-92 -125q-107 -146 -107 -180 q0 -26 23 -26q34 0 121 81q86 80 190 205l15 -12q-245 -293 -328 -293q-45 0 -45 47q0 44 51 135q49 84 100 154q101 142 152 201l135 162l127 153l135 160q63 76 94 119q-17 -19 -71 -66q-3 -2 -23.5 -19l-77.5 -65l-47.5 -39l-19.5 -16l-25 -19l-135 -104 q-162 -126 -237 -180l-54 -37l-6 -4l-2 -6q-58 -121 -122 -218q-62 -94 -142 -186q-54 -62 -96 -98q-46 -39 -80 -58q-38 -20 -66 -20q-24 0 -37 16q-14 17 -14 41q0 42 52 112q51 69 145 155q85 79 209 170l73 51q2 2 7 5.5l12 8.5l8 17q74 161 121 253q64 131 127 232 q66 109 73 119l-18 -15q-105 -77 -211 -174l-17.5 -17.5l-19.5 -19.5l-22.5 -22.5l-24.5 -24.5q-3 -2 -8 -7q-2 -2 -3.5 -4t-4.5 -5q32 -40 32 -92q0 -56 -44 -109t-121 -89q-77 -35 -175 -46l-55 -63l-55 -62l-141 -155q-52 -55 -94 -93q-50 -45 -91 -78 q-102 -79 -195 -132q-98 -54 -179 -80q-85 -27 -162 -27q-103 0 -162 65t-59 179q0 64 16 131q-97 21 -156 79q-61 58 -61 130q0 61 43 113q44 53 123 89q123 56 293 56h36q6 0 14 -0.5t13 -1.5q64 62 158 131q86 61 171 106q86 44 166 68q84 26 144 26q119 0 152 -88 q89 29 174 29q121 0 198 -68z" />
<glyph unicode="&#x41d;" horiz-adv-x="2073" d="M2064 680l-12 -14q62 10 136 41q72 30 147 78q71 47 135 104q82 76 142 159q61 85 61 126q0 30 -39 30q-27 0 -74 -26q-46 -25 -102 -72q-77 -65 -207 -209q-19 -19 -65.5 -71.5t-121.5 -145.5zM479 242q22 117 115 260q92 140 213 237l4 2h-6q-161 -4 -287 -44 q-125 -39 -196 -105q-70 -67 -70 -150q0 -71 64 -126q65 -56 163 -74zM1255 487l7 5q-9 26 -9 67q0 58 21 133l-6 2q-115 23 -209 36q-93 11 -189 13h-12l-4 -4q-90 -87 -144 -151q-51 -61 -96 -139q-70 -116 -94 -213h6q50 -5 72 -5q86 0 173 18q84 17 174 53q88 36 165 82 q74 43 145 103zM1278 506l4 4q88 79 141 149l-14 3l-109 24l-6 2q-20 -63 -20 -127q0 -27 4 -55zM1280 725h4l2 4q43 113 129 223l41 52l2 4q-17 4 -33 4q-99 0 -223 -56q-68 -29 -150 -74q-81 -46 -114 -73l-53 -43l-2 -2h6q70 0 158 -8q116 -10 210 -27zM1305 721l6 -2 q74 -11 102 -19l19 -4l20 -4q34 55 57 107q29 55 29 108q0 75 -57 94l-4 -4q-75 -91 -108 -144q-33 -52 -64 -132zM1671 653l6 -2l4 6q116 158 171 270q55 111 55 183q0 46 -23 72t-65 26q-68 0 -155 -51q-87 -52 -169 -139q61 -28 61 -107q0 -98 -86 -223l54 -10 q46 -9 147 -25zM1288 489l-4 -4q20 -65 56 -92q37 -29 102 -35q32 35 57 68q70 83 133 166l19 22l2 7h-6q-111 14 -189 30l-12 2q-25 -35 -68 -80q-40 -40 -90 -84zM522 215l-6 2q-10 -47 -10 -104q0 -115 58 -176q57 -62 165 -62q213 0 471 234q17 15 129 127q70 70 94 100 q-117 19 -155 135l-6 -4q-76 -63 -156 -111q-79 -48 -156 -75q-183 -70 -352 -70q-28 0 -76 4zM475 215l2 6q-115 26 -180 84q-66 59 -66 137q0 48 26 95q25 46 73 86q47 39 114 69q74 34 162 50q85 16 225 22h7l2 2q89 74 198 135q107 60 212 96q105 35 175 35q23 0 50 -8 l4 6q78 87 175 143q95 54 167 54q53 0 81 -33q29 -34 29 -94q0 -58 -21 -126t-62 -146q-37 -69 -109 -177l-4 -6h6q59 -4 104 -4q48 0 97 6q9 0 34 4l4 4l99 113.5l118 127.5q106 109 185 177q79 69 149 113q65 39 103 39q61 0 61 -51q0 -32 -32 -88q-32 -57 -83 -115 q-53 -60 -118 -117q-56 -49 -135 -98q-76 -46 -150 -75q-73 -30 -147 -42l-9 -10l-86 -107q-137 -173 -217 -301q-80 -119 -80 -172q0 -35 27 -35q26 0 90 57q61 53 139 146l64 80q1 0 12 14l15 -12l-4 -4l-4 -4t-3.5 -4t-3.5 -4l-61 -76q-43 -51 -89 -99q-53 -55 -85 -81 q-43 -33 -70 -33q-49 0 -49 65q0 61 43 148q53 102 160 246l131 168l4 4h-6q-103 -13 -168 -13q-34 0 -60 2h-6l-4 -4q-34 -47 -98 -125q-8 -9 -92 -110l-4 -4q67 20 128 66t93 98l16 -11q-31 -60 -109 -113q-77 -53 -151 -67l-6 -6q-48 -52 -156 -156q-106 -103 -214 -178 q-110 -77 -205 -113q-99 -38 -183 -38q-78 0 -137 35q-58 34 -90 100q-31 63 -31 153q0 26 4 74z" />
<glyph unicode="&#x41e;" horiz-adv-x="1401" d="M1315 1106l-4 -4q53 -68 53 -176v-13q78 29 141 69q61 39 100 86q37 44 37 83q0 27 -22 43t-59 16q-92 0 -246 -104zM1294 1090l-6 -5q-111 -84 -268 -247l-12 -12l-9 -9l-5 -5l-7 -7q10 2 23.5 5.5t22 6t18.5 4.5l79 21q47 12 203 61l8 4l2 6v17q0 96 -49 160zM578 125 l-3 -6q136 26 267 101q64 35 127 83.5t116 101.5q110 110 177 234q67 123 79 246l-6 -2q-103 -39 -348 -99l-22 -6l-13 -14l-57 -72q-92 -117 -148 -206q-58 -91 -102 -185q-42 -89 -67 -176zM571 98q-10 -47 -10 -78q0 -66 30 -102q28 -37 79 -37q97 0 254 127 q156 126 340 352q190 235 291 431q100 193 100 323v12q-9 -40 -48 -84q-40 -44 -100 -81q-55 -34 -145 -68q-9 -116 -71 -240q-31 -63 -75 -123.5t-100 -119.5q-114 -125 -257 -206q-141 -80 -288 -106zM537 115q12 91 57 197q42 103 119 220q78 118 172 224l4 4l-6 -2 q-138 -36 -256 -87q-117 -52 -201 -114q-85 -63 -130 -130q-46 -67 -46 -136q0 -86 61 -132q62 -48 170 -48q37 0 56 4zM535 92q-41 -4 -56 -4q-113 0 -180 55q-68 56 -68 148q0 73 47 146q48 72 133 134q83 61 212 118q127 55 282 95h6l4 7q171 182 357 315l6 4 q-63 66 -172 66q-103 0 -204 -55q-103 -56 -170 -147q-68 -91 -79 -188h-16q5 76 46 148q41 74 110 134q71 60 152 94t161 34q115 0 188 -76l6 4q162 105 265 105q54 0 82 -33q28 -32 28 -92q0 -76 -33 -177q-35 -103 -96 -215q-61 -114 -156 -243q-89 -121 -196 -238 q-90 -102 -195 -190q-102 -87 -186 -133q-84 -45 -139 -45q-45 0 -76 22q-33 22 -49 64q-17 45 -17 102q0 25 3 41z" />
<glyph unicode="&#x41f;" horiz-adv-x="1837" d="M2444 1337q112 11 155 -27t29 -76q-6 -29 -64 -48q-58 -21 -156 -21q-77 0 -161 11l-59 6q-17 4 -43 7l-91 -53l-92 -76t-92 -85q-48 -50 -105 -118.5t-106 -135.5l-119 -158q-186 -248 -330 -380q-119 -111 -234 -173q96 -69 203 -69q73 0 126 18q47 17 116 64l14 -16 q-106 -87 -256 -87q-116 0 -220 81l-35 -17l-37 -21l-35 -15q-155 -73 -320 -73q-113 0 -202 40q-91 41 -141 112q-52 70 -52 159q0 61 27 118q25 56 73 96q46 38 103 49l2 -17q-76 -12 -130 -85t-54 -163q0 -59 27 -112q27 -52 78 -93q50 -39 119 -61q66 -22 144 -22 q162 0 306 64l22 9l62 31q13 6 27 14q-5 5 -11 10q-87 86 -93 255h-40q-120 0 -191 63t-71 168q0 96 47 199q49 101 136 196q85 93 203 167q329 210 775 210q182 0 403 -43l74 -12q187 102 269 110zM2028 1142l86 51l-4 1q-9 2 -16 3l-141 24q-176 31 -321 31 q-392 0 -703 -198q-167 -108 -270 -257q-102 -147 -102 -287q0 -65 30 -112q32 -49 86 -74q54 -26 130 -26h38q8 126 67 249q58 121 163 231q107 111 227 179q122 68 207 68q108 0 108 -98q0 -87 -100 -220q-98 -130 -258 -251q-60 -47 -130 -84q-71 -37 -136 -59 q-72 -24 -128 -31v-5q0 -72 27 -143q28 -70 72 -111q94 56 209 172q67 69 104 112q34 40 130 164q120 161 198 255q75 91 146 165q108 108 174 162q30 26 45 37l23 18l24 18zM863 303q190 27 384 172q102 78 178 160q79 86 121 161q43 77 43 133q0 36 -22 57q-21 19 -62 19 q-81 0 -199 -68q-117 -68 -219 -175q-101 -105 -159 -224q-58 -121 -65 -235zM2242 1066l9 -2q-18 -36 -78 -104l-6.5 -9.5t-9.5 -12t-11 -14.5q-14 -17 -43 -56l-26 -35.5l-34 -45.5q-5 -8 -21 -29l-29 -38l-108 -143l-110 -145l-97 -132l-80 -110q-93 -127 -93 -157 q0 -22 21 -22q29 0 104 71q74 69 164 179l13 -11q-211 -256 -283 -256q-39 0 -39 41q0 39 44 118q43 74 86 135q88 124 132 176l116 142l110 133l117 141zM2247 1215l87 -9q55 -10 122 -10q122 -1 142 55.5t-108 63.5q-94 5 -284 -93z" />
<glyph unicode="&#x420;" horiz-adv-x="1761" d="M1440 485q34 22 82 58l77 59q49 37 105 88q53 48 96 94q133 136 133 191q0 29 -24 29q-32 0 -85 -38t-116 -107q-64 -70 -117 -148l-73 -105q-59 -84 -78 -121zM510 319l-2 -6q-39 -105 -39 -188q0 -112 59 -177t160 -65q64 0 141 31q79 30 146 84q69 52 160 162 q17 20 56 71l60 78l17 27l18 26q-78 -46 -186 -88q-177 -67 -316 -67q-180 0 -274 112zM498 371l2 6l10 24q42 99 115 198q68 93 172 189q79 77 197 157q115 80 216 128l7 2q-56 29 -136 29q-113 0 -226 -48q-112 -49 -200 -133q-87 -82 -140 -186q-52 -103 -52 -211 q0 -85 35 -155zM489 350q-45 71 -45 176q0 145 93 284q91 137 241 225q149 87 305 87q86 0 150 -39q6 3 6 4l18 9q149 71 293 107q146 36 279 36q143 0 222 -57t79 -160q0 -55 -24 -112q-24 -56 -69 -112q-46 -55 -114 -108q-52 -37 -100 -62q-52 -27 -104 -43 q-57 -18 -103 -22l2 17q66 5 146 41q83 36 145 88q84 70 132 154q46 82 46 167q0 191 -277 191q-135 0 -273 -37q-139 -37 -284 -113q82 -61 82 -182q0 -93 -60 -191q-62 -100 -157 -159l-10 16q102 72 156 159q53 88 53 179q0 107 -80 170l-6 -4q-126 -70 -195 -117 q-69 -45 -139 -108q-135 -115 -230 -238q-92 -119 -149 -252l-2 -6q37 -50 112 -82q72 -31 156 -31q101 0 239 45q135 43 277 121l11 6l4 6l4 5q63 89 184 243q148 192 250 283q104 88 154 88q47 0 47 -47q0 -38 -60 -116q-59 -78 -161 -171q-43 -37 -112.5 -91.5 l-119.5 -90.5q-75 -56 -104 -74l-11 -14q-390 -553 -702 -553q-109 0 -172 74t-63 204q0 99 40 207z" />
<glyph unicode="&#x421;" horiz-adv-x="1335" d="M1296 1065l-6 -4q41 -70 41 -168v-37l-2 -6q6 2 8 2l9 2q123 30 228 74q111 47 175 94q84 66 84 121q0 28 -26 43q-28 14 -78 14q-178 0 -433 -135zM1272 1051q-58 -32 -128 -83q-63 -46 -142 -113q-69 -58 -109 -101l20 4l56 12l65 12q13 4 35 9q20 5 45 9q13 3 18 4 t17 4t22 5l70 16l68 17q2 18 2 43q0 87 -39 162zM502 78v-6q0 -89 49 -139q49 -52 131 -52q83 0 174 48q89 46 180 137q95 95 155 209t60 200q0 55 -28 92l-2 -6q-64 -91 -124 -154q-67 -71 -136 -122q-66 -51 -158 -101q-87 -46 -161.5 -72t-139.5 -34zM473 96h6 q3 146 77 299q74 152 210 297l4 4q-157 -43 -282 -116q-123 -72 -193 -157t-70 -171q0 -73 55 -116q55 -44 146 -44q15 0 47 4zM1221 600q1 3 3 7q1 1 3 5q59 102 80 209h-7l-124 -30l-138 -29l-77 -17q-1 0 -82 -18l-15 -2l-14 -14q-52 -58 -98.5 -116t-83 -111.5 t-66.5 -104.5q-87 -152 -98 -281q125 20 262 89q62 31 129 76.5t123 95.5q56 49 103.5 104t84.5 115l2 6q-33 30 -90 30q-71 0 -146 -42q-76 -44 -140 -120q-66 -77 -113 -178l-17 5q36 97 106 177q69 82 154 129q86 48 160 48q60 0 99 -33zM1235 584q43 -55 43 -138 q0 -61 -25 -127t-73 -136q-49 -69 -119 -136q-198 -186 -377 -186q-62 0 -106 25q-45 23 -71 73q-25 48 -28 117h-6q-32 -4 -49 -4q-98 0 -158 51q-61 49 -61 131q0 139 162 269q162 131 426 204h6l4 6q54 57 133 120q81 65 170 125q85 58 154 93q-33 45 -84 67 q-54 23 -121 23q-101 0 -190 -47q-89 -46 -154 -131q-70 -91 -76 -182h-19q6 96 71 185q65 87 165 141q101 53 205 53q151 0 221 -99l6 2q93 48 171 78q75 28 148 45q71 15 128 15q58 0 92 -20q32 -21 32 -58q0 -54 -63 -113q-63 -58 -180 -109q-115 -52 -264 -90 q-17 -4 -21 -4q-21 -128 -92 -243z" />
<glyph unicode="&#x422;" horiz-adv-x="1880" d="M879 303q191 27 384 172q102 78 178 160q81 87 122.5 163t41.5 131q0 35 -20.5 55.5t-63.5 20.5q-80 0 -199 -68q-60 -34 -114 -77.5t-105 -97.5q-51 -53 -90.5 -108.5t-68.5 -115.5q-30 -61 -45.5 -119.5t-19.5 -115.5zM2620 1163l19 -5q63 -7 109.5 -10.5t80.5 -3.5 q76 0 116 14.5t40 43.5q0 20 -30 34.5t-91 14.5q-80 0 -182 -39.5t-225 -134t-267.5 -253t-309.5 -395.5l-46.5 -62.5l-58.5 -79.5l-86 -117q-100 -136 -100 -170q0 -23 22 -23q15 0 44 20t67.5 55.5t84.5 84.5t94 108l13 -12q-226 -274 -305 -274q-42 0 -42 44 q0 20 13.5 53t34.5 71t45.5 76.5t47.5 70.5l83 113.5t58 74.5l244 296q132 150 240.5 248t199 156t167 81t145.5 23q45 0 75.5 -4.5t48.5 -12t25.5 -18t7.5 -22.5q0 -17 -10 -34.5t-36 -31t-71.5 -22t-116.5 -8.5q-35 -1 -72.5 3l-75.5 8l-59 6q-3 1 -7 2.5t-13.5 3.5t-27 4 t-46.5 5l-234 38l-264 38q-170 31 -321 31q-393 0 -703 -198q-85 -54 -151.5 -118t-118.5 -139q-102 -147 -102 -287q0 -51 18.5 -90.5t51 -66.5t77.5 -41t99 -14h38q8 126 67 249q58 121 163 231q107 111 227 179q122 68 207 68q108 0 108 -98q0 -87 -100 -220 q-50 -66 -113.5 -128t-144.5 -123q-61 -46 -130.5 -84t-135.5 -59q-36 -12 -68 -19.5t-60 -11.5v-5q0 -36 7.5 -72.5t20.5 -70.5t31 -62.5t40 -48.5q103 -83 219 -84q33 0 58 2.5t48.5 10.5t48.5 22t59 37l13 -14q-95 -77 -227 -77q-131 0 -247 104q-87 85 -93 255h-40 q-60 0 -108 16.5t-82.5 46.5t-53 72.5t-18.5 95.5q0 93 47 199q25 51 58 99.5t78 96.5q43 48 93 89t110 78q167 106 357.5 158t417.5 52q128 0 544 -60l102.5 -18.5l94.5 -16.5zM2034 1140q-12 -20 -31.5 -40t-42 -40.5l-46 -41.5t-44.5 -43l-50 -54.5l-55 -63.5l-55 -68 l-51 -68l-119 -158q-189 -251 -330 -380q-75 -69 -145.5 -118.5t-140.5 -80.5l-37 -21l-35 -15q-152 -73 -320 -73q-86 0 -158.5 24t-125 65.5t-82 98.5t-29.5 123q0 43 14.5 86t40.5 79.5t63.5 62.5t84.5 35l2 -17q-38 -6 -71.5 -29t-58.5 -57t-39.5 -76t-14.5 -86 q0 -56 25.5 -107.5t73 -92t115.5 -64.5t154 -24q165 0 306 64l22 9l62 31q35 16 79.5 48t92 73.5t95.5 89.5t90 96q2 3 26.5 34l60 75.5l76 97l76.5 98l60.5 77.5l28.5 37l74.5 87l71.5 78q61 62 105 102.5t75.5 66.5t51.5 40.5l34 25.5zM1810 714l68 90q76 94 123 162 l15 -34q-19 -20 -36 -43t-34 -49l-125 -171q-7 -9 -22 -31.5l-34.5 -51l-40.5 -58.5t-39 -53l-96 -125q-5 -6 -17 -22.5l-28 -38.5l-33 -46.5l-32.5 -46l-27 -38t-15.5 -21.5q-39 -51 -69 -94t-50 -80l-5 78q39 42 105 130t160 226z" />
<glyph unicode="&#x423;" horiz-adv-x="1679" d="M1270 741q57 93 57 164q0 74 -74 74q-62 0 -142 -36q-84 -39 -164 -104q-83 -67 -161 -157q-94 -105 -152 -222q-59 -120 -71 -222q102 1 230 66q129 65 249 172q124 110 218 247q-14 2 -21 2q-80 0 -172 -56q-91 -57 -147 -143l-15 11q30 53 88 102q57 48 122 77 q65 27 124 27q13 0 31 -2zM1518 332l-9 -15l13 11q45 42 119 121l139 159q70 86 104 131q35 48 74 109q36 57 55 94q17 37 17 51q0 19 -19 19q-20 0 -59 -39q-101 -104 -223 -284q-61 -90 -112 -176.5t-99 -180.5zM1182 -207q-23 0 -95 8q-104 12 -165 17q-123 8 -154 8 q-157 0 -294 -41q-136 -41 -212 -111q-78 -71 -78 -155q0 -51 33 -88q34 -40 93 -59q59 -21 139 -21q232 0 454 168q81 62 154 135q80 78 125 139zM1358 588v4l-45 -49l-47 -49l-103 -111q-66 -69 -99 -113q-32 -42 -52 -84q-27 -54 -27 -86q0 -37 21 -63q96 62 178 159 q81 95 128 199q46 102 46 193zM1364 664l4 4q118 124 163 205q44 82 44 163q0 84 -53 128q-52 42 -160 42q-112 0 -229 -40t-238 -116q-61 -39 -116 -83.5t-103 -92.5q-78 -76 -140 -164q-58 -84 -90 -162q-32 -79 -32 -142q0 -52 13 -84q14 -35 41 -54q31 -21 73 -28v10 q11 74 44 153q34 84 85 161q52 81 118 153q73 82 160 148q87 65 161 97q81 35 144 35q95 0 95 -90q0 -34 -15 -81q-17 -47 -43 -91q50 -17 74 -71zM983 23l6 4q-26 26 -26 79q0 47 19 98t54 103q12 19 43 59q8 11 46 53q21 23 114 118l98 98q8 8 9 8l4 4q-21 56 -70 72 l-4 -4l-8 -15q-43 -63 -112 -138q-66 -74 -132 -128q-250 -214 -465 -217v-4l-2 -6v-25q0 -108 54 -170q52 -61 149 -61q103 0 223 72zM1006 12l-7 -4q-124 -78 -239 -78q-108 0 -165 67q-58 67 -58 185v33l2 4q-70 7 -109 57t-39 134q0 94 42 194q41 98 119 195 q78 96 185 178q100 77 206 132q111 56 218 87q106 31 197 31q116 0 178 -50q61 -49 61 -145q0 -87 -56 -197q-57 -109 -159 -219l-4 -4v-22q0 -91 -46 -198q-46 -106 -128 -205q-82 -98 -178 -162q15 -7 35 -7q53 0 157 65t218 167l16 12l5 5l9 9l2 5q72 143 174 307 q51 83 115 172q62 88 121 158q99 112 137 112q15 0 24 -9q9 -10 9 -26q0 -61 -115 -221q-48 -70 -137 -178q-88 -105 -147 -164l-72 -72q-8 -10 -47 -47q-47 -47 -48 -49.5t-4 -7.5q-5 -10 -8 -17q-7 -12 -11 -23q-7 -17 -19 -36q-29 -57 -56 -117q-59 -126 -73 -154 q-23 -45 -56 -95l-4 -7h25q234 0 299 113l18 -8q-62 -125 -313 -125h-35h-6q-85 -127 -220 -233t-285 -164q-151 -60 -285 -60q-87 0 -152 24q-64 22 -99 66q-34 43 -34 101q0 66 47 127q47 60 132 105q86 45 195 69q110 24 234 24q19 0 38.5 -1t54.5 -3.5t81 -5.5 q10 0 22 -1.5t22 -2.5q6 -1 12.5 -1.5l13.5 -1t16 -1.5q56 -6 60 -6q20 -2 29 -3t17 -2q4 0 11 -0.5t11 -1.5q8 -1 20 -1q4 0 9 -0.5t7 -1.5q49 59 113 166t131 245l2 6q-8 -8 -12 -11q-3 -3 -6.5 -5.5t-6.5 -5.5q-108 -97 -204 -152q-97 -57 -152 -57q-29 0 -55 14z" />
<glyph unicode="&#x424;" horiz-adv-x="1958" d="M1192 235q33 27 72.5 69.5t78 92t71 102.5t51.5 101q8 20 11 48t0 48q-9 61 -43.5 85.5t-84 20t-109 -34t-118.5 -76t-112.5 -105.5t-91 -122.5t-54 -128t-1.5 -121.5q11 -41 34 -60t53.5 -22t65 6.5t67.5 25.5t62 35.5t48 35.5zM1245 247q-37 -27 -74 -51t-72.5 -42 t-67 -29t-57.5 -13q-35 -2 -64 13.5t-50.5 42.5t-34 60.5t-14.5 67.5q-3 53 18.5 111.5t60.5 115t92 108.5t112 92t120 65.5t117 28.5q53 3 84.5 -11t48 -36t22 -46.5t6.5 -41.5q3 -39 -12 -93q-12 -37 -38.5 -83.5t-59.5 -93.5t-69 -90.5t-68 -74.5zM1632 699 q-33 -27 -73 -69.5t-78 -92t-70.5 -102.5t-51.5 -101q-8 -20 -11 -48t0 -48q9 -62 43.5 -86t84 -19.5t109 34t118.5 76t112.5 105.5t91 122.5t54 128t1.5 121.5q-11 41 -34 60t-53.5 22t-65 -6.5t-67.5 -25.5t-62 -35.5t-48 -35.5zM1579 687q37 27 74 51t72.5 42t67 29 t57.5 13q35 2 64 -13.5t50.5 -42.5t34 -60.5t14.5 -67.5q3 -53 -18.5 -111.5t-60.5 -115t-92 -108.5t-112 -92t-120 -65.5t-117 -28.5q-53 -3 -84.5 11t-48 36t-22 46.5t-6.5 41.5q-3 39 12 93q12 37 38.5 83.5t59.5 93.5t69 90.5t68 74.5zM1958 1009q-92 -4 -168 5 q-49 5 -95 15.5t-91 23.5l-90 29q-55 17 -103 29t-90 16q-129 18 -254 -9q-63 -14 -116 -36t-91.5 -51t-63 -63t-29.5 -70q-1 -15 1 -25.5l4 -21.5q30 -74 135 -88q35 -4 71 -0.5t72 14.5t69 30t62 44l16 -11q-29 -27 -63.5 -47t-72.5 -33.5t-78.5 -17t-79.5 0.5 q-118 15 -147 98l-6 21q-1 12 -2 21t1 16q7 54 46 100t103.5 81t151.5 56t191 25q30 1 61.5 0t63.5 -5q30 -5 59 -10.5t61.5 -14t72.5 -22l96 -33.5q33 -12 59.5 -19.5l48 -13.5t39 -9t32.5 -4q30 -4 58 -5t58 2.5t66 11.5t83 22l2 -13q-7 -4 -20.5 -8.5t-32 -9.5t-39.5 -10 l-43 -10zM349 522h-7q-92 0 -182 -23.5t-161.5 -66t-116 -103t-44.5 -133.5q0 -79 59 -135.5t167 -82.5v7q8 44 23.5 93.5t37 100t47.5 100.5t56 95q30 46 60.5 82.5t60.5 65.5zM1301 831l-14 33q-35 63 -138 63q-80 0 -166.5 -25t-179.5 -73q-46 -24 -96.5 -57.5 t-100.5 -71t-96 -77.5t-83 -78q72 -23 129 -65t96.5 -94.5t60.5 -113t21 -121.5q0 -38 -9 -75q0 -6 -14.5 -32.5t-38 -55.5t-51.5 -53.5t-55 -26.5l-18 11q36 12 63.5 37.5t47 52t30.5 46.5t12 20v-1q5 19 7.5 39t2.5 40q0 58 -20 114t-56 104t-85.5 85.5t-107.5 58.5l-43 2 q-61 -69 -107.5 -132t-81.5 -127.5t-61 -134t-47 -152.5q33 -3 65 -3q138 0 303 48q82 23 157 54.5t144 73.5l4 2l18 13l26 15l6 3q9 6 30.5 21.5l47.5 36l54.5 43l53 42l41.5 33l21 16.5q51 48 94.5 104.5t75 112t49.5 107t18 90.5q0 21 -9 48zM808 139l-31 -14 q-47 -34 -124 -71t-182 -66q-81 -23 -155 -34t-143 -11q-15 0 -33.5 1t-41.5 3v-7q-23 -80 -13.5 -156t46 -135.5t96.5 -96t140 -36.5q56 0 118 16t131 48q69 31 135.5 78t114.5 95q33 32 73.5 79t90.5 111q15 19 39.5 53l52 73.5l55 80.5l49.5 75l36 57t14 27l28 48l59 90 l93.5 140l88.5 124q88 120 161 200q72 79 138 133.5t123 75.5l57.5 20t36 10t31.5 4.5t43 4.5l14 3.5t16 0.5l-7 -21h-14q-79 0 -153 -32t-157 -105q-61 -54 -122 -127.5t-124 -161.5q-5 -7 -17 -25.5l-27 -42.5l-31.5 -50.5l-31 -50l-25 -41t-13.5 -23.5l-94 -158 l-107 -155l-107.5 -153t-112 -144.5t-122 -130t-136.5 -109.5t-155 -83q-65 -26 -126 -41t-118 -15q-69 0 -126.5 25t-99 72t-64.5 114.5t-23 152.5q0 24 1.5 46t6.5 43v5q-56 12 -101.5 35.5t-77.5 55t-49 70.5t-17 83q0 75 42 139.5t115 111.5t171 74t210 27h18 q34 37 78 75t92 74.5t98.5 69.5t98.5 59q112 63 212 94.5t193 31.5q116 0 165 -76l13 -12v-17q6 -14 8.5 -29t2.5 -32q0 -33 -11.5 -74t-31 -84t-45.5 -85t-55 -76l-76 -89l-13 -14q-60 -60 -131.5 -115t-155.5 -108z" />
<glyph unicode="&#x425;" horiz-adv-x="1542" d="M496 242q33 -9 53 -9q103 0 238 72q135 73 270 199q148 137 215 270q39 77 39 133q0 70 -72 70q-80 0 -201 -76t-247 -205q-208 -212 -295 -454zM506 -63l10 4q139 67 270 163q218 164 443 365l100 92l20 18q20 18 25 23l45 39q5 11 8 21q23 43 54 125q33 86 45 126 q18 65 18 127q0 84 -49 124t-156 40q-112 0 -249 -51q-141 -53 -269 -145q-200 -140 -315 -310q-50 -73 -81 -154q-32 -84 -32 -141q0 -53 24 -95q24 -43 60 -58q46 130 136 260q90 132 204 243q54 53 111.5 98.5t115.5 79.5q113 66 199 66q42 0 65 -23t23 -67 q0 -102 -94 -229q-89 -126 -214 -233q-128 -110 -251 -169q-127 -63 -223 -63q-32 0 -62 10l-2 -8q-20 -72 -20 -135q0 -94 41 -143zM526 -78l-4 -2q40 -31 107 -31q73 0 149 36q76 37 174 118q92 77 152 160l14 -10q-48 -79 -176 -183q-94 -74 -167 -107q-74 -34 -148 -34 q-83 0 -125 43q-118 -51 -226 -51q-74 0 -121 36q-46 36 -46 93q0 74 79 131q80 58 189 59l-2 -18q-75 -4 -129 -29q-56 -23 -86 -62q-33 -40 -33 -81q0 -50 43 -80q43 -31 113 -31q90 0 204 49q-41 58 -41 148q0 81 23 153q-96 47 -96 185q0 68 27 147q27 80 73 154 q47 74 111 141q74 77 170 146q93 67 197 117q96 47 201 77q99 27 187 27q121 0 179 -51q57 -52 57 -160q0 -41 -17 -123q-19 -84 -40 -133l-19 -47l-2 -7l4 5q3 3 7.5 7l12.5 11q4 3 40 37l106 96q9 7 16.5 14t13.5 12q9 9 19.5 17.5t30.5 26.5l134 116.5t81 65.5 q254 195 399 195q49 0 80 -23q29 -24 29 -65q0 -39 -41 -89l-14 15q34 43 34 71q0 32 -22 51t-62 19q-123 0 -323 -141l-97.5 -74.5l-136 -114l-129.5 -112.5q-26 -25 -62 -56q-36 -33 -46 -43q-73 -61 -90 -81l-4 -5l-5 -10q-2 -3 -4 -7t-4 -7q-12 -28 -59 -129 q-1 -2 -3.5 -8l-3.5 -8.5l-6 -14.5l-18 -39q-10 -22 -12 -30q-1 -2 -3 -6.5t-5 -10.5q-51 -109 -82 -188q-31 -81 -31 -125q0 -51 39 -51q28 0 65 28q33 25 113 105q29 26 94 102q14 14 45 53l15 -12q-82 -97 -150 -168q-71 -71 -113 -103q-38 -28 -71 -28q-31 0 -49 27 q-19 26 -19 73q0 98 103 314l51 110l18 37l17 37l-4 -4l-60 -55l-96 -86l-135 -119l-156 -130q-86 -71 -164 -126q-76 -54 -135 -90q-60 -36 -123 -66z" />
<glyph unicode="&#x426;" horiz-adv-x="1548" d="M1242 33q-4 -34 5 -55t26 -32t38.5 -12.5t42.5 4.5t39 19t28 30q10 19 11.5 27.5t-2.5 10t-12.5 -1.5l-19.5 -7l-55.5 -61.5l-57.5 -66l-46 -54t-21 -24.5q6 1 10.5 2.5t8.5 2.5q31 5 63 1t63.5 -15t60.5 -27t53 -35q11 -10 40 -40l64.5 -66.5l73 -72.5t65.5 -59 q50 -38 88.5 -51t78.5 -6q59 10 106.5 56t85.5 134l11 -11q-15 -41 -37.5 -76.5t-50.5 -63t-60.5 -45.5t-65.5 -24q-56 -8 -109 10.5t-118 73.5q-27 25 -62.5 63l-69.5 75.5l-60.5 67.5t-35.5 39q-45 32 -93 44.5t-89 5.5q-45 -6 -87 -40l-6 18q36 28 74 69q37 39 65.5 73 l50.5 61.5t39 46.5t32 28q16 10 27 8t17 -11t6 -21.5t-4 -24.5q-14 -22 -32.5 -44.5t-38.5 -30.5q-34 -16 -65 -16t-54 15.5t-35.5 48t-8.5 81.5q0 15 1 28t5 31t11.5 45t21.5 72l2 6l-6 -4q-50 -43 -97 -79.5t-90.5 -63.5t-82.5 -42t-72 -15q-65 0 -90 69 q-125 -71 -225 -71q-94 0 -148.5 63t-54.5 172q0 68 16 133l2 6q-54 20 -82 72t-28 125q0 239 249 473q80 74 174 134q50 31 97.5 56.5t95.5 48.5q45 20 93.5 37t101.5 31q97 25 178 25q53 0 96.5 -14.5t74 -40.5t47.5 -63t17 -83q0 -53 -22.5 -115t-59.5 -118 q-33 -51 -70 -100.5t-79 -98.5l-4 -4q-6 -80 -44 -172q-20 -45 -50.5 -95.5t-69.5 -107.5q-64 -86 -139 -159q-84 -81 -148 -121q18 -64 72 -64q28 0 67 16t84.5 45t95 68t99.5 86l14 12q25 75 60 147l37 73.5t49 88.5q23 41 51.5 84l60.5 90l61 83.5t56 70.5l90 109.5 t82.5 90t71 61t55.5 22.5q31 0 31 -35q0 -18 -13.5 -49.5t-42 -78.5t-72.5 -110.5l-106 -146.5q-19 -26 -52 -66.5l-81 -97.5l-89 -101l-93 -101l-74 -78l-8 -10q-3 -3 -6 -6.5t-8 -8.5l-2 -6l-35 -86t-28 -69.5t-18.5 -59t-6.5 -54.5zM1285 826q46 52 86 105.5t70 103.5 t47.5 93.5t17.5 76.5q0 88 -56 134t-165 46q-164 0 -365 -99q-201 -98 -356 -255q-121 -123 -179.5 -234.5t-58.5 -213.5q0 -63 25.5 -103.5t66.5 -52.5q68 233 254 436q82 91 174 162q45 34 89.5 61.5t86 46.5t79 29t67.5 10q48 0 73 -21.5t25 -66.5q0 -74 -57 -168l-2 -6 q58 -18 78 -84zM1184 914l2 7q60 99 60 163q0 70 -80 70q-89 0 -226 -86q-67 -43 -132.5 -100.5t-122.5 -120.5q-55 -61 -106.5 -135.5t-86.5 -149.5q-16 -34 -29 -69.5t-24 -73.5q9 -1 17 -1.5t16 -0.5q211 0 446 205q131 108 211 213q6 9 10 14.5l8.5 11.5l10 13.5 t14.5 21.5h-14q-35 0 -77.5 -16t-86 -44t-85 -65t-73.5 -80l-16 10q35 49 79 88.5t90 67.5t90.5 43.5t80.5 15.5q5 0 11 -0.5t13 -1.5zM816 124q-1 7 -1.5 15t-0.5 18q0 67 33.5 139t95.5 153q13 18 36 44.5l50 57l55.5 61.5l53.5 58.5l44 47.5l27 28q26 26 39.5 41t15.5 17 l4 4q-15 68 -73 84l-2 -4q-25 -39 -59.5 -81t-79.5 -87q-47 -48 -94.5 -90.5t-98.5 -79.5q-45 -33 -93 -62t-100 -50q-102 -42 -186 -42q-36 0 -51 4q-17 -76 -17 -141q0 -97 49.5 -153t135.5 -56q101 0 217 74zM1358 368q9 6 17 14l37 43l65 67q4 6 9.5 12.5l13 16t19 22.5 l29.5 33q7 8 11 14t10 11l125 145q17 19 38.5 48l45 61.5l47 66.5l43 63.5l34 52.5t20.5 34q36 67 36 88t-16 21t-43 -21t-60.5 -56t-70.5 -80.5l-73.5 -94.5l-70 -98t-58.5 -91l-41 -67l-56 -90q-36 -63 -63.5 -116t-47.5 -99zM1266 740l-26 -30q-7 -10 -18.5 -23.5 t-23 -25.5l-19 -20t-7.5 -7l-112 -123.5l-70 -80.5q-52 -64 -79.5 -105t-41.5 -72q-15 -32 -23.5 -59t-7.5 -52v-4l4 4q72 49 145 122q40 41 74.5 82.5t65.5 84.5q33 46 56 87.5t40 76.5q16 34 26.5 70.5t16.5 74.5z" />
<glyph unicode="&#x427;" horiz-adv-x="1538" d="M1383 225q-2 -2 -5.5 -10l-7.5 -17.5t-8 -18t-7 -11.5l-3 -6q-48 -109 -69 -188q-12 -42 -19.5 -81.5t-8.5 -76.5q-2 -48 9 -88.5t33.5 -69.5t56 -46t75.5 -19q80 -3 170 50q45 27 89.5 64.5t88.5 87.5l11 -11q-36 -47 -81.5 -86.5t-93.5 -68t-96 -44t-89 -13.5 q-52 2 -90.5 24.5t-64 60t-37 87.5t-8.5 108q1 24 3 49t7.5 53.5t14.5 62.5t24 76l16 47l20 49q-51 -36 -98 -60q-58 -29 -105 -29q-16 0 -33 7q-10 5 -19 10q-26 -28 -54 -55l-43.5 -39.5l-44 -37t-42 -32.5t-36.5 -25q-125 -71 -225 -71q-94 0 -148.5 63t-54.5 172 q0 68 16 133l2 6q-54 20 -82 72t-28 125q0 239 249 473q80 74 174 134q50 31 97.5 56.5t95.5 48.5q45 20 93.5 37t101.5 31q97 25 178 25q53 0 96.5 -14.5t74 -40.5t47.5 -63t17 -83q0 -53 -20.5 -110.5t-57.5 -113.5l-26 -30q-7 -10 -18.5 -23.5t-23 -25.5l-19 -20t-7.5 -7 l-60 -65q2 -20 -3 -53t-16 -75.5t-28 -84.5q-18 -46 -49.5 -96l-70.5 -107q-35 -47 -74 -91q17 -12 41 -12q40 0 101 31q56 29 119 77q14 29 30 58q17 32 40 71.5t53 86.5q25 39 55 81.5t65 87.5l63.5 80t59.5 68l95 106t86 86.5t73.5 57.5t56.5 20q16 -1 18.5 -8.5 t0.5 -24.5q-4 -28 -73 -120q-29 -39 -75.5 -96l-115.5 -136l-164 -183l-211 -228zM1297 686l83.5 84.5t72 85.5t50.5 87t19 89q0 88 -56 134t-165 46q-164 0 -365 -99q-201 -98 -356 -255q-121 -123 -179.5 -234.5t-58.5 -213.5q0 -63 25.5 -103.5t66.5 -52.5 q68 233 254 436q82 91 174 162q45 34 89.5 61.5t86 46.5t79 29t67.5 10q48 0 73 -21.5t25 -66.5q0 -74 -57 -168l-2 -6q45 -14 67 -58q4 3 7 7zM1200 741l2 7q60 99 60 163q0 70 -80 70q-89 0 -226 -86q-67 -43 -132.5 -100.5t-122.5 -120.5q-55 -61 -106.5 -135.5 t-86.5 -149.5q-16 -34 -29 -69.5t-24 -73.5q9 -1 17 -1.5t16 -0.5q211 0 446 205q131 108 211 213q6 9 10 14.5l8.5 11.5l10 13.5t14.5 21.5h-14q-35 0 -77.5 -16t-86 -44t-85 -65t-73.5 -80l-16 10q35 49 79 88.5t90 67.5t90.5 43.5t80.5 15.5q5 0 11 -0.5t13 -1.5z M1211 719l-2 -4q-25 -39 -59.5 -81t-79.5 -87q-47 -48 -94.5 -90.5t-98.5 -79.5q-45 -33 -93 -62t-100 -50q-102 -42 -186 -42q-36 0 -51 4q-17 -76 -17 -141q0 -97 49.5 -153t135.5 -56q101 0 217 74q18 12 40 28.5l45 35t45.5 38.5t40.5 38q20 20 38 40q-11 11 -18 26 q-9 17 -9 35q-1 7 -1.5 15t-0.5 18q0 67 33.5 139t95.5 153q32 43 73 85l61 62q-20 43 -64 55zM1441 320l98.5 102l106 115l106 119.5l97.5 115l81.5 101t57 78t24.5 45.5q2 11 0.5 14t-9.5 3q-16 1 -44 -19t-63 -53.5t-74 -77.5l-77.5 -91l-74 -94.5t-62.5 -88.5l-44 -65 l-60 -87q-39 -61 -69 -114l-13 -23q9 10 19 20zM1077 173q35 42 66 85q33 46 56 87.5t40 76.5q8 17 17.5 42t17 54t10.5 59q2 17 2 33l-28 -32l-70 -80q-52 -64 -79.5 -105t-41.5 -72q-15 -32 -23.5 -59t-7.5 -52v-4l2 -24q6 -22 16 -36z" />
<glyph unicode="&#x428;" horiz-adv-x="2119" d="M1850 195q9 6 17 14l37 43l65 67q4 6 9.5 12.5l13 16t19 22.5l29.5 33q7 8 11 14t10 11l125 145q17 19 38.5 48l45 61.5l47 66.5l43 63.5l34 52.5t20.5 34q36 67 36 88t-16 21t-43 -21t-60.5 -56t-70.5 -80.5l-73.5 -94.5l-70 -98t-58.5 -91l-41 -67l-56 -90 q-36 -63 -63.5 -116t-47.5 -99zM1251 741l2 7q60 99 60 163q0 70 -80 70q-89 0 -226 -86q-67 -43 -132.5 -100.5t-122.5 -120.5q-55 -61 -106.5 -135.5t-86.5 -149.5q-16 -34 -29 -69.5t-24 -73.5q9 -1 17 -1.5t16 -0.5q211 0 446 205q131 108 211 213q6 9 10 14.5l8.5 11.5 l10 13.5t14.5 21.5h-14q-35 0 -77.5 -16t-86 -44t-85 -65t-73.5 -80l-16 10q35 49 79 88.5t90 67.5t90.5 43.5t80.5 15.5q5 0 11 -0.5t13 -1.5zM909 -31q72 49 145 122q40 41 74.5 82.5t65.5 84.5q33 46 56 87.5t40 76.5q16 34 26.5 70.5t16.5 74.5l-26 -30 q-7 -10 -18.5 -23.5t-23 -25.5l-19 -20t-7.5 -7l-112 -123.5l-70 -80.5q-52 -64 -79.5 -105t-41.5 -72q-15 -32 -23.5 -59t-7.5 -52v-4zM1573 1032q0 88 -56 134t-165 46q-164 0 -365 -99q-201 -98 -356 -255q-121 -123 -179.5 -234.5t-58.5 -213.5q0 -63 25.5 -103.5 t66.5 -52.5q68 233 254 436q82 91 174 162q45 34 89.5 61.5t86 46.5t79 29t67.5 10q48 0 73 -21.5t25 -66.5q0 -74 -57 -168l-2 -6q58 -18 78 -84q46 52 86 105.5t70 103.5t47.5 93.5t17.5 76.5zM889 -42q-1 7 -4.5 11.5t-3.5 14.5q0 67 33.5 139t95.5 153q13 18 36 44.5 l50 57l55.5 61.5l53.5 58.5l44 47.5l27 28q26 26 39.5 41t15.5 17l4 4q-15 68 -73 84l-2 -4q-25 -39 -59.5 -81t-79.5 -87q-47 -48 -94.5 -90.5t-98.5 -79.5q-45 -33 -93 -62t-100 -50q-102 -42 -186 -42q-36 0 -51 4q-17 -76 -17 -141q0 -97 49.5 -153t135.5 -56 q51 0 108 22t115 59zM1593 1032q0 -53 -22.5 -115t-59.5 -118q-33 -51 -70 -100.5t-79 -98.5l-4 -4q-6 -80 -44 -172q-20 -45 -50.5 -95.5t-69.5 -107.5q-64 -86 -139 -159q-84 -81 -148 -121q18 -64 72 -64q28 0 67 16t84.5 45t95 68t99.5 86l14 12l-12 -41l-6 -4 q-50 -43 -97 -79.5t-90.5 -63.5t-82.5 -42t-72 -15q-65 0 -90 69q-125 -71 -225 -71q-94 0 -148.5 63t-54.5 172q0 68 16 133l2 6q-54 20 -82 72t-28 125q0 239 249 473q80 74 174 134q50 31 97.5 56.5t95.5 48.5q45 20 93.5 37t101.5 31q97 25 178 25q53 0 96.5 -14.5 t74 -40.5t47.5 -63t17 -83zM1419 195q9 6 17 14l37 43l65 67q4 6 9.5 12.5l13 16t19 22.5l29.5 33q7 8 11 14t10 11l125 145q17 19 38.5 48l45 61.5l47 66.5l43 63.5l34 52.5t20.5 34q36 67 36 88t-16 21t-43 -21t-60.5 -56t-70.5 -80.5l-73.5 -94.5l-70 -98t-58.5 -91 l-41 -67l-56 -90q-36 -63 -63.5 -116t-47.5 -99zM1329 99q13 38 30 77l34 75l37 73.5t49 88.5q23 41 51.5 84l60.5 90l61 83.5t56 70.5l90 109.5t82.5 90t71 61t55.5 22.5q31 0 31 -35q0 -18 -13.5 -49.5t-42 -78.5t-72.5 -110.5l-106 -146.5q-19 -26 -52 -66.5l-81 -97.5 l-89 -101l-93 -101l-74 -78l-8 -10q-3 -3 -6 -6.5t-8 -8.5l-10 -14q-7 -11 -12 -21.5t-10 -19.5q-15 -32 -23.5 -59t-7.5 -52v-4l2 -24q18 -64 72 -64q28 0 67 16t84.5 45t95 68t99.5 86l14 12q25 75 60 147l37 73.5t49 88.5q23 41 51.5 84l60.5 90l61 83.5t56 70.5 l90 109.5t82.5 90t71 61t55.5 22.5q31 0 31 -35q0 -18 -13.5 -49.5t-42 -78.5t-72.5 -110.5l-106 -146.5q-19 -26 -52 -66.5l-81 -97.5l-89 -101l-93 -101l-74 -78l-8 -10q-3 -3 -6 -6.5t-8 -8.5l-2 -6q-22 -56 -37 -103.5t-24 -87.5q-11 -43 -16.5 -82.5t-4.5 -76.5 q0 -48 13 -88t37 -68t58 -43.5t76 -15.5q78 0 167 57q89 59 171 160l12 -10q-34 -49 -77.5 -90.5t-90.5 -72t-94 -48t-88 -17.5q-52 0 -92 20.5t-67 57t-40.5 86t-13.5 107.5q0 24 1.5 48.5t6 53.5t12 63t19.5 78l2 6l-6 -4q-50 -43 -97 -79.5t-90.5 -63.5t-82.5 -42 t-72 -15q-32 0 -58.5 26.5t-37.5 65.5q-1 7 -1.5 15t-0.5 18q0 54 23 115z" />
</font>
</defs>
</svg>
