<?xml version="1.0" standalone="no"?>
<!DOCTYPE svg PUBLIC "-//W3C//DTD SVG 1.1//EN" "http://www.w3.org/Graphics/SVG/1.1/DTD/svg11.dtd" >
<svg xmlns="http://www.w3.org/2000/svg">
<metadata>
This is a custom SVG webfont generated by Font Squirrel.
Copyright   : Copyright c Alexandra Gophmann 2006 All rights reserved
Designer    : A Gophmann
Foundry     : Alexandra Gophmann
</metadata>
<defs>
<font id="MariannaRegular" horiz-adv-x="1505" >
<font-face units-per-em="2048" ascent="1638" descent="-410" />
<missing-glyph horiz-adv-x="844" />
<glyph unicode=" "  horiz-adv-x="844" />
<glyph unicode="&#x09;" horiz-adv-x="844" />
<glyph unicode="&#xa0;" horiz-adv-x="844" />
<glyph unicode="!" horiz-adv-x="1647" d="M430 19q0 68 53 107t102 39q106 0 106 -92q0 -54 -57.5 -102.5t-102.5 -48.5q-92 0 -101 97zM614 531q101 448 377 1171q430 1111 458 1198q5 55 61.5 88t113.5 33q92 0 92 -69q0 -23 -24 -61q-245 -411 -531 -1199q-309 -861 -484 -1194q-23 -43 -40 -43q-23 0 -23 76z " />
<glyph unicode="&#x22;" horiz-adv-x="1182" d="M323 1166q29 198 64 396q47 272 153 305q59 0 64 -55q0 -23 -92 -226q-106 -231 -153 -446q0 -10 -12 -10q-24 0 -24 36zM663 1166q28 198 62 396q47 272 155 305q57 0 62 -55q0 -23 -92 -226q-107 -231 -154 -446q0 -10 -9 -10q-24 0 -24 36z" />
<glyph unicode="#" horiz-adv-x="1918" d="M236 618q0 33 101 92h423l203 354h-470q-42 0 -45 24q0 28 109 87h472l345 595q23 42 42 42q33 0 33 -101l-309 -536h354l222 380q23 43 49 45q24 0 24 -106l-184 -319h420q54 -2 54 -21q0 -28 -127 -90h-416l-203 -354h475q59 0 59 -19q0 -28 -132 -92h-463l-330 -575 q-33 -55 -52 -52q-19 0 -19 125l290 502h-354l-203 -358q-33 -59 -54 -57q-19 0 -19 130l165 285h-415q-43 0 -45 19zM876 710h351l203 354h-351z" />
<glyph unicode="$" horiz-adv-x="1864" d="M222 396q82 111 120 111q29 0 31 -73q0 -198 134.5 -335t313.5 -137l276 1204q-266 257 -266 486q0 222 152 401.5t365 214.5l73 297q0 43 33 55q14 0 49 -78l-63 -269q349 -7 349 -331q-43 -42 -78 -42q-47 0 -47 111q0 160 -239 184l-198 -876l290 -304 q140 -184 140 -357q0 -198 -187 -431q-226 -281 -561 -333l-59 -262q-24 -73 -52 -71q-14 0 -59 28l63 291h-37q-222 0 -382.5 152t-160.5 364zM927 -24q213 38 372 217.5t159 382.5q0 241 -278 512zM972 1808q0 -194 182 -401l179 793q-148 -15 -254.5 -131.5 t-106.5 -260.5z" />
<glyph unicode="%" horiz-adv-x="2739" d="M439 1088q0 354 286 642q231 236 387 238q217 -2 217 -321q0 -299 -208 -603.5t-425 -304.5q-257 0 -257 349zM545 1140q0 -281 203 -279q165 0 322 222t157 484q0 286 -167 283q-170 0 -342.5 -229t-172.5 -481zM729 -149l1452 2299q23 42 47 45q28 0 28 -106 l-1395 -2238q-33 -59 -59 -59q-28 0 -73 59zM1735 267q0 354 285 642q231 236 387 236q217 0 217 -319q0 -300 -207.5 -604.5t-424.5 -304.5q-257 0 -257 350zM1841 319q0 -281 203 -281q165 0 322 221.5t157 483.5q0 286 -170 286t-341 -229t-171 -481z" />
<glyph unicode="&#x26;" horiz-adv-x="2371" d="M111 701q0 342 285 614q324 313 942 434q38 373 208 701q193 377 436 377q156 0 254 -94.5t98 -228.5q0 -333 -550 -673q305 38 595 40h106q28 -9 28 -35v-9q-4 -33 -42 -33l-35 4q-102 14 -199 14q-396 0 -830 -115v-5q18 -512 110 -875q218 -876 770 -876 q323 0 517 349q165 295 198 758l9 49l10 -4q5 0 14 -10q0 -401 -179 -774q-241 -488 -661 -488q-281 0 -493 271q-359 -198 -697 -198q-387 0 -646 245q-246 232 -248 562zM271 677q0 -299 194 -502q208 -217 545 -217q305 -3 647 177q-333 460 -333 1286q0 174 9 257 q-521 -87 -811 -392q-251 -266 -251 -609zM1411 1770q165 33 276 52q522 300 522 654q0 266 -271 264q-199 -19 -366 -382q-144 -319 -161 -588z" />
<glyph unicode="'" horiz-adv-x="811" d="M323 1166q29 198 64 396q47 272 153 305q59 0 64 -55q0 -23 -92 -226q-106 -231 -153 -446q0 -10 -12 -10q-24 0 -24 36z" />
<glyph unicode="(" horiz-adv-x="1744" d="M673 227q0 1567 1269 2683q527 465 1268 802q9 0 9 -9q0 -14 -28 -45q-1025 -474 -1669 -1390q-696 -991 -696 -2181q0 -469 194 -840q0 -38 -15 -40q-14 5 -23 19q-121 193 -208 455q-101 310 -101 546z" />
<glyph unicode=")" horiz-adv-x="1689" d="M-517 -784q0 15 28 45q1025 475 1669 1390q696 992 696 2181q0 470 -193 840q0 38 14 40q14 -4 23 -19q121 -193 208 -455q102 -309 102 -545q0 -1567 -1265 -2684q-531 -464 -1272 -802q-10 0 -10 9z" />
<glyph unicode="*" horiz-adv-x="1425" d="M673 1753q14 24 28 26q42 -4 352 15q-111 179 -111 280q4 83 54 81q24 0 44 -21.5t114 -273.5q139 245 248 247q38 0 42 -73q-9 -23 -177 -236q262 0 309 -82q0 -55 -40 -83q-28 0 -309 45q0 -33 75.5 -173.5t75.5 -156.5q0 -5 -4 -10q-29 0 -37 13t-192 296 q-102 -130 -213 -295q0 -4 -9 -9q-14 14 -14 45q42 59 165 309q-392 42 -396.5 42t-4.5 14z" />
<glyph unicode="+" horiz-adv-x="1965" d="M382 706q0 33 102 92h507l194 559q14 33 37 35q24 -4 55 -129l-165 -465h552q56 0 56 -19q0 -29 -129 -92h-517l-184 -538q-14 -48 -40 -48q-15 5 -48 149l149 437h-526q-43 0 -43 19z" />
<glyph unicode="," horiz-adv-x="811" d="M-144 -517q0 5 5 5l240 134q175 125 189 295q0 55 -31.5 112.5t-31.5 86.5q14 106 96 106q111 0 121 -135q0 -424 -569 -618q-19 0 -19 14z" />
<glyph unicode="-" horiz-adv-x="2100" d="M479 522q0 33 116 110q139 88 285 88q121 0 358 -99t317 -99q92 0 167.5 50.5t71.5 50.5q14 0 14 -14q0 -73 -111 -126t-231 -53q-135 0 -358 89.5t-348 89.5q-54 0 -151 -46t-120 -46z" />
<glyph unicode="." horiz-adv-x="1047" d="M194 19q0 68 53 107t100 39q108 0 108 -92q0 -54 -59 -102.5t-101 -48.5q-92 0 -101 97z" />
<glyph unicode="/" horiz-adv-x="1531" d="M9 -512l1973 3122q24 43 48 43q28 0 28 -107l-1919 -3058q-38 -59 -56 -59q-29 0 -74 59z" />
<glyph unicode="0" horiz-adv-x="1593" d="M208 455q0 406 236 772q193 295 488 508q257 179 397 179q165 0 261.5 -143t96.5 -383q0 -498 -345.5 -1005.5t-709.5 -507.5q-202 0 -313 154.5t-111 425.5zM319 517q0 -222 101.5 -357.5t275.5 -135.5q295 0 585 387q305 406 305 866q0 493 -314 493q-319 0 -630 -396 q-323 -406 -323 -857z" />
<glyph unicode="1" horiz-adv-x="1010" d="M217 -78q0 14 433 947.5t452 933.5q-14 0 -60 -19t-294 -174q-281 -170 -415 -272h-33q-33 0 -33 10q0 14 375 266q337 222 437 281q59 47 115 47q83 3 83 -56q-170 -170 -857 -1933q-38 -83 -87 -83q-116 0 -116 52z" />
<glyph unicode="2" d="M24 217q0 194 226 194q227 0 529 -140q257 246 451.5 623.5t194.5 646.5q0 333 -309 335q-203 0 -363 -170q-175 -189 -172 -465q0 -266 167 -264q83 0 160.5 74.5t87.5 185.5q59 0 64 -24q0 -125 -133.5 -249t-263.5 -124q-212 0 -215 335q0 324 248 564 q227 227 498 229q359 0 357 -392q0 -285 -222 -686q-208 -364 -494 -645q369 -179 387 -186q222 -92 425 -92q0 -64 -80 -64q-179 0 -413 92q-47 19 -394 180q-257 -232 -432 -234q-139 0 -227 92q-77 78 -77 184zM156 217q0 -64 53 -121.5t119 -57.5q165 0 368 165 q-271 125 -396 125q-144 0 -144 -111z" />
<glyph unicode="3" horiz-adv-x="1246" d="M-203 -83q0 19 19 19h111q498 0 847 281q309 250 309 548q0 174 -132 273q-165 -101 -319 -101q-236 0 -236 142q0 143 255 143q208 0 354 -73q194 203 194 423q0 309 -392 309q-212 0 -444 -253q-9 -4 -26 -4q-14 0 -14 14q0 9 14 31q246 295 529 292q472 0 472 -323 q0 -272 -278 -517q184 -111 181 -333q0 -328 -351 -613q-397 -314 -982 -314q-111 19 -111 56zM444 1088q0 -38 59 -72t134 -34q137 0 272 87q-125 83 -343 80q-120 0 -122 -61z" />
<glyph unicode="4" horiz-adv-x="1352" d="M64 599q0 29 14 64q116 73 715 620.5t623 562.5q59 47 116 49q82 0 82 -59q-82 -83 -443 -873q-69 -135 -111 -234l269 50q4 -19 4 -45q0 -68 -64.5 -94t-277.5 -50q-184 -425 -184 -595q0 -125 -82 -125q-107 0 -107 24q29 115 232 687q-38 -15 -352 -19h-401 q-33 0 -33 37zM198 663q267 5 715 43q449 918 527 1047q-15 0 -57 -18z" />
<glyph unicode="5" horiz-adv-x="1231" d="M-59 -68q0 18 21 21h111q333 0 652 196q410 250 410 672q0 165 -87 286q-97 144 -274 144q-134 0 -387 -250q-42 -19 -73 -19q-43 0 -43 33l371 871q295 -69 460 -69q184 0 290 73q38 -14 38 -23q0 -59 -179 -114q-149 -47 -241 -47q-198 0 -333 24l-262 -628 q203 267 446 267q194 0 305 -170q97 -144 97 -359q0 -469 -461 -748q-368 -227 -748 -227q-111 19 -113 67z" />
<glyph unicode="6" horiz-adv-x="1425" d="M208 411q0 590 396 1069q359 429 687 429q236 0 236 -285q0 -69 -73 -92q-10 -5 -24 -5q0 290 -203 290q-266 0 -585 -396q-338 -430 -338 -895v-71q111 236 300 414.5t354 178.5q368 0 366 -385q0 -281 -189 -533q-203 -272 -477 -269q-198 0 -324 168.5t-126 381.5z M337 319q107 -324 406 -324q203 0 345 199q130 179 130 396q0 359 -319 356q-156 0 -318 -198q-149 -179 -244 -429z" />
<glyph unicode="7" horiz-adv-x="1099" d="M189 1735q0 33 89.5 115.5t191.5 82.5q82 0 359.5 -99t336.5 -99q64 0 115.5 50.5t47.5 50.5q82 -9 82 -57q-198 -193 -484 -745l258 -19q47 -5 47 -43q-5 -28 -33 -30q-144 19 -309 21q-364 -715 -364 -968q0 -33 5 -42q-33 -83 -87 -83q-55 0 -92.5 26t-37.5 40 q101 250 474 1027q-101 0 -226 -17q-48 0 -50 36q0 78 73 71l246 -15q203 369 387 631q-64 -24 -116 -26q-97 0 -364.5 89.5t-355.5 89.5q-33 0 -101.5 -46t-82.5 -46z" />
<glyph unicode="8" horiz-adv-x="1288" d="M33 267q0 217 238 424q83 74 494 347q-111 180 -114 350q0 203 150 357.5t348 154.5q300 0 300 -272q0 -207 -503 -554q175 -250 194 -281q92 -165 92 -309q0 -189 -189 -397q-226 -250 -554 -252q-185 0 -320.5 126t-135.5 306zM160 300q0 -165 113.5 -281t262.5 -116 q198 0 365.5 159.5t167.5 352.5q0 156 -87 305q-19 42 -175 257q-318 -217 -444 -340q-203 -189 -203 -337zM769 1513q0 -175 140 -383q434 295 434 553q0 160 -246 158q-129 0 -228.5 -101.5t-99.5 -226.5z" />
<glyph unicode="9" horiz-adv-x="1182" d="M217 1180q0 333 368 590q324 231 642 231q257 0 257 -184q0 -97 -77 -231l-364 -623q-160 -272 -264 -562q-97 -271 -97 -406q0 -33 5 -42q-33 -83 -88 -83q-54 0 -91.5 26t-37.5 40q101 246 472 1027l146 245q-392 -266 -614 -266q-101 0 -179 73t-78 165zM359 1246 q0 -184 158 -182q231 0 644 260q196 304 196 420q0 161 -217 161q-250 0 -503 -185q-281 -203 -278 -474z" />
<glyph unicode=":" horiz-adv-x="1047" d="M194 19q0 68 53 107t100 39q108 0 108 -92q0 -54 -59 -102.5t-101 -48.5q-92 0 -101 97zM411 701q0 68 53 106t102 38q107 0 107 -92q0 -54 -58 -101.5t-103 -47.5q-92 0 -101 97z" />
<glyph unicode=";" horiz-adv-x="998" d="M-144 -517q0 5 5 5l240 134q175 125 189 295q0 55 -31.5 112.5t-31.5 86.5q14 106 96 106q111 0 121 -135q0 -424 -569 -618q-19 0 -19 14zM373 701q0 68 53 106t100 38q106 0 106 -92q0 -54 -57.5 -101.5t-100.5 -47.5q-92 0 -101 97z" />
<glyph unicode="&#x3c;" horiz-adv-x="2192" d="M342 894q0 29 59 48l1600 575q10 0 10 -14q0 -33 -73 -120l-1398 -493l1006 -562q64 -24 64 -52q0 -33 -116 -59l-1126 644q-23 15 -26 33z" />
<glyph unicode="=" horiz-adv-x="2100" d="M420 474q0 33 102 92h1180q56 -2 56 -21q0 -28 -130 -90h-1163q-43 0 -45 19zM632 942q0 28 107 87h1180q54 0 54 -19q0 -28 -127 -92h-1169q-42 0 -45 24z" />
<glyph unicode="&#x3e;" horiz-adv-x="2126" d="M314 236q0 33 73 123l1397 491l-1005 561q-64 24 -64 55q0 33 116 56l1125 -642q26 -16 26 -35q0 -28 -59 -47l-1600 -576q-9 0 -9 14z" />
<glyph unicode="?" horiz-adv-x="1380" d="M430 19q0 68 53 107t102 39q106 0 106 -92q0 -54 -57.5 -102.5t-102.5 -48.5q-92 0 -101 97zM526 687q0 387 411 715l769 498q411 281 411 550q0 188 -133.5 305t-373.5 117q-314 0 -572 -224q-280 -246 -278 -600l9 -61q0 -47 -68 -49q-73 0 -73 115q0 368 401 668 q373 271 741 271q245 0 385.5 -128.5t140.5 -340.5q0 -281 -420 -585l-783 -517q-420 -309 -420 -609q0 -272 198 -305q0 -87 -78 -87q-116 0 -191.5 73t-75.5 194z" />
<glyph unicode="@" horiz-adv-x="2416" d="M73 217q0 557 484 1055q512 522 1149 522q368 0 595 -194q245 -217 245 -623t-318 -727q-286 -285 -571 -283q-258 0 -255 269q0 73 78 165q0 5 -5 5q5 0 -262 -200.5t-382 -200.5q-111 0 -111 92q0 222 373 517q354 285 550 285q28 -5 64.5 -32t36.5 -41q0 -5 -5 -9 q-271 0 -691 -421q-135 -134 -135 -226q0 -33 33 -35q107 0 406 247q241 203 345 324q47 59 68 59q47 0 47 -69q0 -23 -63 -111q-208 -285 -208 -363q0 -198 156 -198q198 0 434 266q257 291 257 595q0 455 -238 642q-184 149 -555 151q-535 0 -958 -470 q-401 -448 -401 -951q0 -396 314 -635q285 -217 701 -217q668 0 1010 484q47 33 78 33q33 0 40 -28q-213 -281 -552 -434q-314 -140 -661 -142q-460 0 -765 227q-328 250 -328 672z" />
<glyph unicode="A" horiz-adv-x="2643" d="M116 585q0 678 516 1402q456 642 1133 1098q663 443 1135 443q314 0 319 -212v-14q0 -200 -134 -383q-88 -125 -166 -174q-47 -24 -63 -24q-24 14 -24 24l132 191q130 191 130 330q0 189 -222 189q-444 0 -1074 -477q-609 -460 -1045 -1092q-467 -678 -467 -1188v-7 q0 -448 158 -637q139 -170 450 -170q425 0 1058 701q125 545 469 1088q328 522 522 522q59 0 59 -69q-5 -111 -257 -545q-281 -488 -623 -904q-83 -299 -83 -542q0 -475 319 -560q0 -33 -76 -35q-377 125 -377 639q0 121 23 281q-618 -663 -1093 -663q-396 0 -585 300 q-134 212 -134 488zM2166 826q305 382 536 769q217 373 231 522q0 14 -23 14q-198 -170 -408 -537t-336 -768z" />
<glyph unicode="B" horiz-adv-x="3004" d="M-222 189q0 106 203 111h13q503 0 780 -314q0 -14 -14 -14q-328 285 -677 285q-161 0 -161 -146q0 -116 243 -231q295 -144 720 -147q503 0 1010 267q470 241 779 618.5t309 710.5q0 314 -193 521q-281 295 -919 295q-368 0 -639 -82q-33 -10 -43 -10q-18 0 -18 10 q0 23 61 49q387 149 696 342q585 364 585 727q0 149 -203 149q-342 0 -880 -540q-484 -494 -873 -1152q-397 -673 -408 -1034q-14 -106 -116 -106q-73 0 -71 68q0 241 397 937q434 765 932 1291q618 647 1102 647q139 0 222 -73q68 -64 68 -140q0 -405 -1031 -1010 q0 -14 50 -14q9 0 129.5 12t221.5 12q401 0 682 -149q406 -222 406 -710q0 -595 -705 -1138q-720 -550 -1546 -550q-295 0 -614 88q-498 139 -498 420z" />
<glyph unicode="C" horiz-adv-x="2334" d="M42 677q0 508 378 1181.5t932 1129.5q614 507 1199 507q411 -2 411 -340q0 -410 -372 -920t-695 -510q-175 0 -175 208q0 165 107 318q63 92 247 277q19 18 33 18q29 0 29 -37q-352 -284 -352 -554q0 -67 41.5 -121.5t102.5 -54.5q208 0 536 444q347 479 349 904 q0 295 -300 295q-479 0 -1038 -448q-517 -420 -876 -1041q-372 -637 -372 -1149q0 -402 212 -664q217 -276 571 -276q614 0 1348 737q19 9 26 9q18 0 18 -24q0 -33 -40 -73q-203 -212 -467 -392q-503 -328 -972 -328q-484 0 -711 314q-170 236 -170 590z" />
<glyph unicode="D" horiz-adv-x="3894" d="M-522 33q0 271 517 271q338 0 1053 -280q788 443 1595 1600l111 160q-75 237 -75 505v21q0 605 351 1093q364 508 845 508q198 0 382 -166q295 -257 295 -802q0 -470 -207 -1029q-217 -604 -600 -1093q177 -52 373 -52h14q156 0 262 43q14 14 43 14q14 0 14 -14 q0 -102 -333 -102q-217 0 -415 59q-831 -1024 -1968 -1026q-251 0 -744 179q-448 -217 -866 -217q-241 0 -415 64q-232 87 -232 264zM-470 59q0 -139 208 -224q156 -62 324 -62h11q444 0 836 185l-541 191q-295 92 -460 92q-170 0 -286 -71q-92 -59 -92 -111zM1126 -5 q460 -174 658 -174q1057 0 1841 977q-571 212 -817 835q-545 -682 -760 -904q-443 -469 -922 -734zM2851 2334q0 -179 35 -347q106 213 338 614q28 37 78 37q101 0 101 -73l-116 -191q-169 -281 -363 -566q198 -739 743 -958q760 986 760 2065q0 535 -271 769 q-165 139 -333 139q-425 -5 -715 -512q-257 -448 -257 -977z" />
<glyph unicode="E" horiz-adv-x="2192" d="M-479 2053q9 54 78 54q923 0 1789 383v42q0 281 361 522q387 262 904 262q19 0 179 -14q517 295 876 295q332 0 332 -189q0 -139 -193 -217q-170 -69 -420 -69q-55 0 -633 97q-377 -245 -1239 -739q38 -155 228 -261.5t412 -106.5q78 0 148 14q15 5 45 5q38 0 38 -42 q0 -48 -73 -50q-262 0 -715 -149q-567 -184 -918 -474q-453 -366 -453 -829v-6q0 -300 172 -522q208 -262 571 -262q498 0 972 406q33 28 52 28q24 0 24 -23q0 -24 -47 -64q-121 -120 -328 -231q-354 -189 -725 -189q-861 0 -861 826q0 493 493 880q342 276 913 484 q447 162 489 162q5 0 5 -2l-130 33q-156 38 -257 97q-156 83 -203 208q-862 -401 -1780 -401q-106 0 -106 42zM1546 2561q281 129 625 339l541 328q-102 19 -208 19q-387 0 -657.5 -200.5t-300.5 -485.5zM2915 3287q377 -82 613 -82q170 0 295 47q144 54 144 146 q0 121 -304 121q-324 0 -748 -232z" />
<glyph unicode="F" horiz-adv-x="3488" d="M-512 222q0 189 420 189q401 0 715 -222q33 -24 35 -50q0 -19 -30 -19q-10 0 -106 59q-121 74 -236 116q-175 59 -369 59q-309 0 -309 -170q0 -139 300 -248q276 -101 576 -101q540 0 1140 257q566 241 1064 651l-935 10q-101 0 -212 -5q-8 -1 -16 -1q-62 0 -59 37 q0 18 33 44t82 26l1209 -19q443 397 705 843q269 465 269 878v9q0 347 -241 571q-266 246 -748 248q-420 0 -823 -132q-562 -696 -781 -696q-107 0 -107 87q0 97 168 267q226 236 614 377q155 236 188 324q14 47 55 47q96 0 96 -66q0 -38 -160 -243q429 115 953 115 q402 0 652 -172q299 -215 299 -639q0 -937 -996 -1822l711 -10q73 0 73 -42q-9 -33 -83 -40q-590 0 -807 4q-535 -443 -1176 -711t-1162 -268q-277 0 -562 80q-439 125 -439 378zM1154 2679q0 -48 50 -50q188 0 575 562q-280 -116 -452.5 -261t-172.5 -251z" />
<glyph unicode="G" horiz-adv-x="2671" d="M-720 236q0 179 378 189h36q320 0 577 -154q213 -125 213 -184q0 -19 -24 -19q-19 0 -40 19q-68 69 -245 154q-251 115 -484 118q-241 0 -241 -123q0 -130 163 -241q250 -170 779 -170q1097 0 2025 1020q387 420 705 1015q-4 9 -23 16q-647 -623 -1291 -625 q-241 0 -387 106q-465 -484 -932 -913q-38 -24 -50 -24q-14 5 -19 19q0 42 45 59q217 198 909 904q-140 144 -142 439q0 531 463.5 1143.5t957.5 664.5q174 0 174 -194q0 -595 -1281 -1966q144 -144 401 -146q595 0 1315 847q17 52 73 52h4q24 0 56 -23.5t32 -47.5 q0 -23 -29 -82l-436 -765q-434 -663 -975 -1048q-739 -526 -1668 -526q-305 0 -614 101q-425 140 -425 385zM1402 1933q0 -236 101 -392q1194 1293 1194 1834q0 144 -132 144q-415 0 -807 -609q-356 -552 -356 -970v-7z" />
<glyph unicode="H" horiz-adv-x="4054" d="M-1102 236q0 139 193 208q135 47 314 49q430 -42 668 -217q28 -19 28 -35q0 -14 -14 -14q-4 0 -14 4q-323 203 -663 203q-387 0 -387 -189q0 -203 363 -299q234 -62 528 -62h18q1184 0 2301 1256q-435 262 -435 538q0 111 87.5 194.5t250.5 83.5q333 0 576 -207 q571 807 951 1720q4 14 30 17q5 0 70 -11t65 -34q-116 -281 -257 -559q-338 -678 -753 -1244q217 -262 309 -706q139 -19 489 -19l1052 1978q69 130 146 130q66 -19 66 -47l-1168 -2056q470 19 628 59q24 0 24 -26q0 -42 -33 -47q-277 -47 -652 -50q-165 -304 -427 -830 q-68 -144 -101 -144q-59 14 -57 61q0 38 23.5 106.5t23.5 325.5q0 267 -47 503q-430 47 -741 203q-1154 -1242 -2464 -1244q-460 0 -743 137q-246 120 -248 264zM1919 1697q0 -236 377 -484q262 319 378 484q-236 208 -548 208q-207 0 -207 -208zM2412 1145 q290 -154 668 -208q-92 396 -300 649q-175 -227 -368 -441zM3141 871q54 -286 54 -585q0 -92 -4 -156h1q6 0 46 78l344 646q-295 0 -441 17z" />
<glyph unicode="I" horiz-adv-x="2827" d="M-1048 165q0 78 90 144q120 87 340 87q401 0 885 -304q19 -28 19 -38q0 -23 -24 -26q-24 0 -50 19q-387 286 -875 286q-83 0 -155 -44t-72 -114q0 -444 987 -446q540 0 1081.5 237t957.5 662q-807 401 -807 1605q0 599 299 1054q312 472 768 472h6q369 0 550 -318 q156 -272 156 -715q0 -508 -217 -1053q-222 -566 -623 -1015q333 -144 826 -146q66 0 66 -38q0 -33 -85 -35q-503 0 -861 156q-871 -928 -2117 -928q-328 0 -633 76q-512 130 -512 422zM1430 2301q0 -1227 765 -1610q748 822 748 1933q0 1084 -623 1084q-328 0 -609 -447.5 t-281 -959.5z" />
<glyph unicode="J" horiz-adv-x="2284" d="M-1088 -2542q0 1305 2122 2792q1203 2471 1862 3292q-1334 -250 -1848 -493q-873 -405 -873 -1168v-5q0 -521 467 -524q267 0 519 215q10 14 33 14q33 0 33 -26q0 -73 -219.5 -182.5t-403.5 -109.5q-550 0 -550 597q0 774 909 1208q526 257 1772 514q78 19 227 48 q561 663 1000 663q208 0 208 -156q0 -212 -333 -352q-240 -101 -811 -214q-562 -734 -1652 -2990l-74 -151q720 474 1435 826h29q47 0 49 -19q0 -10 -28 -38q-231 -111 -470 -241q-566 -314 -1078 -658q-748 -1541 -1145 -2171q-604 -952 -1019 -952q-161 0 -161 281z M-963 -2499q5 -227 113 -227q295 0 796 855q311 523 1022 1982q-1931 -1393 -1931 -2595v-15zM3094 3658q460 101 656 189q262 113 262 262q0 111 -101 111q-359 0 -817 -562z" />
<glyph unicode="K" horiz-adv-x="2416" d="M-3108 222q0 236 420 238q406 0 821 -325q0 -34 -28 -34q-14 0 -130 78q-144 92 -271 144q-194 78 -392 78q-257 0 -255 -174q0 -218 392 -338q285 -87 599 -87q1098 0 2252 1156q-342 5 -508 144q-115 97 -115 217q0 165 304 165q319 0 623 -203q831 928 1470 2141 q19 24 67 47q115 -23 115 -47v-14q-5 -5 -5 -14q-193 -368 -415 -715q-531 -845 -1126 -1485q48 -38 144 -125q876 149 1742 817q784 613 1305 1435q24 37 57 37h141q59 0 57 -23q-411 -586 -878 -1029q-1130 -1079 -2365 -1296q208 -217 840 -1140q546 -797 992 -1156 q651 -531 1456 -531q406 0 646 139q227 135 227 354q0 250 -569 463q-517 188 -1015 188q-516 0 -811 -120q-24 -9 -41 -9q-28 0 -28 23q0 43 33 54q378 126 895 126q594 0 1102 -161q604 -186 604 -496q0 -309 -314 -479q-290 -160 -739 -160q-922 0 -1626 547 q-488 383 -1010 1188q-658 1000 -781 1146q-179 -18 -285 -23q-1251 -1232 -2467 -1234q-443 0 -786.5 142.5t-343.5 350.5zM-236 1300q0 -262 604 -271q28 28 172 184q-257 212 -554 212q-222 0 -222 -125zM562 1034q80 0 158 14q-47 47 -78 73z" />
<glyph unicode="L" horiz-adv-x="2709" d="M-430 227q0 115 154 188q130 64 314 64q420 0 1055 -300q460 276 913 956q170 250 734 1267q-658 -231 -1204 -231q-406 0 -434 76q0 59 47 59q-8 0 -8 -1q0 -4 116 -24q145 -25 473 -25q455 0 1055 220q363 646 618 932q354 392 720 392q267 0 267 -161 q0 -241 -394.5 -563t-974.5 -567q-604 -1060 -798 -1334q-512 -738 -1048 -1036q387 -193 1265 -748q855 -536 1296 -748q706 -342 1218 -345q354 0 575 92q246 97 246 281q0 319 -545 527q-484 179 -1098 179q-410 0 -729 -97q-33 -19 -68 -19q-29 0 -38 29q0 52 108 52h8 q-7 0 -7 1q0 6 258 47q298 48 593 48q503 0 963 -125q697 -181 697 -569q0 -280 -350 -413q-232 -84 -529 -84h-21q-996 0 -2180 684l-1794 1142q-368 -160 -729 -160q-189 0 -411 59q-333 92 -333 255zM-267 236q59 -135 262 -212q160 -57 335 -57h12q331 0 635 144 q-571 309 -958 309q-281 0 -286 -184zM3059 2587q512 221 837 493q357 295 357 545q0 92 -168 92q-241 0 -514 -328q-189 -231 -512 -802z" />
<glyph unicode="M" horiz-adv-x="4465" d="M304 92q0 406 522 1265q550 904 1204 1508q73 271 73 562q0 318 -262 599l-484 453q-262 281 -260 604q0 194 116 413q130 246 300 246q106 0 106 -33q-420 -342 -420 -706q0 -281 276 -528l512 -444q274 -298 274 -704v-6q0 -102 -47 -295q580 479 1024 479 q359 0 359 -310q0 -231 -243 -731q-78 -170 -517 -975q-456 -835 -661 -1180q-28 -47 -31 -64q0 -4 5 -4q14 0 127 122l10 15q760 866 1177 1286q64 64 569 609t519 559q48 47 102 50q87 0 87 -64q0 -43 -56 -125q-241 -354 -442 -866q-295 -774 -295 -1513 q0 -779 494 -1367q585 -705 1618 -705q411 0 692 89q411 135 411 447q0 266 -454.5 453.5t-1086.5 187.5q-449 0 -978 -148q-18 -10 -28 -10q-23 0 -23 24q0 19 37 38q425 188 1074 188q585 0 1057 -169q548 -194 548 -508q0 -318 -359 -503q-322 -162 -835 -162h-19 q-817 0 -1461 474q-835 618 -835 1817q0 942 637 2122l-2436 -2596q-68 -59 -106 -59q-42 0 -45 45q0 14 69 125q28 47 387 701q377 682 401 738l382 697q347 682 347 936q0 246 -304 248q-392 0 -951 -512q-246 -788 -881 -1857q-656 -1095 -912 -1095h-1q-83 0 -83 139z M411 203q0 -120 73 -120q14 0 38 9q129 54 667 928q267 429 522 1019q189 427 262 663q-576 -595 -1083 -1435q-479 -788 -479 -1064z" />
<glyph unicode="N" horiz-adv-x="2874" d="M111 -54q0 37 68 146q1605 2572 1605 3283q0 314 -189 531l-358 351q-189 232 -189 586q0 571 691 937q14 0 92 -24q48 -19 50 -42q0 -29 -83 -59q-262 -88 -457.5 -351t-195.5 -549q0 -245 193 -483l368 -406q194 -267 194 -583q0 -449 -628 -1577l-918 -1586 q24 0 38 15q207 280 1347 1498q1034 1107 1204 1267q66 62 77 62h1q23 0 73 -29q24 -14 24 -37q0 -42 -60 -132l-120 -173q-401 -642 -580 -1465q-107 -484 -107 -789q0 -1047 895 -1600q677 -420 1503 -420q420 0 644 111q203 102 203 267q0 257 -417 460 q-456 231 -1140 231q-460 0 -807 -115q-29 -10 -43 -10q-47 0 -49 33q0 33 45 48q-10 0 -10 1q-1 7 289 49q344 50 695 51q760 0 1204 -227q392 -191 392 -467q0 -212 -246 -354q-266 -153 -714 -153h-17q-1190 0 -1888 623q-664 590 -664 1527q0 613 286 1387 q179 494 328 739q73 120 73 139q0 5 -5 10q-4 0 -14 -5q-148 -125 -1324 -1406l-1151 -1261l-57 -68q-52 -52 -89 -52h-3q-59 0 -59 71z" />
<glyph unicode="O" horiz-adv-x="2938" d="M149 817q0 1305 1494 2402q14 9 35 9q38 0 38 -37q0 -10 -14 -26q-411 -300 -706 -637q-706 -812 -706 -1702q0 -434 208 -748q227 -347 590 -349q323 0 736 306.5t772 799.5q-382 175 -595 609q-193 402 -193 899q0 609 276 1037q299 467 794 467h4q290 0 439 -338 q115 -257 115 -599q0 -1015 -691 -2049q170 -73 373 -73q198 0 377 102q5 4 19 4q24 0 28 -14q-4 -9 -19 -19q-202 -125 -434 -127q-193 0 -392 64q-363 -517 -783 -817q-444 -323 -850 -323t-653 288q-262 309 -262 871zM1992 2402q0 -479 158 -870q179 -430 493 -619 q673 968 673 1886q0 956 -501 956h-2q-382 0 -613 -416q-208 -382 -208 -937z" />
<glyph unicode="P" horiz-adv-x="2116" d="M-83 1246q10 47 19 50q78 -69 180 -121q250 -130 585 -193q531 991 1300 1675q942 845 1886 848q701 0 701 -605q0 -502 -493 -981q-470 -456 -1213 -739q-765 -295 -1525 -295q-267 0 -507 24q-258 -531 -324 -933q-4 -47 -4 -96q-10 -24 -62 -36q-92 -14 -97 -14 q-47 0 -49 54q0 364 363 1048q-469 73 -715 222q-42 14 -45 92zM871 958q149 -19 361 -21q866 0 1619 309q691 286 1116 746q411 446 411 880q0 522 -656 522q-831 0 -1674 -798q-705 -673 -1177 -1638z" />
<glyph unicode="Q" horiz-adv-x="3174" d="M-710 347q0 160 342 160q503 0 1451 -474q659 170 1315 692q613 479 1012 1080.5t399 1050.5q0 646 -842 649q-402 0 -887 -281t-808 -711q-354 -469 -354 -946q0 -227 151 -382q161 -170 415 -170q194 0 458 130q286 139 397 321q14 14 35 14q28 0 28 -26 q0 -97 -309 -300q-354 -227 -663 -227q-281 0 -461.5 162t-180.5 428q0 435 323.5 918.5t821.5 792.5q540 338 1097 338q958 0 958 -694q0 -455 -409.5 -1054.5t-1046.5 -1092.5q-682 -522 -1378 -725q354 -179 1345 -739q855 -483 1301 -686q672 -305 1066 -305 q895 0 895 387q0 300 -383 512q-443 246 -1217 246q-383 0 -573 -60.5t-204 -60.5q-19 0 -26 10q0 33 114.5 83.5t225.5 67.5q267 38 493 38q498 0 1010 -161q697 -212 697 -595q0 -198 -189 -342q-246 -193 -755 -193q-567 0 -1305 309q-536 222 -1348 701 q-1272 748 -1281 755q-319 -78 -590 -78q-329 0 -671 97q-469 130 -469 361zM-562 333q0 -208 446 -309q291 -62 626 -62h21q170 0 411 43q-841 455 -1310 455q-194 0 -194 -127z" />
<glyph unicode="R" horiz-adv-x="2874" d="M130 1333q0 194 330 194q300 0 545 -135q531 890 1204 1426q854 687 1836 687q314 0 510 -159.5t196 -421.5q0 -434 -452 -898t-1163 -785q-759 -337 -1560 -391l671 -1095q434 -701 875 -1041q606 -458 1454 -458h7q328 0 592 120q227 102 229 300q0 319 -430.5 536 t-1025.5 217q-396 0 -868 -139q-33 -10 -40 -10q-29 0 -29 24q0 23 41.5 48t345.5 77q359 59 628 59q536 -5 987 -198q521 -225 521 -567q0 -240 -272.5 -395t-727.5 -155q-900 0 -1560 484q-489 354 -949 1072l-682 1111h-24q-170 0 -351 14q-208 -465 -326 -863 q-59 -149 -135 -151q-101 18 -101 101q0 262 333 949q-609 115 -609 443zM227 1333q14 -82 77 -148q140 -170 465 -239l173 335q-227 170 -487 173q-155 -19 -191.5 -40.5t-36.5 -80.5zM996 913q165 -9 281 -9h23q-78 106 -198 236q-5 -10 -106 -227zM1175 1281 q180 -139 357 -372q904 54 1659 474q613 342 1010 845q342 434 342 705q0 232 -168.5 358t-430.5 126q-923 0 -1707 -705q-594 -536 -1062 -1431z" />
<glyph unicode="S" horiz-adv-x="2787" d="M-368 401q0 59 87 112t203 53q184 0 456 -101q250 -97 382 -198q19 -14 19 -36q0 -28 -31 -28q-19 0 -42 14q-232 135 -295 165q-251 116 -503 116q-144 0 -144 -116q0 -193 411 -323q354 -111 724 -113q668 0 1126 276q512 309 512 852q0 184 -158 410q-59 83 -326 383 l-1168 -1383q-38 0 -40 38q0 18 45 73l1107 1333q-213 257 -213 411q0 354 328 746q347 405 706 405q193 0 193 -184q0 -245 -852 -1305l369 -474q193 -276 193 -448q0 -465 -521.5 -834.5t-1236.5 -369.5q-531 0 -916 139q-415 149 -415 387zM1952 2459q0 -149 160 -385 q739 909 739 1154q0 140 -144 140q-231 0 -493 -314t-262 -595z" />
<glyph unicode="T" horiz-adv-x="3285" d="M-748 333q0 229 378 229h7q198 0 417 -97q184 -83 182 -106q0 -14 -33 -17h-19q-83 64 -254 114.5t-293 50.5q-102 0 -181 -53t-79 -145q0 -208 342 -314q246 -78 522 -78q937 0 1838 692q788 604 1208 1435q-328 9 -464 9q-97 0 -140 -5q-47 0 -49 36q0 71 69 71h4 l623 -14q170 368 170 649q0 729 -977 729q-276 0 -652 -125q-198 -246 -441 -442q-262 -207 -406 -207q-106 0 -106 82q0 161 281 333q245 156 637 276q149 217 151 364l47 18q38 0 55 -28q0 -106 -161 -326q498 144 803 147q479 -5 745 -203q250 -194 250 -522t-217 -750 l517 -14q47 0 47 -43q-4 -33 -52 -40h-561q-470 -845 -1305 -1482q-937 -710 -1808 -713q-444 0 -762 137q-333 139 -333 352zM1024 2882q0 -38 50 -41q111 0 323.5 157t381.5 360q-313 -111 -528 -240q-227 -140 -227 -236z" />
<glyph unicode="U" horiz-adv-x="3202" d="M-198 3011q0 333 207 527q189 174 489 174q531 0 977 -434q453 -446 453 -1005q0 -241 -116 -557q498 101 673 429q10 5 19 5q24 0 24 -24q0 -78 -185 -221q-231 -185 -554 -253q-116 -271 -517 -918q-314 -507 -314 -696q0 -168 141 -168h3q333 0 1282 1107 q778 918 1116 1477q42 74 130 74q54 0 54 -43q0 -28 -59 -92q-73 -78 -106 -151l-576 -1071q-493 -959 -493 -1195q0 -165 127 -165q144 0 368 184t220 184q14 0 21 -14q0 -59 -238 -238q-262 -194 -425 -194q-231 0 -231 243q0 241 370 933l552 1024q-637 -947 -1281 -1565 q-600 -571 -885 -571q-250 0 -250 227q0 188 318 691q401 623 517 913q-125 -9 -208 -9q-646 0 -1149 465q-474 439 -474 927zM-68 3026q0 -572 502 -978q458 -370 971 -370h6q170 0 246 9q108 295 108 531q0 557 -363 987q-378 448 -913 448q-557 0 -557 -627z" />
<glyph unicode="V" horiz-adv-x="2376" d="M-507 2846q0 333 231 543q217 198 552 198q479 0 928 -436q479 -465 479 -1039q0 -241 -88 -488q251 63 402 193q110 92 125 170q0 14 28 14q5 0 5 -9q0 -106 -130 -222q-165 -135 -449 -198q-115 -305 -538 -885q-347 -475 -347 -696q0 -149 135 -151q359 0 1112 833 q1267 1401 1420 1545q890 831 1586 831q184 0 184 -92q0 -24 -4 -38q-19 -68 -74 -68q-37 0 -77 26q-798 0 -1681 -814q-203 -189 -1364 -1501q-710 -812 -1097 -812q-144 0 -226.5 67t-82.5 164q0 189 339 661q411 571 541 899q-130 -19 -323 -19q-576 0 -1060 368 q-526 402 -526 956zM-378 2919q0 -618 581 -1019q474 -328 927 -328q175 0 291 19q111 295 111 580q0 479 -403.5 925t-857.5 446q-266 0 -457.5 -180.5t-191.5 -442.5z" />
<glyph unicode="W" horiz-adv-x="2676" d="M-531 3122q0 338 203 527q189 169 493 169q706 0 1091 -507q323 -429 325 -1043q0 -184 -35 -340q184 78 561 397q15 14 24 14q24 0 24 -38q0 -9 -5 -19q-290 -281 -614 -401q-134 -609 -599 -1128q-5 -10 -77 -84t-72 -79l154 116q354 266 1036 922q854 831 1149 1310 q106 175 139 175q29 -10 31 -28q0 -59 -97 -208l-156 -229q-557 -885 -1338 -2606q637 959 1643 1936q1302 1269 2066 1269h4q47 -4 47 -37t-38 -33q-444 0 -1392 -760q-1162 -923 -2358 -2500q-78 -101 -123 -101q-4 0 -25.5 14t-21.5 45q0 38 33 101q87 161 1138 2257 l47 96q-378 -420 -765 -797q-927 -904 -1758 -1459q-19 -9 -184 -137q-89 -66 -118 -66h-2q-15 0 -19 29q0 37 92 101l158 116q512 410 779 738q372 465 483 977q-160 -42 -332 -42q-664 0 -1127.5 399t-463.5 934zM-434 3181q0 -484 380 -885q439 -455 1118 -455 q184 0 338 40q42 212 42 439q0 484 -323 932q-378 512 -927 512q-258 0 -443 -171t-185 -412z" />
<glyph unicode="X" horiz-adv-x="3565" d="M-918 208q0 155 347 155q236 0 524 -136q269 -129 269 -217q0 -34 -38 -34q-19 0 -40 29q-267 309 -706 309q-290 0 -288 -130q0 -139 352 -314q373 -179 720 -179q923 0 1659 576q642 507 894 1232q-760 18 -1288.5 449t-528.5 990q0 678 772 678q576 -55 967 -553 q347 -455 347 -946q0 -257 -111 -562q59 0 88 7q396 720 1121 1298q687 550 1116 553q69 -3 73 -45q0 -58 -129 -58h-4h-1q-134 0 -508 -197q-448 -241 -833 -585q-484 -444 -724 -956q663 59 1083 333q9 4 24 4q33 0 33 -33q0 -19 -15 -30q-561 -300 -1149 -338 q-189 -439 -189 -899q0 -382 203 -633.5t508 -251.5q217 0 475.5 114.5t253.5 114.5q38 0 40 -26q0 -54 -304 -168q-328 -120 -553 -122q-377 0 -613 290q-213 257 -213 580q0 475 272 992h-78q-295 -744 -982 -1277q-788 -614 -1716 -614q-387 0 -769 217 q-363 203 -361 383zM1069 2962q0 -673 651 -1076q513 -319 1074 -331q88 276 88 534q0 561 -326 996q-346 467 -860 467h-4q-281 0 -452 -159.5t-171 -430.5z" />
<glyph unicode="Y" horiz-adv-x="2709" d="M-396 3464q0 251 193.5 423t478.5 172q618 0 1053 -498q410 -479 410 -1090q0 -165 -28 -321q314 101 484 330q14 10 33 10t19 -40q-213 -262 -550 -357q-69 -328 -281 -696l-341 -553q-171 -278 -171 -438q0 -87 92 -87q378 0 1218 1092q705 923 922 1412q38 59 151 59 q48 -3 48 -50q-203 -295 -604 -1140l-758 -1624q323 258 628 472q37 24 61 26q19 0 21 -35q0 -14 -30 -33q-166 -106 -739 -540q-1166 -2460 -1628 -2462q-180 0 -180 231q0 826 1652 2176l991 2136l-184 -260q-401 -571 -812 -1000q-545 -571 -830 -571q-78 0 -126.5 55.5 t-48.5 123.5q0 165 326 673q363 571 462 993q-134 -19 -304 -19q-682 0 -1173 484q-455 444 -455 946zM-257 3436q0 -517 493 -941q479 -411 1027 -411q139 0 283 23q49 227 49 435q0 618 -387 1029q-377 396 -918 396q-545 0 -547 -531zM245 -2268q0 -149 102 -149 q354 133 1355 2195q-1454 -1222 -1457 -2046z" />
<glyph unicode="Z" horiz-adv-x="2744" d="M-715 -2353q0 545 831 1348q807 778 1734 1180q92 285 92 488q0 430 -375 555q-618 -401 -958 -401q-184 0 -184 92q0 125 257 280q273 159 548 159h7q184 0 318 -29q571 411 1010 928q484 576 484 930q0 384 -604 384h-9q-333 0 -864 -198q-599 -878 -929 -878h-1 q-116 0 -116 97q0 410 949 826q111 189 203 366q64 59 106 59q38 0 52 -59q-33 -64 -184 -293q531 198 861 198q774 -2 774 -451q0 -377 -512 -967q-469 -536 -1102 -970q449 -144 449 -604q0 -184 -78 -430q417 158 748 158h12q42 0 47 -47q-338 0 -836 -198 q-198 -557 -715 -1244q-474 -628 -995.5 -1089t-769.5 -461q-250 0 -250 271zM-576 -2379q0 -139 106 -139q420 0 1203.5 889.5t1088.5 1715.5q-909 -406 -1614 -1088q-784 -752 -784 -1378zM614 968q0 -55 96 -55q255 0 739 333q-125 19 -212 21q-241 0 -444 -113 q-179 -101 -179 -186zM637 2591q0 -28 31 -30q278 2 739 731q-770 -337 -770 -701z" />
<glyph unicode="[" horiz-adv-x="1758" d="M236 -512l1624 4281q23 42 49 45h1180q52 0 52 -19q0 -28 -125 -92h-1083l-1537 -4133h1126q54 0 54 -18q0 -29 -127 -92h-1168q-43 0 -45 28z" />
<glyph unicode="\" horiz-adv-x="1661" d="M359 2759q23 97 52 97q23 -10 37 -52l1093 -3529q-54 -37 -71 -40q-33 5 -54 74z" />
<glyph unicode="]" horiz-adv-x="1283" d="M-531 -517q0 28 125 92h1083l1537 4133h-1126q-54 0 -54 18q0 29 127 92h1168q45 0 45 -28l-1626 -4283q-19 -43 -47 -43h-1180q-54 0 -52 19z" />
<glyph unicode="^" d="M562 1171l255 158q271 160 382 160q33 0 97 -193q59 -175 73 -276q-24 -38 -54 -38q-29 0 -48 52q-59 226 -141 335q-88 0 -541 -220q-23 0 -23 22z" />
<glyph unicode="_" horiz-adv-x="1873" d="M149 -194q0 29 108 88h1178q54 0 54 -19q0 -28 -125 -92h-1170q-43 0 -45 23z" />
<glyph unicode="`" d="M1079 1421q0 63 61 68q101 -14 257 -198l208 -276v-10q0 -19 -10 -23l-4 4q-161 170 -364 310q-148 101 -148 125z" />
<glyph unicode="a" d="M-120 97q0 222 370 517q354 285 552 285q29 -5 65.5 -32t36.5 -41q0 -5 -5 -9q-271 0 -691 -421q-135 -134 -135 -226q0 -33 33 -35q106 0 406 247q241 203 342 324q48 59 69 59q47 0 49 -69q0 -23 -63 -111q-208 -285 -208 -363q0 -135 149 -135q245 0 667 286 q15 14 29 14q16 0 16 -19q0 -59 -299 -224q-309 -172 -446 -172h-5q-250 0 -250 264q0 73 75 165q0 5 -5 5q5 0 -260.5 -200.5t-380.5 -200.5q-111 0 -111 92z" />
<glyph unicode="b" horiz-adv-x="1637" d="M5 444q0 535 377 1300q343 696 817 1235.5t762 539.5q156 0 156 -156q0 -489 -470 -1208q-363 -562 -899 -1102q-472 -482 -577 -482h-1q14 -455 285 -455q208 0 449 179q-47 87 -50 189q0 328 215 328q87 0 102 -121q0 -169 -147 -337q83 -135 257 -137q189 0 366 156 q14 14 31 14q14 0 14 -19t-49 -59q-213 -179 -430 -179q-179 0 -286 120q-282 -259 -548 -259h-6q-161 0 -264.5 133t-103.5 320zM179 682q0 -19 10 -19q92 0 531 472q488 522 826 1055q432 677 432 1102q0 111 -88 111q-226 0 -653 -547q-402 -513 -720 -1154 q-338 -678 -338 -1020zM986 512q0 -68 19 -120q116 132 116 271q0 47 -33 47q-102 0 -102 -198z" />
<glyph unicode="c" horiz-adv-x="1038" d="M-64 111q0 319 309 585q277 236 515 236q149 0 149 -120q0 -69 -199 -267q-19 -19 -42 -19q-38 0 -40 45q0 19 15 31t57.5 106t42.5 142q0 14 -33 16q-120 0 -351 -198q-281 -236 -281 -489q0 -184 158 -184q245 0 750 333q24 19 67 45q14 14 30 14q14 0 14 -19t-73 -78 l-382 -252q-273 -163 -444 -163h-4q-102 0 -180 72t-78 164z" />
<glyph unicode="d" horiz-adv-x="1633" d="M-28 144q0 262 284 540.5t575 278.5q155 439 745 1362q720 1125 1077 1125q87 0 87 -125q0 -401 -710 -1402q-619 -866 -1176 -1406q-33 -102 -33 -286q0 -73 48.5 -138t102.5 -65q144 0 380 147l286 198q14 14 31 14q14 0 14 -19q0 -59 -300 -252q-314 -203 -451 -203 q-255 0 -255 422v7q0 24 -9 26l-281 -219q-189 -135 -304 -135q-111 0 -111 130zM130 208q5 -78 78 -78q54 0 262 141l212 154q24 108 120 446q0 28 -18 28q-194 -54 -421 -309q-207 -236 -233 -382zM880 609q550 550 1076 1338q605 904 605 1319q0 38 -29 50 q-420 -231 -991 -1242q-392 -700 -595 -1234z" />
<glyph unicode="e" horiz-adv-x="1130" d="M-24 267q0 271 263.5 543.5t499.5 272.5q73 0 73 -68q0 -165 -286 -465q-226 -236 -370 -323q14 -213 203 -213q179 0 599 243q33 19 187 116q14 14 30 14q14 0 14 -19q0 -33 -198 -160q-488 -309 -701 -309q-314 0 -314 368zM156 304q92 29 288 253q219 241 219 366 q0 59 -35 59q-121 0 -294.5 -242t-177.5 -436z" />
<glyph unicode="f" horiz-adv-x="1139" d="M-1185 -2388q0 323 684.5 1768.5t1385.5 2606.5q807 1338 1093 1338q153 0 153 -156q0 -632 -673 -1550q-599 -817 -1222 -1237q-38 -23 -38 -73q43 -222 295 -222q246 0 668 286q14 14 28 14q15 0 15 -19q0 -54 -300 -219q-310 -168 -446 -168h-3q-184 0 -238 158 q10 -68 10 -207q0 -562 -265 -1178q-222 -526 -552 -920q-307 -371 -487 -371h-2q-106 0 -106 149zM-1064 -2369q0 -57 33 -57h2q139 0 420 368q305 392 512 887q246 600 246 1117q0 266 -66 340q-1145 -2209 -1147 -2655zM144 415q156 15 599 484q475 512 812 1069 q413 675 413 1135q0 97 -73 97q-139 0 -677 -871q-479 -778 -1074 -1914z" />
<glyph unicode="g" horiz-adv-x="1449" d="M-1175 -2450q0 1112 1678 2242l406 826q0 5 -10 5q-9 0 -33 -24l-257 -236q-342 -318 -562 -321q-101 0 -101 123q0 217 316 503q337 309 661 309q92 0 156 -40l101 142q33 42 66 42q64 0 64 -68q0 -33 -24 -67q-226 -337 -595 -1073q246 155 449 262q241 139 314 198 q14 14 30 14q15 0 15 -19q-19 -64 -334 -250t-537 -330q-692 -1353 -859 -1634q-479 -792 -798 -792q-144 0 -146 188zM-958 -2537q309 0 1392 2190q-1472 -1041 -1472 -2061q0 -129 80 -129zM120 208q0 -59 55 -59q198 0 845 691q23 36 23 40q0 19 -42 19 q-262 0 -571.5 -249t-309.5 -442z" />
<glyph unicode="h" horiz-adv-x="1512" d="M-175 -78q456 1010 848 1735q927 1730 1366 1732q156 0 156 -156q0 -493 -451 -1130q-337 -484 -854 -937q-444 -397 -543 -397q-283 -584 -283 -648q0 -20 9 -20q14 0 38 19q59 43 404.5 331t369.5 314q42 42 83 42q52 0 52 -60q0 -22 -38 -84q-161 -217 -161 -401 q0 -189 137 -189q125 0 500 255q24 19 69 45q14 14 28 14t17 -19q0 -19 -73 -78q-420 -337 -609 -337q-106 0 -172.5 69.5t-66.5 166.5q0 82 41.5 200t41.5 147q0 4 -5 9l-410 -344q-411 -345 -458 -345q-33 0 -36 66zM396 861q135 43 527 430q448 444 750 899 q380 569 380 970q0 111 -85 111q-434 -111 -1572 -2410z" />
<glyph unicode="i" horiz-adv-x="830" d="M-28 184q0 194 163 453q106 170 207 272q33 42 106 42q38 -9 41 -24q0 -4 -170 -279t-170 -407q0 -149 132 -149q174 0 554 281q15 14 31 14q14 0 14 -19q0 -28 -96 -97q-378 -271 -595 -271t-217 184zM585 1449q0 59 52 97q38 33 83 35q87 0 87 -82q0 -43 -50.5 -89 t-88.5 -46q-78 0 -83 85z" />
<glyph unicode="j" horiz-adv-x="1201" d="M-1421 -2450q0 1060 1633 2205l541 1111q-14 0 -57 -21l-788 -604h-33q-33 0 -35 9q0 14 54 50q115 73 463.5 357.5t371.5 300.5q59 47 116 47q82 0 82 -59q-129 -212 -545 -1081q276 180 512 310q272 165 314 198q14 14 29 14q14 0 14 -19q-19 -64 -328 -248 q-359 -212 -600 -370q-526 -1107 -821 -1600q-479 -788 -779 -788q-144 0 -144 188zM-1286 -2412q0 -125 82 -125h1q312 0 1359 2164q-1440 -1019 -1442 -2039zM996 1449q0 59 52 97q38 33 82 35q88 0 88 -82q0 -43 -51 -89t-88 -46q-78 0 -83 85z" />
<glyph unicode="k" horiz-adv-x="1703" d="M-149 -42q0 33 29 80l462 948q489 992 866 1575q536 826 831 828q156 0 156 -156q0 -493 -465 -1154q-354 -507 -885 -996q-460 -420 -555 -420q-226 -469 -226 -543l554 531q550 489 812 489q102 -14 102 -87q0 -208 -194 -357l-361 -217q-193 -120 -193 -257 q0 -213 167 -213q198 0 701 319q24 19 68 45q15 14 29 14t16 -19q0 -5 -63 -68q-116 -116 -401.5 -258.5t-424.5 -142.5q-262 0 -262 250q0 193 193 325l360 210q185 108 185 258q0 68 -61 68q-156 0 -747 -553.5t-636 -553.5q-59 5 -57 55zM337 753q130 42 543 460 q465 474 777 946q396 600 396 1001q0 111 -85 111q-434 -111 -1631 -2518z" />
<glyph unicode="l" horiz-adv-x="1019" d="M19 444q0 424 368 1137q342 663 788 1173q475 541 744 543q115 0 115 -156q0 -488 -453 -1149q-342 -503 -866 -996q-444 -425 -531 -425q14 -455 286 -455q179 0 498 212q23 19 66 45q14 14 30 14q15 0 15 -19q0 -23 -74 -78q-406 -299 -618 -299q-160 0 -264 133 t-104 320zM194 682q0 -19 9 -19q73 0 488 416q475 474 789 946q415 618 415 1043q0 111 -49 113q-246 0 -666 -524q-368 -465 -677 -1079.5t-309 -895.5z" />
<glyph unicode="m" horiz-adv-x="2916" d="M-156 250q0 14 55 50l748 576q59 47 151 47q96 0 96 -88q0 -18 -9 -56l-248 -432q-19 -33 -19 -43q0 -4 10 -4l14 4l359 310q276 231 396 231q161 0 158 -102q0 -87 -93 -263t-93 -190t9 -14q19 0 66 33l1006 760q47 38 101 38q33 0 48.5 -12t15.5 -42q0 -33 -19 -57 l-276 -392q-165 -250 -165 -434q0 -111 117 -111h10q149 5 338 120l309 194q14 14 28 14q17 0 17 -19q0 -28 -74 -78l-382 -257q-217 -130 -363 -130q-83 0 -138.5 58t-55.5 140q0 241 312 692q23 33 23 42q0 5 -4 5q-19 0 -69 -33l-599 -448l-411 -340q-38 -28 -106 -52 q-33 0 -33 47q0 97 161.5 311.5t161.5 302.5q0 82 -78 82q-115 0 -465 -314q-236 -212 -415 -410q-68 -73 -106 -73q-62 0 -62 64q0 23 33 101l227 318q170 241 170 343q0 42 -28 45q-15 0 -59 -19l-701 -524h-33q-33 0 -36 9z" />
<glyph unicode="n" horiz-adv-x="1928" d="M-156 250q0 14 55 50l748 576q59 47 151 47q96 0 96 -88q0 -101 -138 -306.5t-138 -224.5q0 -4 10 -4q-5 0 324 272.5t445 272.5q179 0 179 -120q0 -107 -154.5 -348.5t-154.5 -275.5q0 -37 48 -37q92 0 354 139q179 101 273 170q14 14 31 14q14 0 14 -19 q-28 -82 -352.5 -246t-480.5 -164q-83 0 -80 56q0 78 161.5 310.5t161.5 303.5q0 82 -78 82q-115 0 -465 -314q-236 -212 -415 -410q-68 -73 -106 -73q-62 0 -62 64q0 23 33 101l227 318q170 241 170 343q0 42 -28 45q-15 0 -59 -19l-701 -524h-33q-33 0 -36 9z" />
<glyph unicode="o" horiz-adv-x="1314" d="M-19 156q0 314 309 632q260 265 381 265h2q75 0 75 -46q0 -16 -28 -39q-116 -24 -314 -248q-241 -272 -241 -522q0 -165 116 -165q170 0 342 198q-92 102 -92 253q0 174 87 300q78 106 166 106q87 0 101 -121q0 -212 -151 -460q83 -92 224 -92q189 0 366 156q14 14 28 14 q17 0 17 -19t-50 -59q-212 -179 -429 -179q-135 0 -232 73q-221 -290 -483 -290q-194 0 -194 243zM663 512q0 -101 43 -170q129 203 129 397q0 47 -33 49q-42 0 -90.5 -78t-48.5 -198z" />
<glyph unicode="p" horiz-adv-x="1420" d="M-1374 -2195q0 175 2176 4062q37 66 72 66h2q4 0 18.5 -9.5t14.5 -37.5q0 -55 -29 -83q-4 -14 -396 -715q-373 -677 -373 -720q0 -5 5 -9q4 9 33 37q115 140 321 286q271 184 472 184q148 0 151 -118q0 -354 -567 -689q430 0 895 314q14 14 28 14q17 0 17 -19 q0 -68 -348.5 -252t-846.5 -184q-285 0 -309 59q0 33 52 33q73 -15 92 -15q246 0 526 253q267 236 267 406q0 71 -87 71h-5q-455 0 -991 -859q-43 -69 -529 -1028t-514 -1028q-32 -80 -84 -80h-4q-18 0 -28 5q-28 9 -31 56z" />
<glyph unicode="q" horiz-adv-x="1859" d="M-668 -2440q0 240 321 854q175 333 628 1102q382 647 453 821q-398 -384 -647 -384h-4q-166 0 -166 139q0 286 406 618q392 314 673 314q64 0 64 -56q0 -24 -31 -26q-208 -15 -512 -232q-368 -262 -368 -545q0 -73 59 -73q160 0 449 263t440 549q55 101 116 101 q59 0 59 -59q0 -14 -68 -148l-189 -286q-180 -276 -189 -342q0 -179 253 -179q188 0 802 382q14 14 28 14t14 -19q0 -33 -198 -160q-526 -333 -710 -333q-139 0 -227 125q0 -817 -401 -1673q-434 -918 -949 -918q-106 0 -106 151zM-545 -2421q0 -59 33 -59q222 0 521 396 q295 382 498 930q222 583 222 1071q0 38 -14 41q-68 0 -656 -1060q-604 -1088 -604 -1319z" />
<glyph unicode="r" horiz-adv-x="1458" d="M-64 323q24 14 175 125q337 251 547 567q38 64 102 64q28 0 28 -31q0 -19 -20 -84t-20 -93q0 -87 94.5 -155.5t94.5 -92.5q0 -42 -147.5 -175.5t-147.5 -249.5q0 -170 156 -170q144 0 382 147l286 198q14 14 28 14t14 -19q0 -87 -439 -340q-193 -111 -387 -111 q-227 0 -227 194q0 120 168 309q144 161 161 161q-88 0 -136.5 101.5t-71.5 101.5q-19 0 -54 -36q-69 -101 -260 -255q-102 -82 -286 -207q-14 -15 -30 -15q-10 0 -10 52z" />
<glyph unicode="s" horiz-adv-x="1416" d="M-156 250q0 14 57 48.5t182 131.5l372 285q236 156 385 156q184 0 184 -151q0 -416 -618 -774q337 14 835 311q55 29 189 116q14 14 28 14q17 0 17 -19q0 -42 -198 -160q-601 -352 -940 -352h-4q-250 0 -250 203q0 92 74 159.5t133 67.5q43 0 43 -36q0 -33 -51 -93 t-51 -98q0 -78 78 -101q149 47 335.5 286.5t186.5 387.5q0 126 -102 128q-97 0 -240 -92q-64 -43 -369 -272l-207 -155h-33q-33 0 -36 9z" />
<glyph unicode="t" horiz-adv-x="1241" d="M-411 1770q0 144 118 270t269 126q272 0 449 -295q189 -313 189 -837q0 -88 -5 -130q368 368 647 729l280 470q15 0 39.5 -20t24.5 -30q0 -23 -19 -56q-222 -383 -609 -1157q291 0 425 31q5 -14 5 -40q0 -24 -38 -33q-97 -19 -422 -19q-262 -522 -468 -880 q-42 -74 -78 -74q-54 0 -54 64q0 33 31 102q111 262 163 757q-401 -373 -725 -564q-23 10 -23 24q0 33 73 73q304 193 670 545q-387 92 -628 295q-314 262 -314 649zM-281 1798q0 -328 276 -585q222 -212 555 -319q0 29 7 74v66q0 332 -142 649q-173 380 -450 380h-3 q-240 0 -243 -265zM503 189l63 120l236 475q-92 9 -198 28q-14 -213 -73 -489zM663 866q106 -23 168 -26l233 456l-82 -92q-165 -184 -319 -338z" />
<glyph unicode="u" horiz-adv-x="1559" d="M-135 19q0 68 169 375t169 354q0 54 -87 54q-19 0 -19 59q42 15 92 15q170 0 170 -97q0 -106 -150 -357.5t-150 -315.5q0 -38 33 -38q78 0 380 256.5t465 463.5q73 73 106 73q64 0 64 -63q0 -33 -33 -88q-290 -434 -290 -566q0 -120 110 -120q170 0 614 304q24 19 68 45 q15 14 29 14t14 -19q0 -28 -73 -78q-595 -401 -803 -401q-134 0 -134 153q0 88 33 175l49 125q0 19 -14 21q-4 0 -26 -9q-106 -106 -309 -257q-262 -194 -361 -194q-116 0 -116 116z" />
<glyph unicode="v" horiz-adv-x="1694" d="M-135 250q0 33 71 73q258 170 460 368q159 154 217 154h1q101 0 101 -120q0 -135 -159.5 -370t-159.5 -287q0 -42 52 -44q121 0 354 243l310 356q0 111 69.5 261t137.5 169q55 4 116 7q19 -5 19 -17q0 -5 -99 -166.5t-99 -229.5q17 -85 133 -85h8q125 0 295 134 q24 24 33 24q19 0 19 -47q0 -74 -127.5 -131.5t-238.5 -62.5h-20q-124 0 -197 57l-354 -387q-259 -269 -435 -269h-4q-54 0 -90.5 46t-36.5 93q0 97 165 362.5t165 352.5l-5 9q-4 0 -141 -111q-165 -139 -536 -405q-24 9 -24 23z" />
<glyph unicode="w" horiz-adv-x="1791" d="M-64 92q0 156 193.5 474.5t281.5 318.5q139 0 160 -31v-9q-257 -116 -474 -666q0 -59 47 -59q42 0 101 40q267 175 508 463q47 64 97 142q36 61 71 61h2q33 0 68 -47l-238 -475q-52 -124 -52 -193v-5q0 -23 9.5 -35t42.5 -12q144 0 446 309q241 257 309 375 q0 111 69.5 261t138.5 171q54 5 115 5q19 -5 19 -14q0 -5 -88.5 -152.5t-88.5 -215.5q0 -38 84 -65t157 -27q28 0 38 4q4 -33 4 -42q0 -43 -134 -45q-149 0 -246 64q-641 -798 -913 -798q-134 0 -137 158q0 59 32 149t32 113q0 28 -5 28l-207 -193q-192 -163 -333 -163h-3 q-106 0 -106 111z" />
<glyph unicode="x" horiz-adv-x="1269" d="M-392 -425q0 29 33 62l659 682q28 139 78 415q0 28 -19 35q-14 0 -36 -16q-174 -125 -370 -130q0 78 47 87q203 24 415 194q74 42 92 42q59 0 59 -75q-4 -5 -40 -123q-54 -156 -71 -274q435 425 633 574q28 28 57 31q59 0 59 -45q0 -24 -43 -57q-363 -276 -717 -623v-31 q0 -236 174 -236q246 0 668 286q14 14 29 14q14 0 14 -19q0 -59 -300 -224q-309 -172 -443 -172h-5q-267 0 -281 236q-319 -319 -545 -576q-83 -92 -109 -92q-38 0 -38 35z" />
<glyph unicode="y" horiz-adv-x="1390" d="M-1171 -2384q0 1053 1577 2148l300 628q0 19 -15 19l-266 -203q-265 -203 -387 -203q-116 0 -116 115q0 69 147.5 348.5t147.5 329.5q0 52 -81 52h-6q-19 0 -19 59q42 14 92 14q170 0 170 -97q0 -106 -131 -348t-131 -303q0 -38 33 -40q116 0 373 202q290 232 434 498 q73 74 109 74q63 0 61 -64q0 -33 -33 -85q-189 -295 -474 -861q257 160 474 276q241 139 314 198q14 14 28 14t14 -19q-19 -64 -328 -248q-358 -212 -566 -347q-651 -1309 -812 -1571q-455 -774 -762 -774q-144 0 -147 188zM-951 -2471q203 0 597 696q257 456 701 1407 q-1381 -986 -1381 -1972q0 -129 83 -131z" />
<glyph unicode="z" horiz-adv-x="1314" d="M-1305 -2480q0 358 434 944q333 434 829 904q434 405 490 405q0 29 -14 52q-68 121 -189 121q-47 0 -106 -19q-115 -38 -139 -38q-14 0 -19 19q0 47 97 87q156 69 370 255q258 227 258 368q0 83 -78 83q-69 0 -295 -156l-357 -259q-14 -15 -30 -15q-10 0 -10 52 q14 10 174 134l328 256q166 132 301 132q174 0 174 -182q0 -222 -571 -595q-33 -33 -33 -49q0 -19 33 -19q213 0 281 -125q111 64 354 255q222 174 356 243q15 14 31 14q14 0 14 -19q0 -23 -73 -78l-668 -493q-9 -373 -347 -991q-314 -581 -720 -1024q-424 -465 -672 -465 h-5q-82 0 -140 59t-58 144zM-1074 -2551q144 0 531 417.5t678 901.5q339 562 339 904q0 19 -4 19q-107 0 -508 -406q-425 -425 -736 -876q-371 -542 -371 -846q0 -114 71 -114z" />
<glyph unicode="{" horiz-adv-x="2416" d="M526 -87q0 240 281 769q290 545 305 772q9 198 -43 295q0 54 76 63q271 69 479 628q281 770 429 982q364 507 1046 507q9 0 9 -9q0 -14 -20 -39t-39 -25q-628 -82 -932 -554q-73 -111 -373 -900q-198 -526 -536 -667q43 -88 43 -300q0 -208 -289 -741.5t-289 -761.5 q0 -369 535 -527q10 0 10 -9q0 -14 -34.5 -41.5t-57.5 -27.5q-600 180 -600 586z" />
<glyph unicode="|" horiz-adv-x="1531" d="M9 -512l1761 3906q19 42 47 42q29 0 29 -106l-1707 -3842q-33 -59 -56 -59q-29 0 -74 59z" />
<glyph unicode="}" horiz-adv-x="1845" d="M-430 -663q0 14 19 39t38 25q628 82 935 557q73 110 370 896q198 527 538 668q-42 88 -45 300q0 208 290.5 742.5t290.5 760.5q0 368 -536 527q-9 0 -12 9q0 14 34.5 41t58.5 27q599 -179 599 -585q0 -241 -279 -767q-290 -545 -304 -774q-9 -198 43 -295q0 -54 -78 -64 q-272 -68 -479 -627q-281 -770 -430 -982q-363 -508 -1043 -508q-10 0 -10 10z" />
<glyph unicode="~" d="M526 1286q0 33 90 115.5t191 82.5q83 0 247 -99t223 -99q63 0 115 51t48 51q9 -5 9 -14q0 -74 -74.5 -127t-161.5 -53q-97 0 -251.5 90t-241.5 90q-33 0 -101.5 -46.5t-82.5 -46.5z" />
<glyph unicode="&#xa1;" horiz-adv-x="1486" d="M19 -986q0 23 23 63q246 411 534 1199q309 862 484 1194q23 43 37 43q24 0 24 -78q-101 -449 -378 -1168q-429 -1112 -457 -1199q-5 -54 -60.5 -87.5t-114.5 -33.5q-92 0 -92 67zM1043 1895q0 54 59 101.5t102 47.5q96 0 101 -97q0 -68 -53 -106t-103 -38q-106 0 -106 92 z" />
<glyph unicode="&#xa2;" horiz-adv-x="1038" d="M-64 111q0 290 262 540q222 217 475 272l250 484q9 33 35 33q24 0 52 -33l-241 -475q140 -9 140 -120q0 -69 -199 -267q-19 -19 -42 -19q-38 0 -40 45q0 19 15 31t57.5 106t42.5 142q0 14 -33 16q-120 0 -351 -198q-281 -236 -281 -489q0 -184 158 -184q245 0 750 333 q24 19 67 45q14 14 30 14q14 0 14 -19t-73 -78l-366 -236q-262 -160 -431 -174l-180 -359q-59 0 -61 49l153 310q-203 42 -203 231z" />
<glyph unicode="&#xa3;" horiz-adv-x="3658" d="M73 194q0 155 347 153q179 0 774 -135q180 166 406 548q-212 9 -290 9q-121 0 -175 -4q-59 0 -56 28q0 64 92 57l472 -15q144 262 257 437q-420 -144 -770 -146q-262 0 -280 49q0 10 10.5 24t24.5 14q-28 0 65 -16.5t306 -16.5q290 0 672 139q231 416 397 600 q226 245 460 247q174 0 172 -103q0 -156 -253.5 -360t-619.5 -360q-43 -116 -262 -512h5l526 -10q59 0 59 -33q-5 -28 -64 -35q-576 0 -573 0q-227 -347 -498 -559q1262 -310 1638 -310q193 0 352.5 101.5t159.5 208.5q0 165 -373 165q-262 0 -467 -64q-19 -14 -45 -14 q-14 0 -24 19q0 37 73 37q-33 0 159.5 29.5t381.5 29.5q455 0 455 -184q0 -125 -203 -245q-217 -125 -469 -127q-498 0 -1735 285q-300 -193 -609 -193q-208 0 -353 84.5t-145 177.5zM189 203q0 -68 133 -140t273 -72q281 0 507 148q-595 139 -715 142q-198 0 -198 -78z M2107 1388q765 342 765 665q0 64 -108 64q-161 0 -328 -212q-121 -149 -329 -517z" />
<glyph unicode="&#xa5;" horiz-adv-x="2284" d="M160 2388q0 156 120.5 258.5t300.5 102.5q377 0 637 -299q245 -286 248 -656q0 -88 -17 -170q165 63 257 184q19 9 33 9q29 0 31 -38q-139 -169 -330 -224q-59 -250 -222 -502q-180 -277 -180 -366q0 -38 41 -40q221 0 679 585q378 488 510 774q19 42 101 42q43 0 43 -47 q-116 -165 -354 -668l-401 -854h325q33 0 33 -9q0 -15 -77 -55h-310q-14 -33 -42 -92h304q33 0 33 -14q0 -19 -77 -52h-295q-701 -1435 -966 -1437q-120 0 -120 151q0 484 956 1286h-276q-24 0 -24 10q0 23 64 56h281q28 59 42 92h-271q-29 0 -29 15q0 18 69 49h259l411 895 q-217 -314 -444 -543q-290 -281 -469 -281q-116 0 -116 123q0 106 170 365q160 246 222 489q-116 -10 -161 -10q-415 0 -715 295q-276 267 -274 576zM276 2369q0 -304 282 -548.5t608 -244.5q82 0 153 15q29 115 29 245q0 359 -222 595t-536 236t-314 -298zM576 -1024 q0 -73 42 -78q206 101 751 1222q-793 -691 -793 -1144z" />
<glyph unicode="&#xa7;" horiz-adv-x="2416" d="M368 396q78 111 121 111q28 0 28 -73q0 -198 135.5 -335t315.5 -137q236 0 436.5 192.5t200.5 421.5q0 245 -314 545t-314 531q0 222 150 399t362 210q-160 184 -160 377q0 246 181.5 432.5t417.5 186.5q359 0 359 -328q-43 -43 -78 -43q-47 0 -50 111q0 78 -83.5 133.5 t-208.5 55.5q-161 0 -279 -119t-118 -273q0 -222 342.5 -570t342.5 -581q0 -144 -116 -328q-134 -218 -347 -338q111 -160 111 -319q0 -221 -222 -474q-276 -304 -672 -304q-222 0 -381.5 152t-159.5 364zM1116 1808q0 -194 184 -406l338 -359q318 205 318 519 q0 189 -134 357q-19 23 -271 276q-10 0 -19 5h-19q-161 0 -279 -119.5t-118 -272.5z" />
<glyph unicode="&#xa8;" horiz-adv-x="811" d="M378 1435q0 64 48 100.5t91 36.5q92 0 92 -88q0 -42 -53 -91.5t-91 -49.5q-83 0 -87 92zM798 1374q0 63 48 98.5t91 35.5q92 0 92 -87q0 -43 -53 -91.5t-91 -48.5q-83 0 -87 93z" />
<glyph unicode="&#xa9;" horiz-adv-x="3426" d="M455 715q0 465 416 847q444 411 1090 411q323 0 576 -123q368 -174 465 -564q24 -97 24 -174q0 -444 -439 -803q-456 -373 -1055 -373q-546 0 -826 234q-251 203 -251 545zM590 725q0 -324 217 -522q246 -222 715 -222q550 0 977 373q397 352 397 762q0 246 -175 456 q-281 337 -894 337q-527 0 -895 -387q-342 -363 -342 -797zM1194 658q0 319 309 583q276 236 512 239q149 0 151 -123q0 -68 -198 -264q-19 -19 -45 -19q-37 0 -37 42q0 19 14 32t57.5 106.5t43.5 142.5q0 14 -33 14q-120 0 -354 -198q-281 -236 -281 -488q0 -185 161 -185 q245 0 748 336q24 18 68 42q15 14 29 14t14 -19t-71 -78l-382 -250q-276 -165 -451 -165q-101 0 -178 73t-77 165z" />
<glyph unicode="&#xaa;" d="M227 826q0 38 106 64h1180q54 0 54 -14q0 -24 -127 -69h-1169q-42 0 -44 19zM415 1171q0 198 333 462q319 257 498 257q24 0 58 -24.5t34 -38.5q0 -5 -5 -10q-226 0 -618 -377q-125 -121 -125 -208q0 -28 33 -28q97 0 363 221q218 185 310 291q42 54 61 54q42 0 45 -59 q0 -33 -53 -101l-108 -135q-87 -125 -87 -194q0 -120 137 -120q208 0 604 255q5 14 24 14q14 0 14 -19q0 -47 -269 -198q-286 -156 -408 -153q-227 0 -227 236q0 63 73 148q0 5 -5 5l-238 -179q-236 -182 -342 -182q-102 0 -102 83z" />
<glyph unicode="&#xab;" horiz-adv-x="1725" d="M309 531q0 28 33 50l803 337q9 -38 9 -52q0 -47 -47 -68l-682 -272l429 -351q38 -24 40 -55q0 -33 -73 -56l-498 434q-14 14 -14 33zM793 470q0 28 33 47l802 337q10 -37 10 -52q0 -47 -47 -68l-682 -269l429 -354q38 -24 40 -52q0 -33 -73 -59l-498 434q-14 14 -14 36z " />
<glyph unicode="&#xad;" horiz-adv-x="2100" d="M479 522q0 33 116 110q139 88 285 88q121 0 358 -99t317 -99q92 0 167.5 50.5t71.5 50.5q14 0 14 -14q0 -73 -111 -126t-231 -53q-135 0 -358 89.5t-348 89.5q-54 0 -151 -46t-120 -46z" />
<glyph unicode="&#xae;" horiz-adv-x="3426" d="M455 715q0 465 416 847q444 411 1090 411q323 0 576 -123q368 -174 465 -564q24 -97 24 -174q0 -444 -439 -803q-456 -373 -1055 -373q-546 0 -826 234q-251 203 -251 545zM590 725q0 -324 217 -522q246 -222 715 -222q231 0 420 61q-189 107 -347 354l-243 392h-148 q-64 -139 -97 -257q-10 -47 -43 -47q-28 9 -35 33q0 97 78 285q-165 43 -165 175q0 59 106 57q73 0 156 -24q368 677 1019 677q106 0 189 -53t83 -135q0 -227 -300 -446q-314 -232 -737 -260l229 -392q144 -236 319 -337q387 134 638.5 441t251.5 611q0 246 -175 456 q-281 337 -894 337q-527 0 -895 -387q-342 -363 -342 -797zM972 977q5 -24 24 -50q42 -47 130 -77q21 49 59 122q-69 38 -142 43q-73 -10 -71 -38zM1222 835q29 -4 93 -4h9q-19 28 -68 78q-19 -48 -34 -74zM1291 968q68 -43 139 -133q416 33 715 295q243 213 243 369 q0 155 -198 153q-531 0 -899 -684z" />
<glyph unicode="&#xaf;" horiz-adv-x="2100" d="M354 1291q0 28 106 73h984q55 -2 55 -16q0 -29 -125 -76h-978q-42 0 -42 19z" />
<glyph unicode="&#x2c9;" horiz-adv-x="2100" d="M354 1291q0 28 106 73h984q55 -2 55 -16q0 -29 -125 -76h-978q-42 0 -42 19z" />
<glyph unicode="&#xb0;" d="M448 1605q0 125 92 212.5t220 87.5q120 0 199 -78t79 -184q0 -286 -318 -310q-116 0 -194 83t-78 189zM522 1610q0 -83 57.5 -141t140.5 -58q252 14 252 227q0 78 -63.5 133.5t-160.5 55.5q-92 0 -159 -60.5t-67 -156.5z" />
<glyph unicode="&#xb4;" d="M1029 1074q0 19 9 23l262 203q184 130 272 130h9q69 -9 66 -61v-17q0 -28 -163 -85q-245 -87 -446 -207q-9 0 -9 14z" />
<glyph unicode="&#xb5;" horiz-adv-x="3537" d="M111 -54q0 37 68 146q1605 2572 1605 3283q0 314 -189 531l-358 351q-189 232 -189 586q0 571 691 937q14 0 92 -24q48 -19 50 -42q0 -29 -83 -59q-262 -88 -457.5 -351t-195.5 -549q0 -245 193 -483l368 -406q194 -267 194 -583q0 -449 -628 -1577l-918 -1586 q24 0 38 15q207 280 1347 1498q1034 1107 1204 1267q68 64 78 62q23 0 73 -29q24 -14 24 -37q0 -43 -60 -132l-120 -173q-401 -642 -580 -1465q-107 -484 -107 -789q0 -1047 895 -1600q677 -420 1503 -420q420 0 644 111q203 102 203 267q0 257 -417 460q-456 231 -1140 231 q-460 0 -807 -115q-29 -10 -43 -10q-47 0 -49 33q0 33 45 48q-64 0 279.5 50.5t694.5 50.5q760 0 1204 -227q392 -191 392 -467q0 -212 -246 -354q-271 -156 -731 -153q-1190 0 -1888 623q-664 590 -664 1527q0 613 286 1387q179 494 328 739q73 120 73 139q0 5 -5 10 q-4 0 -14 -5q-148 -125 -1324 -1406l-1151 -1261l-57 -68q-54 -54 -92 -52q-59 0 -59 71zM2464 668q0 38 108 61h1178q54 0 54 -14q0 -24 -125 -68h-1170q-43 0 -45 21zM2860 1083q0 257 253 508q212 217 309 217q68 0 68 -38q-4 -9 -30 -31q-97 -23 -255 -203 q-194 -217 -194 -420q0 -134 92 -134q140 0 286 158q-78 78 -78 208q0 139 69 243q63 87 134 87q68 0 83 -97q0 -174 -121 -377q73 -74 177 -74q140 0 300 126q5 9 19 16q16 -2 16 -21q0 -10 -40 -43q-170 -144 -347 -144q-106 0 -188 57q-185 -231 -397 -231 q-156 0 -156 193zM3413 1374q0 -78 37 -142q107 163 107 323q0 38 -29 40q-33 0 -74 -62.5t-41 -158.5z" />
<glyph unicode="&#xb6;" horiz-adv-x="3325" d="M1232 1841q0 531 463.5 1143.5t957.5 664.5q174 0 174 -194q0 -595 -1281 -1966q148 -149 309 -151q503 0 1152 1180q19 54 111 54q23 0 55 -24.5t32 -48.5q0 -19 -28 -82l-1534 -3385h-135l1392 3158q-526 -937 -1092 -939q-576 0 -576 590zM1402 1933q0 -236 101 -392 q1194 1293 1194 1834q0 144 -132 144q-415 0 -807 -609q-359 -557 -356 -977z" />
<glyph unicode="&#xb7;" horiz-adv-x="1222" d="M562 540q0 69 53 108t100 39q106 0 106 -92q0 -55 -57.5 -103t-100.5 -48q-92 0 -101 96z" />
<glyph unicode="&#x2219;" horiz-adv-x="1222" d="M562 540q0 69 53 108t100 39q106 0 106 -92q0 -55 -57.5 -103t-100.5 -48q-92 0 -101 96z" />
<glyph unicode="&#xb8;" horiz-adv-x="807" d="M97 -545q0 19 19 19q115 0 223.5 55.5t115.5 147.5q5 92 -108 92q73 106 137 184q14 23 42 23q5 0 36 -9l-107 -156q116 -38 111 -139q-14 -241 -436 -243q-33 0 -33 26z" />
<glyph unicode="&#xba;" d="M227 826q0 38 106 64h1180q54 0 54 -14q0 -24 -127 -69h-1169q-42 0 -44 19zM623 1241q0 258 253 508q212 217 309 219q68 0 66 -40q-5 -9 -29 -28q-96 -24 -254 -203q-194 -217 -194 -420q0 -135 92 -137q139 0 283 160q-78 78 -75 208q0 139 66 241q64 87 137 87 q68 0 80 -97q0 -174 -120 -375q73 -73 179 -73q139 0 300 125q4 9 19 14q14 0 14 -19q0 -9 -38 -42q-170 -144 -347 -147q-106 0 -189 59q-184 -231 -396 -233q-156 0 -156 193zM1175 1532q0 -78 38 -140q106 163 106 324q0 37 -28 37q-33 0 -74.5 -62.5t-41.5 -158.5z" />
<glyph unicode="&#xbb;" horiz-adv-x="1888" d="M179 116q0 47 48 68l682 271l-430 352q-38 24 -40 54q0 33 73 57l498 -434q14 -17 14 -36q0 -28 -33 -47l-802 -337q-10 37 -10 52zM663 54q0 47 47 66l682 272l-429 351q-38 24 -40 55q0 33 73 56l498 -434q14 -14 14 -33q0 -28 -33 -50l-802 -337q-10 38 -10 54z" />
<glyph unicode="&#xbf;" horiz-adv-x="1380" d="M-682 -576q0 281 420 585l784 517q420 309 420 609q0 272 -199 305q0 87 78 87q116 0 191.5 -72t75.5 -192q0 -387 -411 -718l-769 -498q-411 -281 -411 -550q0 -188 133.5 -304t374.5 -116q314 0 571 222q281 246 278 600l-9 63q0 47 68 47q73 0 73 -115 q0 -368 -401 -668q-373 -271 -741 -269q-245 0 -385.5 127.5t-140.5 339.5zM923 1876q0 54 57.5 101.5t102.5 47.5q97 0 102 -97q0 -68 -53 -106t-103 -38q-106 0 -106 92z" />
<glyph unicode="&#xf7;" horiz-adv-x="2100" d="M498 715q0 28 106 87h1180q52 0 52 -18q0 -29 -125 -93h-1171q-42 0 -42 24zM972 271q0 69 53.5 106.5t100.5 37.5q106 0 106 -92q0 -54 -58 -101t-100 -47q-92 0 -102 96zM1175 1135q0 69 53 107.5t101 38.5q106 0 106 -92q0 -54 -58 -102.5t-100 -48.5q-92 0 -102 97z " />
<glyph unicode="&#x2c6;" d="M562 1171l255 158q271 160 382 160q33 0 97 -193q59 -175 73 -276q-24 -38 -54 -38q-29 0 -48 52q-59 226 -141 335q-88 0 -541 -220q-23 0 -23 22z" />
<glyph unicode="&#x2c7;" d="M1048 1551q23 37 54 40q33 0 47 -55q59 -226 142 -332q87 0 540 217q24 0 24 -19l-255 -161q-271 -160 -382 -158q-33 0 -97 194q-59 174 -73 274z" />
<glyph unicode="&#x2d8;" d="M821 1267l73 -4q0 -116 135 -128q111 0 111 111l73 -5q0 -73 -50.5 -125t-128.5 -52q-213 15 -213 203z" />
<glyph unicode="&#x2d9;" horiz-adv-x="1222" d="M958 1392q0 69 53 106.5t101 37.5q106 0 106 -92q0 -54 -58 -101t-100 -47q-92 0 -102 96z" />
<glyph unicode="&#x2da;" d="M817 1241q0 83 60 141t143 58q82 0 135 -50t53 -123q0 -188 -212 -203q-78 0 -128.5 53.5t-50.5 123.5zM890 1246q0 -111 111 -111q134 12 134 128q0 106 -120 106q-125 0 -125 -123z" />
<glyph unicode="&#x2dc;" d="M526 1286q0 33 90 115.5t191 82.5q83 0 247 -99t223 -99q63 0 115 51t48 51q9 -5 9 -14q0 -74 -74.5 -127t-161.5 -53q-97 0 -251.5 90t-241.5 90q-33 0 -101.5 -46.5t-82.5 -46.5z" />
<glyph unicode="&#x2dd;" d="M725 1001q0 63 184 266t266 222q71 0 76 -68q0 -24 -144 -125q-208 -140 -368 -310zM1083 1001q0 63 183 266t266 222q73 0 78 -68q0 -24 -144 -125q-208 -140 -369 -310z" />
<glyph unicode="&#x3bc;" horiz-adv-x="3537" d="M111 -54q0 37 68 146q1605 2572 1605 3283q0 314 -189 531l-358 351q-189 232 -189 586q0 571 691 937q14 0 92 -24q48 -19 50 -42q0 -29 -83 -59q-262 -88 -457.5 -351t-195.5 -549q0 -245 193 -483l368 -406q194 -267 194 -583q0 -449 -628 -1577l-918 -1586 q24 0 38 15q207 280 1347 1498q1034 1107 1204 1267q68 64 78 62q23 0 73 -29q24 -14 24 -37q0 -43 -60 -132l-120 -173q-401 -642 -580 -1465q-107 -484 -107 -789q0 -1047 895 -1600q677 -420 1503 -420q420 0 644 111q203 102 203 267q0 257 -417 460q-456 231 -1140 231 q-460 0 -807 -115q-29 -10 -43 -10q-47 0 -49 33q0 33 45 48q-64 0 279.5 50.5t694.5 50.5q760 0 1204 -227q392 -191 392 -467q0 -212 -246 -354q-271 -156 -731 -153q-1190 0 -1888 623q-664 590 -664 1527q0 613 286 1387q179 494 328 739q73 120 73 139q0 5 -5 10 q-4 0 -14 -5q-148 -125 -1324 -1406l-1151 -1261l-57 -68q-54 -54 -92 -52q-59 0 -59 71zM2464 668q0 38 108 61h1178q54 0 54 -14q0 -24 -125 -68h-1170q-43 0 -45 21zM2860 1083q0 257 253 508q212 217 309 217q68 0 68 -38q-4 -9 -30 -31q-97 -23 -255 -203 q-194 -217 -194 -420q0 -134 92 -134q140 0 286 158q-78 78 -78 208q0 139 69 243q63 87 134 87q68 0 83 -97q0 -174 -121 -377q73 -74 177 -74q140 0 300 126q5 9 19 16q16 -2 16 -21q0 -10 -40 -43q-170 -144 -347 -144q-106 0 -188 57q-185 -231 -397 -231 q-156 0 -156 193zM3413 1374q0 -78 37 -142q107 163 107 323q0 38 -29 40q-33 0 -74 -62.5t-41 -158.5z" />
<glyph unicode="&#x3c0;" horiz-adv-x="2603" d="M-368 628q0 250 189 821q203 609 455 1036q305 507 555 507q47 0 49 -18q0 -15 -19 -26q-358 -199 -722 -914q-377 -748 -375 -1357q0 -894 868 -894q619 0 1199 637q-120 217 -299 503q-5 14 -33 14q-19 0 -29 -10q-47 -63 -146 -134q-170 -125 -323 -125 q-232 0 -387 212q-149 199 -149 453q0 387 231 923q267 600 661 987q479 460 1027 460q608 -59 608 -788q0 -449 -271 -1136q-300 -769 -748 -1309l729 -1244q43 -59 43 -102q0 -73 -78 -70q-64 0 -111 106l-685 1194q-618 -663 -1300 -663q-937 0 -939 937zM618 1397 q0 -262 166 -425q139 -148 323 -151q231 0 410 262q38 43 59 43q29 0 48 -52l309 -538q406 493 662 1151.5t256 1184.5q0 333 -154.5 529t-463.5 196q-590 0 -1112 -760q-503 -720 -503 -1440z" />
<glyph unicode="&#x410;" horiz-adv-x="2643" d="M116 585q0 678 516 1402q456 642 1133 1098q663 443 1135 443q314 0 319 -212q5 -208 -134 -397q-88 -125 -166 -174q-47 -24 -63 -24q-24 14 -24 24q262 382 262 521q0 189 -222 189q-444 0 -1074 -477q-609 -460 -1045 -1092q-470 -682 -467 -1195q0 -448 158 -637 q139 -170 450 -170q425 0 1058 701q125 545 469 1088q328 522 522 522q59 0 59 -69q-5 -111 -257 -545q-281 -488 -623 -904q-83 -299 -83 -542q0 -475 319 -560q0 -33 -76 -35q-377 125 -377 639q0 121 23 281q-618 -663 -1093 -663q-396 0 -585 300q-134 212 -134 488z M2166 826q305 382 536 769q217 373 231 522q0 14 -23 14q-198 -170 -408 -537t-336 -768z" />
<glyph unicode="&#x411;" horiz-adv-x="3551" d="M-170 2620q-47 290 175 566q165 184 401 314q748 396 1770 167l226 -66l57 135q14 14 43.5 26t64 15.5t60.5 -5t26 -22.5l-92 -193l1194 -347q561 -102 899 87q24 42 49 47q24 19 38 -14q10 -54 -68 -97q-392 -203 -994 -144q-333 43 -1107 265q-54 14 -96 26l-161 -321 l-406 -786q-28 -55 -59 -107l92 15q272 37 518.5 3t442.5 -140t325.5 -284.5t165.5 -435.5q37 -286 -55 -526.5t-267.5 -439t-413 -346t-493.5 -244t-509.5 -142.5t-456.5 -41q-217 4 -415.5 50t-343.5 120.5t-227.5 169t-73.5 205.5q14 106 234 101q165 -4 304 -42l392 720 l347 637l267 512q-149 -43 -326 -111q-227 -92 -472 -255q-14 -9 -31 -9h-14q-19 4 -19 14q0 5 15.5 28.5t43.5 32.5q250 175 522 281q165 64 323 102l243 497l246 527l111 257q-572 144 -876 184q-604 78 -989 -137q-257 -139 -413 -328q-165 -198 -125 -387 q73 -333 517 -323q392 5 857 257q304 170 531 392q19 38 44 52q24 14 38 -19q14 -54 -68 -102q14 10 -189 -151q-217 -165 -439 -288q-378 -203 -743 -252q-557 -97 -640 300zM281 47q-10 -68 64.5 -137.5t205.5 -127.5t300 -99.5t353 -45.5q493 -19 1033 228 q236 111 411 270.5t293 341t184 369.5t80 353q14 156 -27.5 320t-147.5 298.5t-285.5 224t-443.5 99.5q-59 0 -198 -10q-125 -5 -291 -38l-323 -613l-362 -698l-256 -515l-64 -132q184 -83 309 -246q-4 -9 -19 -9q-148 139 -304 217q-19 -47 -14 -64h9q-28 -33 -74 -42.5 t-82 0.5q-42 0 -42 42q0 9 19 40l49 83q-101 28 -203 33q-169 0 -174 -142z" />
<glyph unicode="&#x412;" horiz-adv-x="3004" d="M-222 189q0 106 203 111q512 4 793 -314q0 -14 -14 -14q-328 285 -677 285q-161 0 -161 -146q0 -116 243 -231q295 -144 720 -147q503 0 1010 267q470 241 779 618.5t309 710.5q0 314 -193 521q-281 295 -919 295q-368 0 -639 -82q-33 -10 -43 -10q-18 0 -18 10 q0 23 61 49q387 149 696 342q585 364 585 727q0 149 -203 149q-342 0 -880 -540q-484 -494 -873 -1152q-397 -673 -408 -1034q-14 -106 -116 -106q-73 0 -71 68q0 241 397 937q434 765 932 1291q618 647 1102 647q139 0 222 -73q68 -64 68 -140q0 -405 -1031 -1010 q0 -14 50 -14q9 0 129.5 12t221.5 12q401 0 682 -149q406 -222 406 -710q0 -595 -705 -1138q-720 -550 -1546 -550q-295 0 -614 88q-498 139 -498 420z" />
<glyph unicode="&#x413;" horiz-adv-x="2638" d="M-845 116q-5 134 182 217q130 54 316 63q425 -18 675 -184q28 -23 31 -33q0 -14 -17 -14q-9 0 -14 5q-323 184 -670 167q-383 -18 -378 -207q14 -208 378 -279q125 -23 260.5 -34t289.5 -1q1180 59 2232 1369l124 166l116 162l99 143q44 64 72 109q184 291 341 568 t298 577q-59 19 -115 42q-958 328 -1437 437q-765 175 -1261 57q-342 -83 -542 -222q-218 -149 -173 -328q73 -309 652 -387q507 -69 1106 73q402 97 687 259q29 29 64 36q28 9 42 -21q15 -55 -96 -76q42 10 -237.5 -104.5t-565.5 -180.5q-493 -116 -967 -97 q-720 19 -807 396q-64 272 247 477q213 139 517 210q968 227 2278 -170l675 -243l76 194l79 198q0 19 24 21l21 -2l50 -7q26 -3 47 -10t21 -21q-38 -111 -79 -215l-84 -210l1176 -411q700 -193 1149 -82q28 28 64 33q28 9 42 -19q14 -54 -97 -78q-498 -116 -1272 54 q-363 83 -1130 343q-156 -347 -324 -628l-358 -571l-194 -268q-111 -152 -203 -263q-1092 -1301 -2400 -1362q-469 -24 -750 97q-258 115 -260 255z" />
<glyph unicode="&#x414;" horiz-adv-x="3894" d="M-522 33q0 271 517 271q338 0 1053 -280q788 443 1595 1600l111 160q-78 246 -75 526q0 605 351 1093q364 508 845 508q198 0 382 -166q295 -257 295 -802q0 -470 -207 -1029q-217 -604 -600 -1093q184 -54 387 -52q156 0 262 43q14 14 43 14q14 0 14 -14 q0 -102 -333 -102q-217 0 -415 59q-831 -1024 -1968 -1026q-251 0 -744 179q-448 -217 -866 -217q-241 0 -415 64q-232 87 -232 264zM-470 59q0 -139 208 -224q161 -64 335 -62q444 0 836 185l-541 191q-295 92 -460 92q-170 0 -286 -71q-92 -59 -92 -111zM1126 -5 q460 -174 658 -174q1057 0 1841 977q-571 212 -817 835q-545 -682 -760 -904q-443 -469 -922 -734zM2851 2334q0 -179 35 -347q106 213 338 614q28 37 78 37q101 0 101 -73l-116 -191q-169 -281 -363 -566q198 -739 743 -958q760 986 760 2065q0 535 -271 769 q-165 139 -333 139q-425 -5 -715 -512q-257 -448 -257 -977z" />
<glyph unicode="&#x415;" horiz-adv-x="2192" d="M-479 2053q9 54 78 54q923 0 1789 383v42q0 281 361 522q387 262 904 262q19 0 179 -14q517 295 876 295q332 0 332 -189q0 -139 -193 -217q-170 -69 -420 -69q-55 0 -633 97q-377 -245 -1239 -739q38 -155 228 -261.5t412 -106.5q78 0 148 14q15 5 45 5q38 0 38 -42 q0 -48 -73 -50q-262 0 -715 -149q-567 -184 -918 -474q-456 -368 -453 -835q0 -300 172 -522q208 -262 571 -262q498 0 972 406q33 28 52 28q24 0 24 -23q0 -24 -47 -64q-121 -120 -328 -231q-354 -189 -725 -189q-861 0 -861 826q0 493 493 880q342 276 913 484 q494 179 494 160l-130 33q-156 38 -257 97q-156 83 -203 208q-862 -401 -1780 -401q-106 0 -106 42zM1546 2561q281 129 625 339l541 328q-102 19 -208 19q-387 0 -657.5 -200.5t-300.5 -485.5zM2915 3287q377 -82 613 -82q170 0 295 47q144 54 144 146q0 121 -304 121 q-324 0 -748 -232z" />
<glyph unicode="&#x416;" horiz-adv-x="4639" d="M-918 208q0 155 347 155q106 0 241.5 -38.5t259.5 -92t208 -113.5t84 -110q0 -33 -38 -33q-19 0 -40 29q-267 309 -706 309q-290 0 -288 -130q0 -78 109 -165t268 -159t348 -120.5t347 -48.5q923 0 1659 576q637 502 894 1232q5 14 10 33q-338 28 -649 111 q-342 92 -603 261.5t-418 423.5t-157 610q0 678 772 678q267 -24 506.5 -162t420 -348t284 -468.5t103.5 -520.5q0 -125 -42 -295q-28 -125 -69 -241q232 -14 470 -9q87 179 158 342q106 222 200.5 445t186.5 466t189 550q10 19 41.5 30.5t62.5 14t58 -2t27 -19.5 q-106 -285 -260 -638l-321 -726l-207 -458h33q314 15 599 57q179 295 423 581q295 358 656 646q686 550 1116 553q64 0 73 -45q0 -43 -85 -47.5t-263 -67t-459 -219.5t-668 -506q-245 -218 -439 -494q-134 -193 -236 -382q314 54 569 142q271 92 425 207q4 5 10 5t16 5 q33 0 33 -33q4 -19 -10 -31q-144 -101 -408 -189.5t-602 -152.5l-68 -10l-38 -87q-189 -444 -189 -899q0 -189 53 -350.5t150 -279.5t225.5 -186.5t282.5 -68.5q92 0 225 36.5t251 78t191 78.5q64 29 62 36q38 0 40 -26q0 -28 -99 -79t-235 -97t-283.5 -80t-239.5 -34 q-174 0 -324 70.5t-263.5 191t-176 277.5t-62.5 331q0 475 272 992l42 77q-257 -37 -531 -54q-47 -5 -97 -9l-92 -198l-290 -639l-203 -470q-78 -187 -68 -215h9q-24 -33 -67.5 -46t-76.5 -4q-38 0 -54 45q0 9 20 38.5t44 91.5l333 735l271 579l40 78q-227 0 -460 14 q0 -14 -5 -23q-300 -753 -982 -1277q-788 -614 -1716 -614q-174 0 -372.5 58t-367 145.5t-279.5 193.5t-111 203zM1069 2962q0 -673 651 -1076q203 -125 498 -199q272 -68 586 -96q23 101 42 207q33 166 36 291q0 290 -92.5 553t-254 466t-379.5 323.5t-464 120.5 q-281 0 -452 -157t-171 -433z" />
<glyph unicode="&#x417;" horiz-adv-x="2744" d="M-715 -2353q0 545 831 1348q807 778 1734 1180q92 285 92 488q0 430 -375 555q-618 -401 -958 -401q-184 0 -184 92q0 125 257 280q276 161 555 159q184 0 318 -29q571 411 1010 928q484 576 484 930q0 387 -613 384q-333 0 -864 -198q-600 -880 -930 -878 q-116 0 -116 97q0 410 949 826q111 189 203 366q64 59 106 59q38 0 52 -59q-33 -64 -184 -293q531 198 861 198q774 -2 774 -451q0 -377 -512 -967q-469 -536 -1102 -970q449 -144 449 -604q0 -184 -78 -430q425 161 760 158q42 0 47 -47q-338 0 -836 -198 q-198 -557 -715 -1244q-474 -628 -995.5 -1089t-769.5 -461q-250 0 -250 271zM-576 -2379q0 -139 106 -139q420 0 1203.5 889.5t1088.5 1715.5q-909 -406 -1614 -1088q-784 -752 -784 -1378zM614 968q0 -55 96 -55q255 0 739 333q-125 19 -212 21q-241 0 -444 -113 q-179 -101 -179 -186zM637 2591q0 -28 31 -30q278 2 739 731q-770 -337 -770 -701z" />
<glyph unicode="&#x418;" horiz-adv-x="3202" d="M-198 3011q0 333 207 527q189 174 489 174q531 0 977 -434q455 -448 453 -1010q0 -236 -116 -552q498 101 673 429q10 5 19 5q24 0 24 -24q0 -78 -185 -221q-231 -185 -554 -253q-116 -271 -517 -918q-314 -507 -314 -696q0 -170 144 -168q333 0 1282 1107 q778 918 1116 1477q42 74 130 74q54 0 54 -43q0 -28 -59 -92q-73 -78 -106 -151l-576 -1071q-493 -959 -493 -1195q0 -165 127 -165q144 0 368 184t220 184q14 0 21 -14q0 -59 -238 -238q-262 -194 -425 -194q-231 0 -231 243q0 241 370 933l552 1024q-637 -947 -1281 -1565 q-600 -571 -885 -571q-250 0 -250 227q0 188 318 691q401 623 517 913q-125 -9 -208 -9q-646 0 -1149 465q-474 439 -474 927zM-68 3026q0 -572 502 -978q460 -372 977 -370q170 0 246 9q108 295 108 531q0 557 -363 987q-378 448 -913 448q-557 0 -557 -627z" />
<glyph unicode="&#x419;" horiz-adv-x="3202" d="M-198 3011q0 333 207 527q189 174 489 174q531 0 977 -434q455 -448 453 -1010q0 -241 -116 -552q498 101 673 429q5 5 19 5q24 0 24 -24q0 -78 -185 -221q-240 -189 -554 -253q-116 -271 -517 -918q-314 -512 -314 -696q0 -170 144 -168q333 0 1282 1107 q774 918 1116 1477q42 74 130 74q54 0 54 -43q0 -28 -59 -92q-68 -78 -106 -151l-285 -536l-291 -535q-493 -959 -493 -1195q0 -165 127 -165q139 0 366 184q226 184 222 184q9 0 21 -14q0 -59 -238 -238q-258 -194 -425 -194q-231 0 -231 243q0 241 370 933l276 513 l276 511q-642 -958 -1281 -1565q-600 -571 -885 -571q-250 0 -250 227q0 188 318 691q406 633 517 913q-64 -4 -115.5 -6.5t-92.5 -2.5q-651 0 -1149 465q-474 444 -474 927zM-68 3026q0 -572 502 -978q460 -372 977 -370q83 0 145.5 2.5t100.5 6.5q108 291 108 531 q0 557 -363 987q-378 448 -913 448q-557 0 -557 -627zM2933 3195q0 29 10 38l140 163l141 161q193 207 295 207h9q73 -23 73 -101v-24q0 -42 -179 -134q-271 -140 -479 -336q-10 0 -10 26z" />
<glyph unicode="&#x41a;" horiz-adv-x="4387" d="M-951 222q0 236 420 238q406 0 821 -325q0 -34 -28 -34q-14 0 -132 78q-144 92 -269 144q-194 78 -392 78q-257 0 -257 -174q0 -218 392 -338q285 -87 599 -87q1097 0 2251 1156q-342 5 -507 144q-116 97 -116 217q0 165 305 165q318 0 623 -203q831 928 1470 2141 q19 24 69 47q115 -23 115 -47v-14q-5 -5 -5 -14q-193 -368 -415 -715q-531 -845 -1128 -1485q47 -38 146 -125q876 149 1740 817q783 613 1305 1435q23 37 59 37h139q59 0 59 -23q-411 -586 -880 -1029q-1131 -1079 -2365 -1296q208 -217 843 -1140q545 -797 991 -1156 q651 -531 1453 -531q406 0 649 139q227 135 227 354q0 250 -571 463q-517 188 -1015 188q-517 0 -812 -120q-23 -9 -37 -9q-29 0 -31 23q0 43 35 54q378 126 895 126q594 0 1099 -161q605 -186 605 -496q0 -309 -314 -479q-291 -160 -739 -160q-923 0 -1624 547 q-488 383 -1010 1188q-658 1000 -783 1146q-180 -18 -286 -23q-1251 -1232 -2464 -1234q-443 0 -786.5 142.5t-343.5 350.5zM1919 1300q0 -262 604 -271q31 28 174 184q-257 212 -556 212q-222 0 -222 -125zM2716 1034q83 0 161 14q-47 47 -78 73z" />
<glyph unicode="&#x41b;" horiz-adv-x="5015" d="M286 368q0 116 140 185.5t367 69.5q87 -9 207.5 -33t229 -60.5t184 -77.5t75.5 -79q0 -14 -14 -14q-9 0 -17 4q-328 203 -660 203q-387 0 -387 -188q0 -83 67 -150.5t186.5 -115.5t285.5 -73t369 -25q696 0 1404 456.5t1336 1356.5q194 276 387.5 580.5t353.5 618.5 q47 87 91 159l78 125q34 53 53 85t14 32q10 0 46.5 4.5t73 4.5t65 -2.5t23.5 -16.5l-224 -599q-114 -290 -210.5 -576t-172 -572.5t-113.5 -590.5q-5 -29 -9.5 -109t-9 -170t-9.5 -166.5t-5 -97.5q0 -628 270.5 -1063.5t801.5 -685.5q290 -139 589.5 -210t623.5 -71 q262 0 469.5 36.5t352.5 97t224 143t79 179.5q0 111 -93 214.5t-260.5 182.5t-394 127.5t-488.5 48.5q-319 0 -630.5 -58t-542.5 -164q-24 -9 -37 -11.5t-22 -2.5q-33 0 -33 38q0 19 37 45h-9q0 4 99 30t244.5 60.5t314 66t310.5 46.5q120 9 231 16t217 7q267 0 488.5 -43.5 t383.5 -120t251.5 -183t89.5 -233.5q0 -140 -104 -250.5t-285.5 -188.5t-424.5 -119.5t-529 -41.5q-536 0 -971 158t-742 447.5t-474.5 695.5t-167.5 903q0 213 39 479.5t96.5 530t128.5 492t132 365.5q59 130 59 149l29 61q28 62 62 129t60 126l29 62q0 63 -3.5 73.5 t-46.5 -31.5l-179 -348l-191 -354q-99 -176 -203 -343.5t-206 -306.5l-207 -256l-217 -252q-1154 -1241 -2464 -1241q-208 0 -389.5 30.5t-315 86t-210 129t-76.5 155.5z" />
<glyph unicode="&#x41c;" horiz-adv-x="5992" d="M328 368q0 116 140.5 185.5t366.5 69.5q88 -9 209.5 -33t230 -60.5t183 -77.5t74.5 -79q0 -14 -15 -14q-9 0 -14 4q-328 203 -663 203q-387 0 -385 -188q0 -83 67.5 -150.5t185.5 -115.5t285.5 -73t370.5 -25q696 0 1404 456.5t1336 1356.5l120 177l175 256l205 302 l210 316l192 298l151 241q9 19 41 31t66 14t62.5 -2.5t28.5 -18.5l-314 -762q-9 -24 -60 -143l-129 -292l-171 -388l-192 -428l-193 -420l-168 -360l-120 -247q-46 -92 -46 -82q0 -5 5 -5q33 47 150 229l274 431l336 529l336 530l273 432q116 183 144 232q97 156 156 237 l87 121q28 39 37.5 46t14.5 12q42 54 97 52q87 4 92 -57q9 -42 -43 -125q-106 -184 -198 -407t-165 -483q-111 -401 -152.5 -778.5t-1.5 -748.5q38 -429 224.5 -799.5t491 -633.5t705.5 -403.5t864 -117.5q517 33 797.5 186.5t257.5 413.5q-14 134 -152 246t-355.5 184 t-500.5 106.5t-588 20.5q-221 -14 -463 -65t-499 -143q-29 -9 -24 -9q-28 0 -28 23q-5 14 33 38q207 106 471.5 168.5t583.5 83.5q309 19 601.5 -17.5t521.5 -113t374 -193.5t159 -261q14 -156 -60 -283t-224 -221.5t-367 -155t-493 -74.5q-479 -28 -912 109t-770.5 417.5 t-553.5 693.5t-259 935q-92 932 444 2155l-441 -702l-434 -685l-448 -699l-473 -737q-24 -33 -68.5 -45t-77.5 -2q-38 0 -52 42q0 10 18.5 39.5t42.5 92.5l334 723l304 659l250 536l162 353q33 87 77 181.5t82.5 186.5t69.5 173.5t45 140.5q-156 -217 -316 -473l-328 -514 l-344 -508q-175 -249 -355 -452q-576 -618 -1164.5 -908.5t-1247.5 -290.5q-207 0 -389 30.5t-314 86t-210 129t-78 155.5z" />
<glyph unicode="&#x41d;" horiz-adv-x="4054" d="M-1102 236q0 139 193 208q135 47 314 49q430 -42 668 -217q28 -19 28 -35q0 -14 -14 -14q-4 0 -14 4q-323 203 -663 203q-387 0 -387 -189q0 -203 363 -299q241 -64 546 -62q1184 0 2301 1256q-435 262 -435 538q0 111 87.5 194.5t250.5 83.5q333 0 576 -207 q571 807 951 1720q4 14 30 17q5 0 70 -11t65 -34q-116 -281 -257 -559q-338 -678 -753 -1244q217 -262 309 -706q139 -19 489 -19l1052 1978q69 130 146 130q66 -19 66 -47l-1168 -2056q470 19 628 59q24 0 24 -26q0 -42 -33 -47q-277 -47 -652 -50q-165 -304 -427 -830 q-68 -144 -101 -144q-59 14 -57 61q0 38 23.5 106.5t23.5 325.5q0 267 -47 503q-430 47 -741 203q-1154 -1242 -2464 -1244q-460 0 -743 137q-246 120 -248 264zM1919 1697q0 -236 377 -484q262 319 378 484q-236 208 -548 208q-207 0 -207 -208zM2412 1145 q290 -154 668 -208q-92 396 -300 649q-175 -227 -368 -441zM3141 871q54 -286 54 -585q0 -92 -4 -156q4 -5 47 78l344 646q-295 0 -441 17z" />
<glyph unicode="&#x41e;" horiz-adv-x="2938" d="M149 817q0 1305 1494 2402q14 9 35 9q38 0 38 -37q0 -10 -14 -26q-411 -300 -706 -637q-706 -812 -706 -1702q0 -434 208 -748q227 -347 590 -349q323 0 736 306.5t772 799.5q-382 175 -595 609q-193 402 -193 899q0 609 276 1037q300 469 798 467q290 0 439 -338 q115 -257 115 -599q0 -1015 -691 -2049q170 -73 373 -73q198 0 377 102q5 4 19 4q24 0 28 -14q-4 -9 -19 -19q-202 -125 -434 -127q-193 0 -392 64q-363 -517 -783 -817q-444 -323 -850 -323t-653 288q-262 309 -262 871zM1992 2402q0 -479 158 -870q179 -430 493 -619 q673 968 673 1886q0 958 -503 956q-382 0 -613 -416q-208 -382 -208 -937z" />
<glyph unicode="&#x41f;" horiz-adv-x="2874" d="M111 -54q0 37 68 146q1605 2572 1605 3283q0 314 -189 531l-358 351q-189 232 -189 586q0 571 691 937q14 0 92 -24q48 -19 50 -42q0 -29 -83 -59q-262 -88 -457.5 -351t-195.5 -549q0 -245 193 -483l368 -406q194 -267 194 -583q0 -449 -628 -1577l-918 -1586 q24 0 38 15q207 280 1347 1498q1034 1107 1204 1267q68 64 78 62q23 0 73 -29q24 -14 24 -37q0 -43 -60 -132l-120 -173q-401 -642 -580 -1465q-107 -484 -107 -789q0 -1047 895 -1600q677 -420 1503 -420q420 0 644 111q203 102 203 267q0 257 -417 460q-456 231 -1140 231 q-460 0 -807 -115q-29 -10 -43 -10q-47 0 -49 33q0 33 45 48q-64 0 279.5 50.5t694.5 50.5q760 0 1204 -227q392 -191 392 -467q0 -212 -246 -354q-271 -156 -731 -153q-1190 0 -1888 623q-664 590 -664 1527q0 613 286 1387q179 494 328 739q73 120 73 139q0 5 -5 10 q-4 0 -14 -5q-148 -125 -1324 -1406l-1151 -1261l-57 -68q-54 -54 -92 -52q-59 0 -59 71z" />
<glyph unicode="&#x420;" horiz-adv-x="2116" d="M-83 1246q10 47 19 50q78 -69 180 -121q250 -130 585 -193q531 991 1300 1675q942 845 1886 848q701 0 701 -605q0 -502 -493 -981q-470 -456 -1213 -739q-765 -295 -1525 -295q-267 0 -507 24q-258 -531 -324 -933q-4 -47 -4 -96q-10 -24 -62 -36q-92 -14 -97 -14 q-47 0 -49 54q0 364 363 1048q-469 73 -715 222q-42 14 -45 92zM871 958q149 -19 361 -21q866 0 1619 309q691 286 1116 746q411 446 411 880q0 522 -656 522q-831 0 -1674 -798q-705 -673 -1177 -1638z" />
<glyph unicode="&#x421;" horiz-adv-x="2334" d="M42 677q0 508 378 1181.5t932 1129.5q614 507 1199 507q411 -2 411 -340q0 -410 -372 -920t-695 -510q-175 0 -175 208q0 165 107 318q63 92 247 277q19 18 33 18q29 0 29 -37q-354 -286 -352 -557q0 -64 41.5 -118.5t102.5 -54.5q208 0 536 444q347 479 349 904 q0 295 -300 295q-479 0 -1038 -448q-517 -420 -876 -1041q-372 -637 -372 -1149q0 -402 212 -664q217 -276 571 -276q614 0 1348 737q19 9 26 9q18 0 18 -24q0 -33 -40 -73q-203 -212 -467 -392q-503 -328 -972 -328q-484 0 -711 314q-170 236 -170 590z" />
<glyph unicode="&#x422;" horiz-adv-x="4465" d="M304 92q0 406 522 1265q550 904 1204 1508q73 271 73 562q0 318 -262 599l-484 453q-262 281 -260 604q0 194 116 413q130 246 300 246q106 0 106 -33q-420 -342 -420 -706q0 -281 276 -528l512 -444q276 -300 274 -710q0 -102 -47 -295q580 479 1024 479q359 0 359 -310 q0 -231 -243 -731q-78 -170 -517 -975q-456 -835 -661 -1180q-28 -47 -31 -64q0 -4 5 -4q14 0 127 122l10 15q760 866 1177 1286q64 64 569 609t519 559q48 47 102 50q87 0 87 -64q0 -43 -56 -125q-241 -354 -442 -866q-295 -774 -295 -1513q0 -779 494 -1367 q585 -705 1618 -705q411 0 692 89q411 135 411 447q0 266 -454.5 453.5t-1086.5 187.5q-449 0 -978 -148q-18 -10 -28 -10q-23 0 -23 24q0 19 37 38q425 188 1074 188q585 0 1057 -169q548 -194 548 -508q0 -318 -359 -503q-328 -165 -854 -162q-817 0 -1461 474 q-835 618 -835 1817q0 942 637 2122l-2436 -2596q-68 -59 -106 -59q-42 0 -45 45q0 14 69 125q28 47 387 701q377 682 401 738l382 697q347 682 347 936q0 246 -304 248q-392 0 -951 -512q-246 -788 -881 -1857q-658 -1098 -913 -1095q-83 0 -83 139zM411 203 q0 -120 73 -120q14 0 38 9q129 54 667 928q267 429 522 1019q189 427 262 663q-576 -595 -1083 -1435q-479 -788 -479 -1064z" />
<glyph unicode="&#x423;" horiz-adv-x="2709" d="M-396 3464q0 251 193.5 423t478.5 172q618 0 1053 -498q410 -479 410 -1090q0 -165 -28 -321q314 101 484 330q14 10 33 10t19 -40q-213 -262 -550 -357q-69 -328 -281 -696l-341 -553q-171 -278 -171 -438q0 -87 92 -87q378 0 1218 1092q705 923 922 1412q38 59 151 59 q48 -3 48 -50q-203 -295 -604 -1140l-758 -1624q323 258 628 472q37 24 61 26q19 0 21 -35q0 -14 -30 -33q-166 -106 -739 -540q-1166 -2460 -1628 -2462q-180 0 -180 231q0 826 1652 2176l991 2136l-184 -260q-401 -571 -812 -1000q-545 -571 -830 -571q-78 0 -126.5 55.5 t-48.5 123.5q0 165 326 673q363 571 462 993q-134 -19 -304 -19q-682 0 -1173 484q-455 444 -455 946zM-257 3436q0 -517 493 -941q479 -411 1027 -411q139 0 283 23q49 227 49 435q0 618 -387 1029q-377 396 -918 396q-545 0 -547 -531zM245 -2268q0 -149 102 -149 q354 133 1355 2195q-1454 -1222 -1457 -2046z" />
<glyph unicode="&#x424;" horiz-adv-x="2754" d="M186 2841q26 295 190 498t445 288t659 -7q318 -82 603.5 -253.5t521.5 -378.5q83 -69 154 -142q488 972 488 1364q116 -9 116 -92q0 -359 -385 -1121l-127 -238l170 -182q207 144 429 264q701 373 1393 373q701 0 701 -604q0 -333 -237.5 -602t-660 -451.5t-1012.5 -282 t-1291 -99.5q-37 0 -177 5q-92 0 -214 14l-66 -115l-97 -175q-161 -276 -264.5 -539.5t-103.5 -484.5q-5 -15 -34.5 -25.5t-58 -15t-51.5 -4.5l-21 -5q-43 5 -43 54q0 378 420 1039l92 137l102 153q-189 28 -411 92q-227 64 -441.5 182t-396.5 299.5t-288 441.5 q-130 318 -104 613zM374 2448.5q65 -350.5 316.5 -622t652.5 -434.5q241 -101 507 -141l286 455q226 373 488 871q59 106 107 213q-140 129 -295 240q-258 189 -537.5 311.5t-540.5 157t-486 -40t-369 -281.5q-194 -378 -129 -728.5zM1978 1237q115 -10 240 -10 q697 0 1271.5 94.5t982.5 271.5t636 428.5t228 560.5q0 521 -658 521q-822 0 -1615 -580q156 -180 253 -314q111 -170 171 -315t-1 -211q-43 -33 -45 -19q-10 97 -48.5 215t-105.5 243q-110 188 -266 368q-378 -281 -687 -644q-24 -34 -42 -71l-5 -5q-28 -54 -59 -101 q-54 -74 -112 -175l-115 -208zM2518 2159q168 161 342 295l118 88l-59 63q-47 55 -96 97l-140 -252z" />
<glyph unicode="&#x425;" horiz-adv-x="3565" d="M-918 208q0 155 347 155q236 0 524 -136q271 -130 269 -218q0 -33 -38 -33q-19 0 -40 29q-267 309 -706 309q-290 0 -288 -130q0 -139 352 -314q373 -179 720 -179q923 0 1659 576q642 507 894 1232q-760 18 -1288.5 449t-528.5 990q0 678 772 678q576 -55 967 -553 q347 -455 347 -946q0 -257 -111 -562q59 0 88 7q396 720 1121 1298q687 550 1116 553q69 -3 73 -45q0 -59 -133 -58t-509 -197q-448 -241 -833 -585q-484 -444 -724 -956q663 59 1083 333q9 4 24 4q33 0 33 -33q0 -19 -15 -30q-561 -300 -1149 -338q-189 -439 -189 -899 q0 -382 203 -633.5t508 -251.5q217 0 475.5 114.5t253.5 114.5q38 0 40 -26q0 -54 -304 -168q-328 -120 -553 -122q-377 0 -613 290q-213 257 -213 580q0 475 272 992h-78q-295 -744 -982 -1277q-788 -614 -1716 -614q-387 0 -769 217q-363 203 -361 383zM1069 2962 q0 -673 651 -1076q513 -319 1074 -331q88 276 88 534q0 561 -326 996q-347 469 -864 467q-281 0 -452 -159.5t-171 -430.5z" />
<glyph unicode="&#x426;" horiz-adv-x="3202" d="M-198 3011q0 319 188.5 510t507.5 191q271 0 527 -124t457 -326.5t323.5 -463.5t122.5 -530q0 -241 -116 -552q498 101 673 429q5 5 19 5q24 0 24 -24q0 -47 -65 -117.5t-169 -140.5t-237.5 -127.5t-267.5 -88.5q-116 -271 -517 -918q-156 -257 -232.5 -408t-76.5 -248 q0 -170 144 -170q170 0 484 256t793 813q391 460 666 829.5t450 647.5q42 74 130 74q54 0 54 -43q0 10 -36 -48l-100 -162l-140 -245l-160 -290l-162 -299l-143 -270q-246 -484 -369.5 -760t-119.5 -397q0 -165 128 -163q19 0 55.5 7t72 31t62.5 70t27 124l61 -5l50 -305 q28 -139 60 -279.5t36.5 -280.5t-29.5 -283t-131 -287q-323 -465 -1097 -387q-29 28 -47 52q-19 23 -32 45.5t-1 36.5q18 19 101 0q130 -37 280 -25.5t295 62.5t267.5 138t200.5 203q73 102 92 236.5t9.5 284t-36.5 305.5t-46 300q-38 -38 -91 -72t-108.5 -59t-104 -34.5 t-78.5 0.5q-64 18 -109 91.5t-45 193.5q0 121 92 334.5t274 560.5l276 513l276 511q-318 -479 -635.5 -848.5t-640.5 -678.5q-600 -571 -885 -571q-251 0 -251 229q0 96 78 248.5t236 402.5q406 633 517 913q-64 -4 -115.5 -6.5t-92.5 -2.5q-309 0 -601.5 124t-519 321 t-364.5 446t-138 501zM-68 3026q0 -272 131 -515t341 -429.5t473 -295t534 -108.5q83 0 145.5 2.5t100.5 6.5q108 291 108 531q0 281 -101.5 542t-276 459t-407 316t-491.5 118q-557 0 -557 -627z" />
<glyph unicode="&#x427;" horiz-adv-x="3202" d="M-5 3021q0 333 208 526q189 175 488 175q531 0 978 -435q455 -448 453 -1010q0 -240 -116 -552q498 102 673 430q4 4 18 4q24 0 24 -23q0 -78 -184 -222q-241 -189 -555 -250q-9 -54 -75 -172l-141 -249l-134 -245q-60 -113 -60 -163q0 -169 144 -167q332 0 1281 1107 l277 365q139 175 226 314q42 74 130 74q54 0 54 -43q0 -28 -59 -92q-68 -78 -106 -151l-285 -536l-291 -535q-493 -959 -493 -1195q0 -165 127 -165q139 0 366 184q226 184 222 184q9 0 21 -14q0 -59 -238 -238q-258 -194 -425 -194q-231 0 -231 243q0 241 370 933l295 532 l295 532l-111 -142q-231 -280 -438.5 -504.5t-394 -386t-348.5 -251.5t-296 -94q-250 -5 -253 226q0 47 36.5 127.5t96.5 186.5l135 233l152 270q-63 -5 -118.5 -7.5t-93.5 -2.5q-651 0 -1149 465q-475 444 -475 928zM125 3035q0 -571 503 -977q460 -373 977 -371 q82 0 144.5 2.5t100.5 7.5q106 290 106 531q0 557 -361 986q-377 449 -913 449q-557 0 -557 -628z" />
<glyph unicode="&#x428;" horiz-adv-x="4691" d="M-198 3011q0 333 207 527q189 174 489 174q531 0 977 -434q455 -448 453 -1010q0 -241 -116 -552q498 101 673 429q5 5 19 5q24 0 24 -24q0 -78 -185 -221q-240 -189 -554 -253q-116 -271 -517 -918q-314 -512 -314 -696q0 -170 144 -168q333 0 1282 1107 q774 918 1116 1477q42 74 130 74q54 0 54 -43q0 -28 -59 -92q-68 -78 -106 -151l-285 -536l-291 -535q-194 -373 -320 -644.5t-159 -488.5q0 -170 146 -168q333 0 1282 1107q774 918 1116 1477q42 74 130 74q54 0 54 -43q0 -28 -59 -92q-68 -78 -106 -151l-285 -536 l-291 -535q-493 -959 -493 -1195q0 -165 127 -165q139 0 366 184t222 184q9 0 21 -14q0 -59 -238 -238q-258 -194 -425 -194q-231 0 -231 243q0 241 370 933l276 513l276 511q-642 -958 -1281 -1565q-600 -571 -885 -571q-250 0 -250 227q14 193 110.5 398.5t245.5 486.5 l276 513l276 511q-642 -958 -1281 -1565q-600 -571 -885 -571q-250 0 -250 227q0 188 318 691q406 633 517 913q-64 -4 -115.5 -6.5t-92.5 -2.5q-651 0 -1149 465q-474 444 -474 927zM-68 3026q0 -572 502 -978q460 -372 977 -370q83 0 145.5 2.5t100.5 6.5q108 291 108 531 q0 557 -363 987q-378 448 -913 448q-557 0 -557 -627z" />
<glyph unicode="&#x429;" horiz-adv-x="4691" d="M-198 3011q0 333 207 527q189 174 489 174q531 0 977 -434q455 -448 453 -1010q0 -241 -116 -552q498 101 673 429q5 5 19 5q24 0 24 -24q0 -78 -185 -221q-240 -189 -554 -253q-116 -271 -517 -918q-314 -512 -314 -696q0 -170 144 -168q333 0 1282 1107 q774 918 1116 1477q42 74 130 74q54 0 54 -43q0 -28 -59 -92q-68 -78 -106 -151l-285 -536l-291 -535q-194 -373 -319 -643.5t-160 -489.5q0 -170 146 -168q333 0 1282 1107q774 918 1116 1477q42 74 130 74q54 0 54 -43q0 -28 -59 -92q-68 -78 -106 -151l-285 -536 l-291 -535q-493 -959 -493 -1195q0 -165 127 -165q19 0 54.5 7t72 32t63.5 71t27 121l62 -4l49 -305l61 -279q31 -141 36 -281.5t-29.5 -282t-131.5 -287.5q-323 -465 -1097 -387q-28 28 -47 54q-19 24 -32 45t-4 38q19 19 102 0q130 -38 281 -27.5t296 61.5t268 138 t200 203q74 101 92.5 237t9 286t-36.5 304.5t-46 300.5q-37 -38 -90.5 -72t-109 -59t-103.5 -34.5t-79 0.5q-64 19 -108.5 92t-44.5 193q0 241 370 933l276 513l276 511q-642 -958 -1281 -1565q-600 -571 -885 -571q-250 0 -250 227q14 193 110.5 398.5t245.5 486.5l276 513 l276 511q-642 -958 -1281 -1565q-600 -571 -885 -571q-250 0 -250 227q0 188 318 691q406 633 517 913q-64 -4 -115.5 -6.5t-92.5 -2.5q-651 0 -1149 465q-474 444 -474 927zM-68 3026q0 -572 502 -978q460 -372 977 -370q83 0 145.5 2.5t100.5 6.5q108 291 108 531 q0 557 -363 987q-378 448 -913 448q-557 0 -557 -627z" />
<glyph unicode="&#x42d;" horiz-adv-x="3285" d="M-748 333q0 231 385 229q198 0 417 -97q184 -83 182 -106q0 -14 -33 -17h-19q-83 64 -254 114.5t-293 50.5q-102 0 -181 -53t-79 -145q0 -208 342 -314q246 -78 522 -78q937 0 1838 692q392 300 692 658q-928 10 -1065 10q-96 0 -139 -5q-47 0 -50 33q0 73 74 73 l1227 -14h33q250 319 436 680q213 465 213 746q0 729 -977 729q-276 0 -652 -125q-198 -246 -441 -442q-262 -207 -406 -207q-106 0 -106 82q0 161 281 333q245 156 637 276q149 217 151 364l47 18q38 0 55 -28q0 -106 -161 -326q498 144 803 147q479 -5 745 -203 q250 -194 250 -522t-266 -847q-198 -363 -468 -682l251 -9q47 0 49 -43q-5 -33 -54 -38h-319q-332 -382 -764 -710q-937 -710 -1808 -713q-444 0 -762 137q-333 139 -333 352zM1024 2882q0 -38 50 -41q111 0 323.5 157t381.5 360q-313 -111 -528 -240q-227 -140 -227 -236z " />
<glyph unicode="&#x42e;" horiz-adv-x="6277" d="M-1060 116q-4 134 184 217q130 54 314 63q425 -18 678 -184q28 -23 28 -33q0 -14 -14 -14q-10 0 -14 5q-324 184 -673 167q-382 -18 -375 -207q14 -208 375 -279q125 -23 261 -34t291 -1q1180 59 2233 1369q64 82 120 163q10 9 14 21l-323 5q-101 0 -212 -5 q-78 -5 -78 33q0 19 34 46t84 27l564 -9q19 23 33 47q59 78 101 139l73 113q272 416 504.5 882t399.5 935q0 19 24 19l21 -4q24 0 50 -2.5t48.5 -9.5t22.5 -24l-110 -285l-117 -284q-156 -346 -347 -695.5t-385 -639.5l-144 -199l470 -4l328 -5q276 942 1402 1770q14 9 33 9 q38 0 38 -37q0 -10 -14 -26q-411 -300 -706 -637q-456 -527 -618 -1084l391 -4q74 0 74 -43q-10 -33 -83 -40h-406q-64 -267 -64 -531q0 -434 208 -748q227 -347 590 -349q323 0 737.5 306.5t770.5 799.5q-382 175 -595 609q-193 402 -193 899q0 609 276 1037 q300 469 798 467q290 0 439 -338q115 -257 118 -599q0 -1015 -692 -2049q170 -73 371 -73q198 0 377 102q5 4 19 4q26 0 31 -14q-5 -9 -21 -19q-203 -125 -435 -127q-193 0 -391 64q-364 -517 -784 -817q-444 -323 -850 -323t-653 288q-262 309 -260 871q0 276 69 540 q-175 0 -267 7l-571 5l-189 -243q-1093 -1301 -2400 -1362q-470 -24 -751 97q-257 115 -262 255zM5152 2402q0 -479 160 -870q180 -430 494 -619q670 968 670 1886q0 958 -503 956q-382 0 -613 -416q-208 -382 -208 -937z" />
<glyph unicode="&#x42f;" horiz-adv-x="4585" d="M484 585q0 140 134.5 220t358.5 80q87 -9 200.5 -38.5t219.5 -71t178 -90t72 -95.5q0 -14 -9 -14q-10 0 -14 5q-324 236 -642 236q-373 0 -373 -222q0 -97 62.5 -175t179.5 -133.5t278.5 -83.5t354.5 -28q333 0 686 127.5t698.5 391.5t669.5 658l63 83q-160 -19 -290 -14 q-309 14 -486 113t-242 253.5t-72 311.5t16.5 281t33.5 157q42 170 154 387t289 401t415.5 295t528.5 78q203 -23 316.5 -126t157 -244.5t32 -311.5t-48.5 -334t-90 -306.5t-91 -230.5q-144 -318 -318 -583q222 43 502 140q-28 -111 -55 -194l-54 -162q-27 -79 -46 -166 t-33 -208q-92 -734 106 -1245t682 -801q517 -328 1135 -328q250 0 459 41.5t359 113.5t238.5 168.5t104.5 207.5q14 130 -63.5 251.5t-230 216t-365 150t-464.5 55.5q-305 0 -616.5 -67.5t-551.5 -194.5q-19 -14 -32 -16.5t-23 -2.5q-33 0 -28 49q5 24 43 48h-10q0 4 99 36 t244.5 71t315 77t309.5 59q23 0 85 5l134 9l131 9q60 5 79 5q262 0 472 -50.5t355.5 -142.5t217 -215t53.5 -269q-24 -165 -139.5 -295t-299.5 -222t-428.5 -140.5t-520.5 -48.5q-585 0 -1014.5 237t-683.5 650t-321 966.5t72 1186.5q-144 -38 -271 -66q-93 -135 -194 -253 q-319 -387 -686 -645.5t-758.5 -396.5t-764.5 -166q-203 -14 -379 39t-307 138t-205 189t-74 200zM2699.5 2289q-2.5 -196 65 -380t256.5 -290t521 -102q59 0 125 5q248 345 470 774q222 430 239.5 713t-94.5 437.5t-312.5 185.5t-417.5 -43.5t-415.5 -247t-299.5 -422.5 q-43 -87 -89 -260.5t-48.5 -369.5z" />
<glyph unicode="&#x430;" d="M-120 97q0 222 370 517q354 285 552 285q29 -5 65.5 -32t36.5 -41q0 -5 -5 -9q-271 0 -691 -421q-135 -134 -135 -226q0 -33 33 -35q106 0 406 247q241 203 342 324q48 59 69 59q47 0 49 -69q0 -23 -63 -111q-208 -285 -208 -363q0 -135 149 -135q245 0 667 286 q15 14 29 14q16 0 16 -19q0 -59 -299 -224q-314 -175 -451 -172q-250 0 -250 264q0 73 75 165q0 5 -5 5q5 0 -260.5 -200.5t-380.5 -200.5q-111 0 -111 92z" />
<glyph unicode="&#x431;" horiz-adv-x="988" d="M-19 156q0 318 309 632q262 267 383 265q77 0 75 -48q0 -19 -28 -37q-121 -24 -314 -248q-241 -272 -241 -522q0 -165 116 -165q170 0 342 198q43 59 81.5 126.5t68 136t46 133t16.5 112.5q0 115 -14 193t-43.5 138t-72 118t-96.5 141l-112 169q-53 83 -91 164.5t-51 164 t18 170.5q73 115 221.5 202.5t335 143t392 83.5t394.5 33t343.5 -14t236.5 -52q69 -28 60.5 -50.5t-119.5 -17.5h-314q-59 -5 -191 -2.5t-304 -5t-350.5 -28.5t-326 -72t-237 -131t-80.5 -210q10 -97 92 -220l175 -272q92 -147 154.5 -309t34.5 -336q0 -107 -44 -249.5 t-145 -267.5q-111 -144 -254 -226.5t-272 -82.5q-194 0 -194 243z" />
<glyph unicode="&#x432;" horiz-adv-x="1637" d="M5 444q0 535 377 1300q343 696 817 1235.5t762 539.5q156 0 156 -156q0 -489 -470 -1208q-363 -562 -899 -1102q-474 -484 -578 -482q14 -455 285 -455q208 0 449 179q-47 87 -50 189q0 328 215 328q87 0 102 -121q0 -169 -147 -337q83 -135 257 -137q189 0 366 156 q14 14 31 14q14 0 14 -19t-49 -59q-213 -179 -430 -179q-179 0 -286 120q-285 -262 -554 -259q-161 0 -264.5 133t-103.5 320zM179 682q0 -19 10 -19q92 0 531 472q488 522 826 1055q432 677 432 1102q0 111 -88 111q-226 0 -653 -547q-402 -513 -720 -1154 q-338 -678 -338 -1020zM986 512q0 -68 19 -120q116 132 116 271q0 47 -33 47q-102 0 -102 -198z" />
<glyph unicode="&#x433;" horiz-adv-x="1319" d="M33 392q116 78 242 180l239 192l201 154q87 64 130 64q59 9 95.5 -32t45.5 -74q15 -83 -55 -175t-230 -236q-83 -73 -150 -158t-96.5 -150t-5 -101.5t126.5 -17.5q101 0 182.5 22.5t166.5 63.5t184 102l234 137q9 5 15 10t16 5q4 0 4 -36q0 -28 -26 -33l-173 -117 q-67 -43 -127.5 -71.5t-131.5 -55.5l-186 -70q-87 -28 -166 -48t-144 -20t-111 24.5t-63 86.5q-14 47 32 122.5t119 157.5l152 168l139 154q61 70 88 116t-15 56q-24 28 -99.5 -20.5t-177.5 -129.5l-214 -174q-114 -92 -210 -146h-5q-9 0 -17.5 20t-8.5 30z" />
<glyph unicode="&#x434;" horiz-adv-x="1449" d="M-1175 -2450q0 1112 1678 2242l406 826q0 5 -10 5q-9 0 -33 -24l-257 -236q-342 -318 -562 -321q-101 0 -101 123q0 217 316 503q337 309 661 309q92 0 156 -40l101 142q33 42 66 42q64 0 64 -68q0 -33 -24 -67q-226 -337 -595 -1073q246 155 449 262q241 139 314 198 q14 14 30 14q15 0 15 -19q-19 -64 -334 -250t-537 -330q-692 -1353 -859 -1634q-479 -792 -798 -792q-144 0 -146 188zM-1038 -2412q0 -125 80 -125q309 0 1392 2190q-1475 -1043 -1472 -2065zM120 208q0 -59 55 -59q198 0 845 691q23 36 23 40q0 19 -42 19 q-262 0 -571.5 -249t-309.5 -442z" />
<glyph unicode="&#x435;" horiz-adv-x="1130" d="M-24 267q0 271 263.5 543.5t499.5 272.5q73 0 73 -68q0 -165 -286 -465q-226 -236 -370 -323q14 -213 203 -213q179 0 599 243q33 19 187 116q14 14 30 14q14 0 14 -19q0 -33 -198 -160q-488 -309 -701 -309q-314 0 -314 368zM156 304q92 29 288 253q219 241 219 366 q0 59 -35 59q-121 0 -294.5 -242t-177.5 -436z" />
<glyph unicode="&#x436;" horiz-adv-x="2459" d="M-59 328q0 14 71 70.5t168 123.5l195 133l151 98q135 82 235 116.5t185 34.5q102 0 152.5 -62.5t36.5 -209.5q-14 -143 -111 -279t-231.5 -240t-284 -161.5t-281.5 -43.5q-149 14 -135 134q9 74 227 248q18 14 44 14q38 -9 33 -47q-4 -23 -18.5 -34t-68.5 -93 q-54 -97 -59 -139q0 -15 36 -19q73 -10 186 45.5t224 147.5t196 203t94 217q10 121 -26.5 171.5t-119.5 50.5q-125 0 -301 -121l-428 -290q-5 -4 -26 -18l-49 -32q-27 -18 -50.5 -30t-27.5 -12q-15 0 -17 24zM1053 415q-15 78 16 92q78 43 178.5 125.5t163.5 198.5 q38 19 48.5 32t20.5 13q23 -5 42 -30t10 -62q-10 -5 -38 -56t-54 -110l-62 -176q-38 -109 -92 -244q59 83 154.5 143t169.5 89q9 -38 -14.5 -54.5t-44.5 -28.5q-78 -43 -178.5 -125.5t-164.5 -197.5q-37 -19 -48 -31t-20 -12q-24 5 -42.5 28.5t-9.5 63.5q9 5 37.5 55.5 t54.5 107.5q19 54 53 133t63 162q9 33 21 67l26 75q-14 0 -24 -26q-120 -175 -266 -232zM1458 111q0 144 80.5 291.5t204.5 264.5t265.5 191t273.5 74q78 0 116 -28t56 -87q10 -24 -11.5 -97t-146.5 -116q-19 -9 -27 9.5t8 33.5q59 54 62.5 97.5t-10.5 69.5t-37.5 36.5 t-23.5 -0.5q0 14 -35 16q-74 0 -182.5 -68.5t-210 -170t-171 -221.5t-69.5 -227q0 -184 158 -184q125 0 311.5 67.5t439.5 237.5q9 9 45.5 34t50.5 25q15 -3 15 -22q0 -14 -51 -53t-123 -82l-150 -86q-78 -43 -130 -78q-139 -88 -253.5 -125.5t-196.5 -37.5q-102 0 -180 72 t-78 164z" />
<glyph unicode="&#x437;" horiz-adv-x="1314" d="M-1305 -2480q0 358 434 944q333 434 829 904q434 405 490 405q0 29 -14 52q-68 121 -189 121q-47 0 -106 -19q-115 -38 -139 -38q-14 0 -19 19q0 47 97 87q156 69 370 255q258 227 258 368q0 83 -78 83q-69 0 -295 -156l-357 -259q-14 -15 -30 -15q-10 0 -10 52 q14 10 174 134l328 256q166 132 301 132q174 0 174 -182q0 -222 -571 -595q-33 -33 -33 -49q0 -19 33 -19q213 0 281 -125q111 64 354 255q222 174 356 243q15 14 31 14q14 0 14 -19q0 -23 -73 -78l-668 -493q-9 -373 -347 -991q-314 -581 -720 -1024q-429 -470 -677 -465 q-82 0 -140 59t-58 144zM-1145 -2440q0 -111 71 -111q144 0 531 417.5t678 901.5q339 562 339 904q0 19 -4 19q-107 0 -508 -406q-425 -425 -736 -876q-373 -545 -371 -849z" />
<glyph unicode="&#x438;" horiz-adv-x="1559" d="M-135 19q0 68 169 375t169 354q0 54 -87 54q-19 0 -19 59q42 15 92 15q170 0 170 -97q0 -106 -150 -357.5t-150 -315.5q0 -38 33 -38q78 0 380 256.5t465 463.5q73 73 106 73q64 0 64 -63q0 -33 -33 -88q-290 -434 -290 -566q0 -120 110 -120q170 0 614 304q24 19 68 45 q15 14 29 14t14 -19q0 -28 -73 -78q-595 -401 -803 -401q-134 0 -134 153q0 88 33 175l49 125q0 19 -14 21q-4 0 -26 -9q-106 -106 -309 -257q-262 -194 -361 -194q-116 0 -116 116z" />
<glyph unicode="&#x439;" horiz-adv-x="1559" d="M-135 19q0 68 169 375t169 354q0 54 -87 54q-19 0 -19 59q42 15 92 15q170 0 170 -97q0 -106 -150 -357.5t-150 -315.5q0 -38 33 -38q78 0 380 256.5t465 463.5q73 73 106 73q64 0 64 -63q0 -33 -33 -88q-290 -434 -290 -566q0 -120 110 -120q170 0 614 304q24 19 68 45 q15 14 29 14t14 -19q0 -28 -73 -78q-595 -401 -803 -401q-134 0 -134 153q0 88 33 175l49 125q0 19 -14 21q-4 0 -26 -9q-106 -106 -309 -257q-262 -194 -361 -194q-116 0 -116 116zM734 1175q0 29 9 38q69 83 142 162t139 161q194 208 295 208h10q73 -24 73 -101v-24 q0 -43 -180 -135q-271 -139 -479 -335q-9 0 -9 26z" />
<glyph unicode="&#x43a;" horiz-adv-x="1703" d="M-149 -42q0 33 29 80l462 948q489 992 866 1575q536 826 831 828q156 0 156 -156q0 -493 -465 -1154q-354 -507 -885 -996q-460 -420 -555 -420q-226 -469 -226 -543l554 531q550 489 812 489q102 -14 102 -87q0 -208 -194 -357l-361 -217q-193 -120 -193 -257 q0 -213 167 -213q198 0 701 319q24 19 68 45q15 14 29 14t16 -19q0 -5 -63 -68q-116 -116 -401.5 -258.5t-424.5 -142.5q-262 0 -262 250q0 193 193 325l360 210q185 109 185 258q0 68 -61 68q-156 0 -747 -553.5t-636 -553.5q-59 5 -57 55zM337 753q130 42 543 460 q465 474 777 946q396 600 396 1001q0 111 -85 111q-434 -111 -1631 -2518z" />
<glyph unicode="&#x43b;" horiz-adv-x="1689" d="M-156 144q0 54 27.5 93t55.5 39q23 0 39 -24l34 -56q19 -31 43.5 -55.5t67.5 -24.5h28q38 0 189 68q267 125 472 302t349 364q73 73 107 73q63 0 63 -62q0 -37 -33 -87q-290 -434 -290 -566q0 -121 111 -121q170 0 613 305q10 9 46.5 32.5t50.5 23.5t14 -18 q0 -29 -73 -76q-599 -401 -800 -401q-134 0 -137 153q0 47 12 104t29 100l30 72q12 29 12 24q0 19 -14 19q-24 0 -99.5 -58t-245.5 -155q-82 -37 -149 -76l-130 -74q-63 -34 -121 -52.5t-121 -14.5q-69 5 -124.5 32t-55.5 117z" />
<glyph unicode="&#x43c;" horiz-adv-x="2192" d="M-156 144q0 54 27.5 93t55.5 39q23 0 39 -24l34 -56q19 -31 43.5 -55.5t67.5 -24.5h28q38 0 189 68q267 125 448.5 309t325.5 373q73 73 106 71q14 0 36.5 -12t29.5 -41.5t-15 -80t-84 -126.5q-37 -37 -89 -115t-103 -166l-92 -164q-41 -76 -56 -112q5 -37 66.5 -4 t140.5 96.5t157 138t116 128.5l147 175l166 200q43 29 86.5 14.5t24.5 -37.5q-144 -217 -212.5 -386t-68.5 -237q0 -121 114 -121q170 0 613 305q10 9 46.5 32.5t50.5 23.5t14 -18q0 -29 -73 -76q-599 -401 -802 -401q-135 0 -135 153q0 47 12 104t28.5 100.5t29.5 72 t13 23.5q0 19 -17 19q-33 -38 -105 -111t-154.5 -145t-165 -123t-129.5 -46q-59 5 -73.5 41.5t0 89.5t48.5 115.5t72 121.5l34 56l46 78q21 38 32 63t-11 11q-4 9 -35 -28l-84 -94q-53 -58 -124 -122.5t-158 -119.5l-131 -78q-67 -42 -132 -74t-130 -50.5t-128 -14.5 q-69 5 -124.5 32t-55.5 117z" />
<glyph unicode="&#x43d;" horiz-adv-x="1845" d="M-156 250q0 10 55 50l355 277l393 299q54 47 151 47q96 0 96 -88q0 -96 -141 -309q-10 -19 -24 -35.5t-23 -35.5h90q54 0 122 5q116 10 198 0l39 68q20 34 44 71q54 83 103.5 150.5t104.5 121.5q33 42 106 42q38 -9 38 -23l-168 -281q-170 -281 -170 -406 q0 -149 130 -149q165 0 479 283q14 15 28 17q14 0 17 -21q0 -29 -97 -97q-156 -135 -281 -204.5t-238 -69.5q-217 0 -217 182q0 120 54 248q-59 4 -138 4t-176 -9q-68 -5 -87 -5h-29q-68 -96 -118.5 -183.5t-50.5 -97.5q-15 -18 -39 -50l-46 -63q-22 -30 -42 -52.5 t-29 -22.5q-64 0 -62 68q0 24 33 97l117 159q58 77 110 159q170 241 170 343q0 42 -28 45q-19 0 -59 -19l-298 -223l-403 -301h-33q-33 0 -36 9z" />
<glyph unicode="&#x43e;" horiz-adv-x="1314" d="M-19 156q0 314 309 632q262 267 383 265q77 0 75 -48q0 -14 -28 -37q-116 -24 -314 -248q-241 -272 -241 -522q0 -165 116 -165q170 0 342 198q-92 102 -92 253q0 174 87 300q78 106 166 106q87 0 101 -121q0 -212 -151 -460q83 -92 224 -92q189 0 366 156q14 14 28 14 q17 0 17 -19t-50 -59q-212 -179 -429 -179q-135 0 -232 73q-221 -290 -483 -290q-194 0 -194 243zM663 512q0 -101 43 -170q129 203 129 397q0 47 -33 49q-42 0 -90.5 -78t-48.5 -198z" />
<glyph unicode="&#x43f;" horiz-adv-x="1928" d="M-156 250q0 14 55 50l748 576q59 47 151 47q96 0 96 -88q0 -101 -138 -306.5t-138 -224.5q0 -4 10 -4q-5 0 324 272.5t445 272.5q179 0 179 -120q0 -107 -154.5 -348.5t-154.5 -275.5q0 -37 48 -37q92 0 354 139q179 101 273 170q14 14 31 14q14 0 14 -19 q-28 -82 -352.5 -246t-480.5 -164q-83 0 -80 56q0 78 161.5 310.5t161.5 303.5q0 82 -78 82q-115 0 -465 -314q-236 -212 -415 -410q-68 -73 -106 -73q-64 0 -62 68q0 19 33 97l227 318q170 241 170 343q0 42 -28 45q-15 0 -59 -19l-701 -524h-33q-33 0 -36 9z" />
<glyph unicode="&#x440;" horiz-adv-x="1420" d="M-1374 -2195q0 175 2176 4062q38 68 74 66q4 0 18.5 -9.5t14.5 -37.5q0 -55 -29 -83q-4 -14 -396 -715q-373 -677 -373 -720q0 -5 5 -9q4 9 33 37q115 140 321 286q271 184 472 184q148 0 151 -118q0 -354 -567 -689q430 0 895 314q14 14 28 14q17 0 17 -19 q0 -68 -348.5 -252t-846.5 -184q-285 0 -309 59q0 33 52 33q73 -15 92 -15q246 0 526 253q267 236 267 406q0 73 -92 71q-455 0 -991 -859q-43 -69 -529 -1028t-514 -1028q-33 -83 -88 -80q-18 0 -28 5q-28 9 -31 56z" />
<glyph unicode="&#x441;" horiz-adv-x="1038" d="M-64 111q0 319 309 585q277 236 515 236q149 0 149 -120q0 -69 -199 -267q-19 -19 -42 -19q-38 0 -40 45q0 19 15 31t57.5 106t42.5 142q0 14 -33 16q-120 0 -351 -198q-281 -236 -281 -489q0 -184 158 -184q245 0 750 333q24 19 67 45q14 14 30 14q14 0 14 -19t-73 -78 l-382 -252q-276 -165 -448 -163q-102 0 -180 72t-78 164z" />
<glyph unicode="&#x442;" horiz-adv-x="2916" d="M-156 250q0 14 55 50l748 576q59 47 151 47q96 0 96 -88q0 -18 -9 -56l-248 -432q-19 -33 -19 -43q0 -4 10 -4l14 4l359 310q276 231 396 231q161 0 158 -102q0 -87 -93 -263t-93 -190t9 -14q19 0 66 33l1006 760q47 38 101 38q33 0 48.5 -12t15.5 -42q0 -33 -19 -57 l-276 -392q-165 -250 -165 -434q0 -116 127 -111q149 5 338 120l309 194q14 14 28 14q17 0 17 -19q0 -28 -74 -78l-382 -257q-217 -130 -363 -130q-83 0 -138.5 58t-55.5 140q0 241 312 692q23 33 23 42q0 5 -4 5q-19 0 -69 -33l-599 -448l-411 -340q-38 -28 -106 -52 q-33 0 -33 47q0 97 161.5 311.5t161.5 302.5q0 82 -78 82q-115 0 -465 -314q-236 -212 -415 -410q-68 -73 -106 -73q-64 0 -62 68q0 19 33 97l227 318q170 241 170 343q0 42 -28 45q-15 0 -59 -19l-701 -524h-33q-33 0 -36 9z" />
<glyph unicode="&#x443;" horiz-adv-x="1390" d="M-1171 -2384q0 1053 1577 2148l300 628q0 19 -15 19q-531 -406 -653 -406q-116 0 -116 115q0 69 147.5 348.5t147.5 329.5q0 54 -87 52q-19 0 -19 59q42 14 92 14q170 0 170 -97q0 -106 -131 -348t-131 -303q0 -38 33 -40q116 0 373 202q290 232 434 498q73 74 109 74 q63 0 61 -64q0 -33 -33 -85q-189 -295 -474 -861q257 160 474 276q241 139 314 198q14 14 28 14t14 -19q-19 -64 -328 -248q-358 -212 -566 -347q-651 -1309 -812 -1571q-455 -774 -762 -774q-144 0 -147 188zM-1034 -2343q0 -126 83 -128q203 0 597 696q257 456 701 1407 q-1383 -987 -1381 -1975z" />
<glyph unicode="&#x444;" horiz-adv-x="1781" d="M-406 -2384q28 78 57.5 184.5t73.5 247t109 322t166 408.5l131 288l150 320q342 725 685.5 1373t697.5 1233l254 427q121 205 240 380t242 314t267 236q236 156 382 78q97 -55 78 -78q-257 -54 -423.5 -142.5t-284.5 -217.5t-217 -293l-220 -362l-254 -429l-278 -501 l-292 -546l-297 -568l-423 -834l-327 -683q-198 -439 -275 -720t-122 -415q0 -19 -21 -46.5t-43.5 -39t-41.5 -3.5t-14 67zM64 160q0 319 309 633q68 68 179 126t212.5 70t169 -34t48.5 -186q0 -106 -71 -273.5t-172 -287.5q-227 -291 -482 -291q-193 0 -193 243zM212 198 q0 -82 34.5 -133t90.5 -51q88 0 187 55.5t182 166.5q42 59 81 126.5t68.5 135.5t46 133t16.5 112q14 121 -34.5 162t-122.5 31.5t-154.5 -55.5t-127.5 -102q-120 -135 -193.5 -295.5t-73.5 -285.5zM769 116q0 106 70 273.5t171 287.5q222 291 484 291q193 0 193 -243 q0 -319 -309 -633q-68 -68 -174.5 -121.5t-208 -65t-171 34.5t-55.5 176zM831 139q-14 -120 32 -153t118 -14t152 74t130 114q120 135 196.5 280t76.5 270q0 83 -46 136t-102 53q-83 0 -170.5 -78t-174.5 -174q-42 -59 -81 -125.5t-67.5 -134.5t-46 -134.5t-17.5 -113.5z " />
<glyph unicode="&#x445;" horiz-adv-x="1269" d="M-392 -425q0 29 33 62l659 682q28 139 78 415q0 28 -19 35q-14 0 -36 -16q-174 -125 -370 -130q0 78 47 87q203 24 415 194q74 42 92 42q59 0 59 -75q-4 -5 -40 -123q-54 -156 -71 -274q435 425 633 574q28 28 57 31q59 0 59 -45q0 -24 -43 -57q-363 -276 -717 -623v-31 q0 -236 174 -236q246 0 668 286q14 14 29 14q14 0 14 -19q0 -59 -300 -224q-314 -175 -448 -172q-267 0 -281 236q-319 -319 -545 -576q-83 -92 -109 -92q-38 0 -38 35z" />
<glyph unicode="&#x446;" horiz-adv-x="1453" d="M-135 19q0 64 168 373q170 314 170 356q0 54 -87 54q-19 0 -19 59q42 15 92 15q170 0 170 -97q0 -106 -151 -359q-149 -250 -149 -314q0 -38 33 -38q78 0 378 255q299 246 467 465q73 73 106 73q64 0 64 -63q0 -38 -33 -88q-290 -434 -290 -566q0 -120 110 -120 q166 0 333 146q19 19 69 42q14 15 28 15t14 -19q0 -29 -71 -78q-314 -241 -524 -241q-134 0 -134 153q0 93 33 175q47 116 49 125q0 19 -14 21q5 0 -26 -9q-54 -54 -131 -116l-178 -141q-257 -194 -361 -194q-116 0 -116 116zM394 -535q2 13 2 23q19 5 38 -19 q47 -42 106 -67t122 -27.5t118 19t100 70.5q73 88 106.5 160t53.5 144t27 142.5t26 148.5l4 5l38 37l-5 -33q0 -198 -43.5 -403t-159.5 -333q-101 -87 -235.5 -62.5t-276.5 131.5q-4 9 -9 16t-5 17q-9 18 -7 31z" />
<glyph unicode="&#x447;" horiz-adv-x="1458" d="M-64 323q24 14 175 125q337 251 547 567q38 64 102 64q28 0 28 -31q0 -19 -20 -84t-20 -93q0 -87 94.5 -155.5t94.5 -92.5q0 -42 -147.5 -175.5t-147.5 -249.5q0 -170 156 -170q144 0 382 147l286 198q14 14 28 14t14 -19q0 -87 -439 -340q-193 -111 -387 -111 q-227 0 -227 194q0 120 168 309q144 161 161 161q-88 0 -136.5 101.5t-71.5 101.5q-19 0 -54 -36q-69 -101 -260 -255q-102 -82 -286 -207q-14 -15 -30 -15q-10 0 -10 52z" />
<glyph unicode="&#x448;" horiz-adv-x="2293" d="M-47 19q0 64 167 373q170 314 170 356q0 54 -87 54q-19 0 -19 59q43 15 92 15q170 0 168 -97q0 -106 -149 -359q-149 -250 -151 -314q0 -38 35 -38q78 0 378 255q116 97 224.5 221t176.5 244q73 73 106 73q64 0 62 -63q0 -40 -33 -88q-10 -23 -56 -115l-99 -193l-96 -192 q-44 -90 -44 -104q0 -38 33 -38q78 0 377 255q300 246 470 465q73 73 106 73q64 0 62 -63q0 -38 -34 -88q-290 -434 -290 -566q0 -120 111 -120q170 0 614 304q19 19 68 45q14 14 28 14q15 0 15 -19q0 -28 -71 -78q-600 -401 -803 -401q-134 0 -136 153q0 93 35 175 q47 116 47 125q0 19 -14 21q5 0 -24 -9q-54 -54 -130 -116l-179 -141q-257 -194 -363 -194q-116 0 -116 116q0 33 39 111l122 233q4 0 -26 -9q-55 -54 -131 -116l-178 -141q-258 -194 -362 -194q-115 0 -115 116z" />
<glyph unicode="&#x449;" horiz-adv-x="2201" d="M-47 19q0 64 167 373q170 314 170 356q0 54 -87 54q-19 0 -19 59q43 15 92 15q170 0 168 -97q0 -106 -149 -359q-149 -250 -151 -314q0 -38 35 -38q78 0 378 255q116 97 224.5 221t176.5 244q73 73 106 73q64 0 62 -63q0 -38 -33 -88q-10 -23 -56 -115l-99 -193l-96 -192 q-44 -90 -44 -104q0 -38 33 -38q78 0 377 255q300 246 470 465q73 73 106 73q64 0 62 -63q0 -38 -34 -88q-290 -434 -290 -566q0 -120 111 -120q83 0 179.5 36.5t179.5 109.5q19 19 66 42q14 15 31 15q14 0 14 -19q0 -29 -73 -78q-156 -121 -297.5 -181t-248.5 -60 q-134 0 -136 153q0 93 35 175q47 116 47 125q0 19 -14 21q5 0 -24 -9q-54 -54 -130 -116l-179 -141q-257 -194 -363 -194q-116 0 -116 116q0 33 39 111l122 233q4 0 -26 -9q-55 -54 -131 -116l-178 -141q-258 -194 -362 -194q-115 0 -115 116zM1158.5 -535q2.5 13 2.5 23 q19 5 38 -19q47 -42 106 -67t121.5 -27.5t118 19t98.5 70.5q73 88 107 160t53 144t26 142.5t26 148.5l5 5l40 37l-5 -33q0 -198 -43.5 -403t-159.5 -333q-101 -87 -237 -62.5t-275 131.5q-5 9 -9.5 16t-4.5 17q-10 18 -7.5 31z" />
<glyph unicode="&#x44a;" horiz-adv-x="1928" d="M-64 323q10 10 53.5 41.5t121.5 83.5q170 125 304.5 269t242.5 298q33 64 102 64q28 0 28 -31q0 -19 -20 -84t-20 -93q0 -24 32 -37t82.5 -13t114.5 19q33 14 61 31q78 82 156 80q38 -9 38 -24l-168 -280q-82 -140 -130.5 -262.5t-48.5 -190.5q0 -130 106 -130 q78 0 154.5 42.5t150.5 110.5q-74 73 -74 179q0 116 65 201t148 85q82 0 97 -78q0 -73 -24 -157t-87 -180q73 -73 203 -73q160 0 328 129q14 14 26 14q14 0 14 -18q0 -38 -53 -72.5t-124 -62.5t-143 -46t-110 -18q-68 0 -107 18t-81 51q-102 -121 -233 -189t-251 -68 q-92 0 -136 75.5t-44 171.5q0 64 44 191.5t112 257.5q38 68 80 132q-106 -59 -172 -73q-116 -24 -142 28q-23 54 -35 61.5t-21 7.5q-19 0 -54 -36q-69 -106 -260 -255q-54 -38 -124 -92t-162 -115q-14 -15 -30 -15q-10 0 -10 52zM1333 415q0 -73 36 -120q59 73 85 152 t26 129v9q19 10 2.5 17t-38.5 7q-37 0 -74 -53t-37 -141z" />
<glyph unicode="&#x44b;" horiz-adv-x="1826" d="M-59 179q0 64 43.5 191.5t114.5 258.5t157 226.5t169 95.5q38 -9 40 -24l-170 -280q-83 -140 -131 -262.5t-48 -190.5q0 -130 106 -130q78 0 155.5 42.5t148.5 110.5q-73 73 -71 179q0 116 65 201t148 85q82 0 97 -78q0 -73 -25 -157t-89 -180q74 -73 203 -73 q78 0 156 37q19 170 161 387q54 83 103.5 150t103.5 122q33 42 106 42q38 -9 38 -23q0 -5 -55.5 -72.5t-137.5 -208.5q-102 -165 -149 -291q5 -4 5 -14q0 -19 -19 -47q-5 -19 -5 -54q0 -78 42.5 -113.5t111.5 -35.5q174 0 556 281q15 14 29 14t14 -21q0 -28 -97 -97 q-189 -134 -355 -226t-277 -92t-145.5 70.5t-34.5 162.5v10q-63 -24 -121 -39.5t-91 -15.5q-68 0 -107 18t-82 51q-101 -121 -232 -189t-252 -68q-92 0 -135.5 75.5t-43.5 171.5zM566 415q0 -73 33 -120q59 73 85 152t26 129v9q19 10 2.5 17t-35.5 7q-37 0 -74 -53t-37 -141 z" />
<glyph unicode="&#x44c;" horiz-adv-x="1196" d="M-42 179q0 64 55 203.5t136.5 284.5t181 253.5t181.5 108.5q38 -9 38 -24q0 -4 -79 -110.5t-162 -247.5q-82 -140 -130.5 -262.5t-48.5 -190.5q0 -130 106 -130q78 0 156 42.5t148 110.5q-73 73 -70 179q0 116 64.5 201t147.5 85t97 -78q0 -73 -25 -157t-86 -180 q73 -73 203 -73q160 0 328 129q14 14 23 14q15 0 15 -18q0 -38 -53.5 -72.5t-123 -62.5t-142.5 -46t-111 -18q-68 0 -106 18t-83 51q-101 -121 -231 -189t-252 -68q-93 0 -135 75.5t-42 171.5zM581 415q0 -73 33 -120q59 73 85 152t26 129v9q18 10 1.5 17t-35.5 7 q-37 0 -73.5 -53t-36.5 -141z" />
<glyph unicode="&#x44d;" horiz-adv-x="1231" d="M-59 328q0 14 71 70.5t168 123.5l195 133l151 98q135 82 235 116.5t185 34.5q92 0 153.5 -58t61.5 -169q0 -144 -87.5 -282t-218 -247.5t-287.5 -177t-292 -67.5q-184 0 -184 121q0 37 21.5 89t131.5 144q10 10 42 10t22 -10q-101 -125 -110.5 -184t72.5 -106 q10 -5 7.5 0t21.5 5q73 0 186 55.5t219.5 145t189 198t91.5 214.5v38q0 184 -146 184q-125 0 -301 -121l-428 -290q-5 -4 -26 -18l-49 -32q-27 -18 -50.5 -30t-27.5 -12q-15 0 -17 24zM448 406q0 38 31 38l453 -10l-14 -52q-347 5 -396 5h-52q-19 0 -22 19z" />
<glyph unicode="&#x44e;" horiz-adv-x="2329" d="M-156 250q0 10 55 50l355 277l393 299q54 47 151 47q96 0 96 -88q0 -96 -141 -309q-24 -33 -52 -78q78 5 217 12q83 10 146 5h5q78 160 236 323q262 267 382 265q78 0 78 -48q0 -14 -30 -37q-116 -24 -314 -248q-161 -180 -217 -352q0 -9 -5 -14q-19 -78 -19 -156 q0 -165 116 -165q170 0 342 198q-92 102 -92 253q0 174 87 300q78 106 165 106q88 0 102 -121q0 -212 -151 -460q82 -92 224 -92q189 0 366 156q14 14 30 14q15 0 15 -20t-50 -58q-212 -179 -429 -179q-135 0 -232 73q-222 -290 -484 -290q-193 0 -193 243q0 120 42 240 q-92 5 -264 -9q-64 -5 -92 -5h-24l-73 -115l-67 -113q-29 -48 -29 -53q-15 -18 -39 -50l-46 -63q-22 -30 -42 -52.5t-29 -22.5q-64 0 -62 68q0 24 33 97l117 159q58 77 110 159q170 241 170 343q0 42 -28 45q-19 0 -59 -19l-298 -223l-403 -301h-33q-33 0 -36 9zM1678 512 q0 -101 42 -170q130 203 130 397q0 47 -33 49q-42 0 -90.5 -78t-48.5 -198z" />
<glyph unicode="&#x44f;" horiz-adv-x="1734" d="M-156 144q0 54 27.5 93t55.5 39q23 0 39 -24l34 -56q19 -31 43.5 -55.5t67.5 -24.5h28q14 0 60 14t129 54q120 59 217 99t180 95q-93 18 -175 61q-116 59 -102 212q10 107 88 175t177 96.5t198 16.5t152 -67t41.5 -152t-136.5 -241l-32 -31q-18 -18 -42 -33l83 -23 q5 9 19 30l28 44q14 23 23.5 37t5.5 14q73 73 108 73q64 0 61 -64q0 -37 -33 -87q-59 -87 -97.5 -152t-48 -108.5t20 -67.5t111.5 -24q170 0 614 305q9 9 45.5 32.5t51.5 23.5q14 0 14 -18q0 -29 -73 -76q-600 -401 -803 -401q-134 0 -134 153q0 69 18.5 131.5t37.5 99.5 q-33 0 -64.5 5t-64.5 12q-88 -64 -199 -129t-221.5 -118t-210 -84.5t-162.5 -27.5q-69 5 -124.5 32t-55.5 117zM578 630q-21 -90 85 -156l144 -40q38 33 78 77t78 98l26 43q12 21 21 44q14 38 16.5 81.5t-30.5 83.5q-43 48 -143 20.5t-177 -94.5t-98 -157z" />
<glyph unicode="&#x451;" horiz-adv-x="1130" d="M-24 267q0 271 263.5 543.5t499.5 272.5q73 0 73 -68q0 -165 -286 -465q-226 -236 -370 -323q14 -213 203 -213q179 0 599 243q33 19 187 116q14 14 30 14q14 0 14 -19q0 -33 -198 -160q-488 -309 -701 -309q-314 0 -314 368zM156 304q92 29 288 253q219 241 219 366 q0 59 -35 59q-121 0 -294.5 -242t-177.5 -436zM465 1435q0 64 48.5 100.5t90.5 36.5q92 0 92 -88q0 -42 -53 -91.5t-93 -49.5q-83 0 -85 92zM885 1374q0 63 48.5 98.5t90.5 35.5q92 0 92 -87q0 -43 -53 -91.5t-91 -48.5q-82 0 -87 93z" />
<glyph unicode="&#x2000;" horiz-adv-x="2890" />
<glyph unicode="&#x2001;" horiz-adv-x="5780" />
<glyph unicode="&#x2002;" horiz-adv-x="2890" />
<glyph unicode="&#x2003;" horiz-adv-x="5780" />
<glyph unicode="&#x2004;" horiz-adv-x="1926" />
<glyph unicode="&#x2005;" horiz-adv-x="1445" />
<glyph unicode="&#x2006;" horiz-adv-x="963" />
<glyph unicode="&#x2007;" horiz-adv-x="963" />
<glyph unicode="&#x2008;" horiz-adv-x="722" />
<glyph unicode="&#x2009;" horiz-adv-x="1156" />
<glyph unicode="&#x200a;" horiz-adv-x="321" />
<glyph unicode="&#x2010;" horiz-adv-x="2100" d="M479 522q0 33 116 110q139 88 285 88q121 0 358 -99t317 -99q92 0 167.5 50.5t71.5 50.5q14 0 14 -14q0 -73 -111 -126t-231 -53q-135 0 -358 89.5t-348 89.5q-54 0 -151 -46t-120 -46z" />
<glyph unicode="&#x2011;" horiz-adv-x="2100" d="M479 522q0 33 116 110q139 88 285 88q121 0 358 -99t317 -99q92 0 167.5 50.5t71.5 50.5q14 0 14 -14q0 -73 -111 -126t-231 -53q-135 0 -358 89.5t-348 89.5q-54 0 -151 -46t-120 -46z" />
<glyph unicode="&#x2012;" horiz-adv-x="2100" d="M479 522q0 33 116 110q139 88 285 88q121 0 358 -99t317 -99q92 0 167.5 50.5t71.5 50.5q14 0 14 -14q0 -73 -111 -126t-231 -53q-135 0 -358 89.5t-348 89.5q-54 0 -151 -46t-120 -46z" />
<glyph unicode="&#x2013;" horiz-adv-x="1680" d="M73 489q0 33 135 110q165 88 328 88q134 0 410 -99t369 -99q101 0 188.5 50.5t82.5 50.5q14 0 14 -14q0 -73 -126 -126.5t-266 -53.5q-160 0 -416 90t-396 90q-63 0 -174 -46t-135 -46z" />
<glyph unicode="&#x2014;" horiz-adv-x="3178" d="M59 484q0 33 274 111q323 87 653 87q277 0 826.5 -99t733.5 -99q208 0 382.5 50.5t160.5 50.5q33 0 33 -14q0 -73 -251 -126t-537 -53q-314 0 -828.5 89.5t-795.5 89.5q-125 0 -348 -46t-270 -46z" />
<glyph unicode="&#x2018;" horiz-adv-x="1279" d="M779 2063q0 434 517 668q19 0 19 -10q0 -5 -5 -9q-227 -149 -262 -184q-130 -121 -130 -281q5 -55 44 -109t39 -85q-10 -111 -107 -111q-96 0 -115 121z" />
<glyph unicode="&#x2019;" horiz-adv-x="1293" d="M710 1947q0 5 5 9q227 149 262 185q130 120 130 280q-5 55 -44 110.5t-39 83.5q14 111 106 111q97 0 116 -121q0 -434 -517 -667q-19 0 -19 9z" />
<glyph unicode="&#x201a;" horiz-adv-x="1293" d="M87 -540q0 4 5 9q227 149 262 184q130 120 130 279q-5 54 -44 109.5t-39 83.5q14 111 106 111q97 0 116 -120q0 -435 -517 -666q-19 0 -19 10z" />
<glyph unicode="&#x201c;" horiz-adv-x="1647" d="M779 2063q0 434 517 668q19 0 19 -10q0 -5 -5 -9q-227 -149 -262 -184q-130 -121 -130 -281q5 -55 44 -109t39 -85q-10 -111 -107 -111q-96 0 -115 121zM1199 2063q0 434 517 668q19 0 19 -10q0 -5 -5 -9q-227 -149 -260 -184q-130 -121 -132 -281q5 -55 44 -109t39 -85 q-10 -111 -106 -111q-97 0 -116 121z" />
<glyph unicode="&#x201d;" horiz-adv-x="1633" d="M710 1947q0 5 5 9q227 149 262 185q130 120 130 280q-5 55 -44 110.5t-39 83.5q14 111 106 111q97 0 116 -121q0 -434 -517 -667q-19 0 -19 9zM1130 1947q0 5 5 9q227 149 262 185q130 120 130 280q-5 55 -44 110.5t-39 83.5q14 111 107 111q99 0 118 -121 q0 -434 -520 -667q-19 0 -19 9z" />
<glyph unicode="&#x201e;" horiz-adv-x="1633" d="M87 -540q0 4 5 9q227 149 262 184q130 120 130 279q-5 54 -44 109.5t-39 83.5q14 111 106 111q97 0 116 -120q0 -435 -517 -666q-19 0 -19 10zM507 -540q0 4 5 9q227 149 262 184q130 120 130 279q-5 54 -44 109.5t-39 83.5q14 111 106 111q97 0 116 -120 q0 -435 -517 -666q-19 0 -19 10z" />
<glyph unicode="&#x2020;" horiz-adv-x="1531" d="M9 -512l1171 2596q-250 101 -368 101q-54 0 -150 -46t-122 -46l-9 5q0 33 116 111q139 87 285 87q102 0 305 -78l533 1176q19 42 47 42q29 0 29 -106l-513 -1154q180 -78 277 -78q92 0 166 51t70 51q14 0 14 -15q0 -73 -111 -126t-232 -53q-129 0 -240 42l-1138 -2560 q-33 -59 -56 -59q-29 0 -74 59z" />
<glyph unicode="&#x2021;" horiz-adv-x="1531" d="M9 -512l720 1605q-212 87 -333 87q-54 0 -150.5 -46t-120.5 -46l-9 5q0 33 115 111q140 87 286 87q111 0 271 -69l392 862q-250 101 -368 101q-54 0 -150 -46t-122 -46l-9 5q0 33 116 111q139 87 285 87q102 0 305 -78l533 1176q19 42 47 42q29 0 29 -106l-513 -1154 q180 -78 277 -78q92 0 166 51t70 51q14 0 14 -15q0 -73 -111 -126t-232 -53q-101 0 -240 42l-383 -863q213 -92 300 -92q92 0 166.5 50.5t69.5 50.5q14 0 14 -14q0 -73 -111 -126t-231 -53q-116 0 -267 52l-696 -1565q-33 -59 -56 -59q-29 0 -74 59z" />
<glyph unicode="&#x2022;" horiz-adv-x="1222" d="M425 517q0 139 120 231q97 69 194 69q87 0 153 -58t66 -136q0 -106 -119 -207.5t-207 -101.5q-193 0 -207 203z" />
<glyph unicode="&#x2026;" horiz-adv-x="2657" d="M368 19q0 68 53 107t101 39q106 0 106 -92q0 -54 -58 -102.5t-100 -48.5q-92 0 -102 97zM1053 19q0 68 48 107t98 39q97 0 97 -92q0 -54 -53.5 -102.5t-97.5 -48.5q-88 0 -92 97zM1725 19q0 68 59 111q43 33 92 35q102 0 102 -92q0 -54 -55.5 -102.5t-100.5 -48.5 q-92 0 -97 97z" />
<glyph unicode="&#x202f;" horiz-adv-x="1156" />
<glyph unicode="&#x2030;" horiz-adv-x="3820" d="M439 1088q0 354 286 642q231 236 387 238q217 -2 217 -321q0 -299 -208 -603.5t-425 -304.5q-257 0 -257 349zM545 1140q0 -281 203 -279q165 0 322 222t157 484q0 286 -167 283q-170 0 -342.5 -229t-172.5 -481zM729 -149l1452 2299q23 42 47 45q28 0 28 -106 l-1395 -2238q-33 -59 -59 -59q-28 0 -73 59zM1735 267q0 354 285 642q231 236 387 236q217 0 217 -319q0 -300 -207.5 -604.5t-424.5 -304.5q-257 0 -257 350zM1841 319q0 -281 203 -281q165 0 322 221.5t157 483.5q0 286 -170 286t-341 -229t-171 -481zM2818 267 q0 354 285 642q232 236 387 236q218 0 218 -319q0 -300 -208 -604.5t-425 -304.5q-257 0 -257 350zM2924 319q0 -281 203 -281q165 0 322 221.5t157 483.5q0 286 -170 286t-341 -229t-171 -481z" />
<glyph unicode="&#x2039;" horiz-adv-x="1264" d="M309 531q0 28 33 50l803 337q9 -38 9 -52q0 -47 -47 -68l-682 -272l429 -351q38 -24 40 -55q0 -33 -73 -56l-498 434q-14 14 -14 33z" />
<glyph unicode="&#x203a;" horiz-adv-x="1390" d="M165 54q0 47 47 66l682 272l-429 351q-38 24 -40 55q0 33 73 56l498 -434q14 -14 14 -33q0 -28 -33 -50l-802 -337q-10 38 -10 54z" />
<glyph unicode="&#x2044;" horiz-adv-x="1279" d="M-24 -149l1449 2299q24 42 50 45q28 0 28 -106l-1397 -2238q-33 -59 -59 -59q-28 0 -71 59z" />
<glyph unicode="&#x205f;" horiz-adv-x="1445" />
<glyph unicode="&#x2122;" horiz-adv-x="7750" d="M3589 92q0 406 522 1265q550 904 1204 1508q73 271 73 562q0 318 -262 599l-484 453q-262 281 -260 604q0 194 116 413q130 246 300 246q106 0 106 -33q-420 -342 -420 -706q0 -281 276 -528l512 -444q274 -298 274 -704v-6q0 -102 -47 -295q580 479 1024 479 q359 0 359 -310q0 -231 -243 -731q-78 -170 -517 -975q-456 -835 -661 -1180q-28 -47 -31 -64q0 -4 5 -4q14 0 127 122l10 15q760 866 1177 1286q64 64 569 609t519 559q48 47 102 50q87 0 87 -64q0 -43 -56 -125q-241 -354 -442 -866q-295 -774 -295 -1513 q0 -779 494 -1367q585 -705 1618 -705q411 0 692 89q411 135 411 447q0 266 -454.5 453.5t-1086.5 187.5q-449 0 -978 -148q-18 -10 -28 -10q-23 0 -23 24q0 19 37 38q425 188 1074 188q585 0 1057 -169q548 -194 548 -508q0 -318 -359 -503q-322 -162 -835 -162h-19 q-817 0 -1461 474q-835 618 -835 1817q0 942 637 2122l-2436 -2596q-68 -59 -106 -59q-42 0 -45 45q0 14 69 125q28 47 387 701q377 682 401 738l382 697q347 682 347 936q0 246 -304 248q-392 0 -951 -512q-246 -788 -881 -1857q-656 -1095 -912 -1095h-1q-83 0 -83 139z M3696 203q0 -120 73 -120q14 0 38 9q129 54 667 928q267 429 522 1019q189 427 262 663q-576 -595 -1083 -1435q-479 -788 -479 -1064zM-748 333q0 229 378 229h7q198 0 417 -97q184 -83 182 -106q0 -14 -33 -17h-19q-83 64 -254 114.5t-293 50.5q-102 0 -181 -53t-79 -145 q0 -208 342 -314q246 -78 522 -78q937 0 1838 692q788 604 1208 1435q-328 9 -464 9q-97 0 -140 -5q-47 0 -49 36q0 71 69 71h4l623 -14q170 368 170 649q0 729 -977 729q-276 0 -652 -125q-198 -246 -441 -442q-262 -207 -406 -207q-106 0 -106 82q0 161 281 333 q245 156 637 276q149 217 151 364l47 18q38 0 55 -28q0 -106 -161 -326q498 144 803 147q479 -5 745 -203q250 -194 250 -522t-217 -750l517 -14q47 0 47 -43q-4 -33 -52 -40h-561q-470 -845 -1305 -1482q-937 -710 -1808 -713q-444 0 -762 137q-333 139 -333 352z M1024 2882q0 -38 50 -41q111 0 323.5 157t381.5 360q-313 -111 -528 -240q-227 -140 -227 -236z" />
<glyph unicode="&#x220f;" horiz-adv-x="1404" d="M-19 156q0 314 328 651q281 286 401 286q78 0 78 -50q0 -14 -28 -38q-116 -23 -335 -266q-262 -291 -260 -541q0 -165 116 -165q170 0 351 238q156 203 156 300q0 24 -7 81.5t-7 90.5q5 175 10 194q18 134 96 137q59 0 57 -170q0 -116 -24 -194q0 -469 222 -469 q121 0 286 132q14 14 28 14q17 0 17 -19t-50 -59q-175 -139 -337 -139q-262 0 -262 290q-281 -545 -642 -547q-194 0 -194 243z" />
<glyph unicode="&#x2211;" horiz-adv-x="946" d="M-24 179q0 236 305 739q189 319 637 953l-474 5q-88 0 -140 -5q-37 0 -37 43q0 47 42 47q19 0 28 -9h645l314 450q14 0 37.5 -20t23.5 -29q0 -28 -19 -57q-47 -78 -241 -344h711q47 0 47 -43q-5 -33 -52 -38l-760 5q-271 -323 -559 -812q-347 -585 -349 -837 q0 -156 146 -154q236 0 677 300q14 14 28 14q15 0 15 -19q0 -59 -305 -233q-318 -180 -455 -177q-267 0 -265 221z" />
<glyph unicode="&#x2260;" horiz-adv-x="2100" d="M420 474q0 33 102 92h455l231 352h-531q-42 0 -45 24q0 28 107 87h542l362 543q23 42 49 42q28 0 28 -106l-313 -479h512q54 0 54 -19q0 -28 -127 -92h-513l-231 -352h600q59 0 56 -21q0 -28 -130 -90h-599l-295 -455q-38 -59 -57 -59q-28 0 -73 59l300 455h-439 q-43 0 -45 19z" />
<glyph unicode="&#xe000;" horiz-adv-x="1080" d="M0 1080h1080v-1080h-1080v1080z" />
<glyph unicode="&#xfb01;" horiz-adv-x="1970" d="M1112 184q0 194 163 453q106 170 207 272q33 42 106 42q38 -9 41 -24q0 -4 -170 -279t-170 -407q0 -149 132 -149q174 0 554 281q15 14 31 14q14 0 14 -19q0 -28 -96 -97q-378 -271 -595 -271t-217 184zM1725 1449q0 59 52 97q38 33 83 35q87 0 87 -82q0 -43 -50.5 -89 t-88.5 -46q-78 0 -83 85zM-1185 -2388q0 323 684.5 1768.5t1385.5 2606.5q807 1338 1093 1338q153 0 153 -156q0 -632 -673 -1550q-599 -817 -1222 -1237q-38 -23 -38 -73q43 -222 295 -222q246 0 668 286q14 14 28 14q15 0 15 -19q0 -54 -300 -219q-310 -168 -446 -168h-3 q-184 0 -238 158q10 -68 10 -207q0 -562 -265 -1178q-222 -526 -552 -920q-307 -371 -487 -371h-2q-106 0 -106 149zM-1064 -2369q0 -57 33 -57h2q139 0 420 368q305 392 512 887q246 600 246 1117q0 266 -66 340q-1145 -2209 -1147 -2655zM144 415q156 15 599 484 q475 512 812 1069q413 675 413 1135q0 97 -73 97q-139 0 -677 -871q-479 -778 -1074 -1914z" />
<glyph unicode="&#xfb02;" horiz-adv-x="2159" d="M1159 444q0 424 368 1137q342 663 788 1173q475 541 744 543q115 0 115 -156q0 -488 -453 -1149q-342 -503 -866 -996q-444 -425 -531 -425q14 -455 286 -455q179 0 498 212q23 19 66 45q14 14 30 14q15 0 15 -19q0 -23 -74 -78q-406 -299 -618 -299q-160 0 -264 133 t-104 320zM1334 682q0 -19 9 -19q73 0 488 416q475 474 789 946q415 618 415 1043q0 111 -49 113q-246 0 -666 -524q-368 -465 -677 -1079.5t-309 -895.5zM-1185 -2388q0 323 684.5 1768.5t1385.5 2606.5q807 1338 1093 1338q153 0 153 -156q0 -632 -673 -1550 q-599 -817 -1222 -1237q-38 -23 -38 -73q43 -222 295 -222q246 0 668 286q14 14 28 14q15 0 15 -19q0 -54 -300 -219q-310 -168 -446 -168h-3q-184 0 -238 158q10 -68 10 -207q0 -562 -265 -1178q-222 -526 -552 -920q-307 -371 -487 -371h-2q-106 0 -106 149zM-1064 -2369 q0 -57 33 -57h2q139 0 420 368q305 392 512 887q246 600 246 1117q0 266 -66 340q-1145 -2209 -1147 -2655zM144 415q156 15 599 484q475 512 812 1069q413 675 413 1135q0 97 -73 97q-139 0 -677 -871q-479 -778 -1074 -1914z" />
</font>
</defs>
</svg>
